<?xml version="1.0" standalone="no"?>
<!DOCTYPE svg PUBLIC "-//W3C//DTD SVG 1.1//EN" "http://www.w3.org/Graphics/SVG/1.1/DTD/svg11.dtd" >
<svg>
<metadata>
Created by FontForge 20090914 at Thu Jan  3 17:03:06 2013
 By www-data
(c) 2000 Borna Rayaneh
</metadata>
<defs>
<font id="BNasimBold" horiz-adv-x="0" >
  <font-face 
    font-family="B Nasim"
    font-weight="700"
    font-stretch="normal"
    units-per-em="2048"
    panose-1="0 0 7 0 0 0 0 0 0 0"
    ascent="1638"
    descent="-410"
    bbox="-365.999 -925 3002 1975.04"
    underline-thickness="100"
    underline-position="-570"
    unicode-range="U+0020-U+FEFC"
  />
<missing-glyph horiz-adv-x="1024" 
d="M128 0v1385h768v-1385h-768zM256 128h512v1129h-512v-1129z" />
    <glyph glyph-name="uE818" unicode="&#x651;&#x64b;" 
d="M218 1579h-367l-32 125h67l17 -62h84l-19 62h65l23 -62h75l-16 60h68zM125 1892h-335l-26 76h334zM154 1761h-335l-27 75h335z" />
    <glyph glyph-name="uFC5E" unicode="&#x651;&#x64c;" arabic-form="isolated" 
d="M205 1591h-367l-32 125h67l17 -62h84l-19 62h65l23 -62h75l-16 60h68zM168 1779h-345.001l-19 64h34c3.33301 28 -9.66699 52.667 -39 74l29 48c17.333 -2 32.333 -14 45 -36c11.333 -18.667 17.333 -37.667 18 -57c0.666992 -11.333 -1.66602 -21 -6.99902 -29h37
c0 86.667 34.333 130.667 103 132c71.333 2 119.333 -63.333 144 -196zM91.999 1844c-6.66699 41.333 -27.666 62.332 -62.999 62.999c-18.667 0.666992 -32.334 -7.66602 -41.001 -24.999l-12 -38h116z" />
    <glyph glyph-name="uFC5F" unicode="&#x651;&#x64d;" arabic-form="isolated" 
d="M168 1736h-367l-32 125h67l17 -62h84l-19 62h65l23 -62h75l-16 60h68zM173 1605h-335l-27 76h335zM202 1474h-335l-27 75h335z" />
    <glyph glyph-name="uFC60" unicode="&#x651;&#x64e;" arabic-form="isolated" 
d="M206 1526h-367l-32 125h67l17 -62h84l-19 62h65l23 -62h75l-16 60h68zM148 1703h-335l-26 76h335z" />
    <glyph glyph-name="uFC61" unicode="&#x651;&#x64f;" arabic-form="isolated" 
d="M211 1563h-367l-32 125h67l17 -62h84l-19 62h65l23 -62h75l-16 60h68zM155 1749h-345l-19 64h117c0 86.667 34.333 130.667 103 132c71.333 2 119.333 -63.333 144 -196zM79 1814c-6.66699 42 -27.667 63 -63 63c-22 0 -39.667 -21 -53 -63h116z" />
    <glyph glyph-name="uFC62" unicode="&#x651;&#x650;" arabic-form="isolated" 
d="M196 1650h-367l-32 125h67l17 -62h84l-19 62h65l23 -62h75l-16 60h68zM203 1533h-335l-27 75h335z" />
    <glyph glyph-name="uFDF2" unicode="&#xfedf;&#xfee0;&#xfeea;" horiz-adv-x="2228" arabic-form="isolated" 
d="M1107 1482h-58l-31 114h59zM1308 1311h-367l-32 126h67l17 -62h84l-19 62h65l23 -62h75l-16 60h68zM2223 1h-1920c-58 0 -94.667 30.333 -110 91l-40 161c-4 16 -6 29.667 -6 41c0 40.667 16 81 48 121l271 339l-132 140h366c92 -84.667 162.667 -181 212 -289
c31.333 -68.667 62.666 -160 93.999 -274h211l-234 890h346l233 -890h230l-235 890h346zM704.001 330l-68 219l-175 -220z" />
    <glyph glyph-name="uFEF5" unicode="&#xfedf;&#xfe82;" horiz-adv-x="1701" arabic-form="isolated" 
d="M1702 1l-1385 0.000976562c-32.667 0 -59 19.333 -79 58c-7.33301 14.667 -18.333 48.667 -33 102c-21.333 78 -36 135 -44 171c116 44 227.667 102.333 335 175c124 83.333 215.333 168.666 274 255.999c-78 90.667 -392 335.667 -942 735h540
c171.333 -108.667 362 -248.667 572 -420c38 78 57 218 57 420h338c0 -282 -44 -503.333 -132 -664c154.667 -158.667 294.667 -326.667 420 -504zM1206 330.001l-179 210c-66.667 -84.667 -139 -154.667 -217 -210h396zM508 1747
c-130.667 -59.333 -226.332 -89 -286.999 -89c-30 0 -77.5 12.5 -142.5 37.5s-110.167 37.5 -135.5 37.5c-56.667 0 -138.334 -24.333 -245.001 -73l-21 79c120.667 54.667 209.334 82 266.001 82c31.333 0 78.666 -12.833 141.999 -38.5s108.333 -38.5 135 -38.5
c71.333 0 160.333 25.333 267 76z" />
    <glyph glyph-name="uFEF6" unicode="&#xfee0;&#xfe82;" horiz-adv-x="1382" arabic-form="final" 
d="M1380 1l-240 0.000976562c-32.667 0 -58 10 -76 30c-14 15.333 -29.333 45.666 -46 90.999c-24.667 67.333 -47.667 145.666 -69 234.999c-52 -125.333 -182.667 -238.333 -392 -339c-133.333 -64 -226 -96 -278 -96c-47.333 0 -78.666 36.667 -93.999 110
c-8 37.333 -21 105 -39 203c28 8 74 24 138 48c120.667 44.667 220.667 98.667 300 162c69.333 55.333 101.666 100 96.999 134c-117.333 166 -313 374 -587 624c-132.667 120.667 -252.667 217.334 -360 290.001h508c178 -154 363.333 -341.333 556 -562l-158 568h346z
M465 1747c-130.667 -59.333 -226.332 -89 -286.999 -89c-29.333 0 -76.5 12.5 -141.5 37.5s-110.167 37.5 -135.5 37.5c-57.333 0 -139.333 -24.333 -246 -73l-21 79c121.333 54.667 210.333 82 267 82c31.333 0 78.5 -12.833 141.5 -38.5s107.833 -38.5 134.5 -38.5
c71.333 0 160.666 25.333 267.999 76z" />
    <glyph glyph-name="uFEF7" unicode="&#xfedf;&#xfe84;" horiz-adv-x="1659" arabic-form="isolated" 
d="M1660 1l-1386 0.000976562c-32.667 0 -59 19.333 -79 58c-7.33301 14.667 -18.333 48.667 -33 102c-21.333 78 -36 135 -44 171c116 44 227.667 102.333 335 175c124 83.333 215.333 168.666 274 255.999c-78 90.667 -391.667 335.667 -941 735h539
c171.333 -108.667 362 -248.667 572 -420c38.667 78 58 218 58 420h338c0 -282 -44 -503.333 -132 -664c154 -158.667 294 -326.667 420 -504zM1164 330.001l-179 210c-67.333 -84.667 -140 -154.667 -218 -210h397zM164 1588h-287l-21 88h126l-115 116l188 158l28 -82
l-87 -71l146 -128z" />
    <glyph glyph-name="uFEF8" unicode="&#xfee0;&#xfe84;" horiz-adv-x="1382" arabic-form="final" 
d="M1380 1l-240 0.000976562c-32.667 0 -58 10 -76 30c-14 15.333 -29.333 45.666 -46 90.999c-24.667 67.333 -47.667 145.666 -69 234.999c-52 -125.333 -182.667 -238.333 -392 -339c-133.333 -64 -226 -96 -278 -96c-47.333 0 -78.666 36.667 -93.999 110
c-8 37.333 -21 105 -39 203c28 8 74 24 138 48c120.667 44.667 220.667 98.667 300 162c69.333 55.333 101.666 100 96.999 134c-117.333 166 -313 374 -587 624c-132.667 120.667 -252.667 217.334 -360 290.001h508c178 -154 363.333 -341.333 556 -562l-158 568h346z
M90 1588h-287l-22 88h126l-115 116l189 158l28 -82l-88 -71l146 -128z" />
    <glyph glyph-name="uFEF9" unicode="&#xfedf;&#xfe88;" horiz-adv-x="1659" arabic-form="isolated" 
d="M1660 1l-1386 0.000976562c-32.667 0 -59 19.333 -79 58c-7.33301 14.667 -18.333 48.667 -33 102c-21.333 78 -36 135 -44 171c116 44 227.667 102.333 335 175c124 83.333 215.333 168.666 274 255.999c-78 90.667 -391.667 335.667 -941 735h539
c171.333 -108.667 362 -248.667 572 -420c38.667 78 58 218 58 420h338c0 -282 -44 -503.333 -132 -664c154 -158.667 294 -326.667 420 -504zM1164 330.001l-179 210c-67.333 -84.667 -140 -154.667 -218 -210h397zM813 -442.999h-287l-21 88h125l-115 116l189 158l28 -82
l-88 -71l146 -128z" />
    <glyph glyph-name="uFEFA" unicode="&#xfee0;&#xfe88;" horiz-adv-x="1382" arabic-form="final" 
d="M1380 1l-240 0.000976562c-32.667 0 -58 10 -76 30c-14 15.333 -29.333 45.666 -46 90.999c-24.667 67.333 -47.667 145.666 -69 234.999c-52 -125.333 -182.667 -238.333 -392 -339c-133.333 -64 -226 -96 -278 -96c-47.333 0 -78.666 36.667 -93.999 110
c-8 37.333 -21 105 -39 203c28 8 74 24 138 48c120.667 44.667 220.667 98.667 300 162c69.333 55.333 101.666 100 96.999 134c-117.333 166 -313 374 -587 624c-132.667 120.667 -252.667 217.334 -360 290.001h508c178 -154 363.333 -341.333 556 -562l-158 568h346z
M813 -442.999h-287l-21 88h125l-115 116l189 158l28 -82l-88 -71l146 -128z" />
    <glyph glyph-name="uFEFB" unicode="&#xfedf;&#xfe8e;" horiz-adv-x="1659" arabic-form="isolated" 
d="M1660 1l-1386 0.000976562c-32.667 0 -59 19.333 -79 58c-7.33301 14.667 -18.333 48.667 -33 102c-21.333 78 -36 135 -44 171c116 44 227.667 102.333 335 175c124 83.333 215.333 168.666 274 255.999c-78 90.667 -391.667 335.667 -941 735h539
c171.333 -108.667 362 -248.667 572 -420c38.667 78 58 218 58 420h338c0 -282 -44 -503.333 -132 -664c154 -158.667 294 -326.667 420 -504zM1164 330.001l-179 210c-67.333 -84.667 -140 -154.667 -218 -210h397z" />
    <glyph glyph-name="uFEFC" unicode="&#xfee0;&#xfe8e;" horiz-adv-x="1382" arabic-form="final" 
d="M1380 1l-240 0.000976562c-32.667 0 -58 10 -76 30c-14 15.333 -29.333 45.666 -46 90.999c-24.667 67.333 -47.667 145.666 -69 234.999c-52 -125.333 -182.667 -238.333 -392 -339c-133.333 -64 -226 -96 -278 -96c-47.333 0 -78.666 36.667 -93.999 110
c-8 37.333 -21 105 -39 203c28 8 74 24 138 48c120.667 44.667 220.667 98.667 300 162c69.333 55.333 101.666 100 96.999 134c-117.333 166 -313 374 -587 624c-132.667 120.667 -252.667 217.334 -360 290.001h508c178 -154 363.333 -341.333 556 -562l-158 568h346z" />
    <glyph glyph-name="u0652_u064E.liga" unicode="&#x652;&#x64e;" horiz-adv-x="1" 
d="M75 1585v-335l-75 -27v335z" />
    <glyph glyph-name="u0652_u064B.liga" unicode="&#x652;&#x64b;" horiz-adv-x="1" 
d="M812 1112h-252l-59 238h247zM466 1112h-253l-57 238h246z" />
    <glyph glyph-name="u0652_u064D.liga" unicode="&#x652;&#x64d;" horiz-adv-x="1" 
d="M1312 -925h-252l-59 238h247zM966 -925h-253l-57 238h246z" />
    <glyph glyph-name="u0622" unicode="&#x622;" horiz-adv-x="779" arabic-form="isolated" 
d="M798 1h-290c-46 0 -77.333 31 -94 93l-373 1405h341l367 -1413c10 -38 26.333 -66.333 49 -85zM589 1652c-130 -60 -225.667 -90 -287 -90c-29.333 0 -76.666 12.667 -141.999 38s-110.333 38 -135 38c-58.667 0 -140.667 -24.667 -246 -74l-21 80
c120.667 54.667 209.667 82 267 82c31.333 0 78.5 -12.833 141.5 -38.5s107.833 -38.5 134.5 -38.5c71.333 0 160.666 25.333 267.999 76z" />
    <glyph glyph-name="u0623" unicode="&#x623;" horiz-adv-x="587" arabic-form="isolated" 
d="M170 1549h-288l-22 87h127l-116 118l190 156l28 -81l-88 -70l146 -129zM617 1h-291c-45.333 0 -76.333 31 -93 93l-374 1405h342l366 -1413c10 -38 26.667 -66.333 50 -85z" />
    <glyph glyph-name="u0624" unicode="&#x624;" horiz-adv-x="1154" arabic-form="isolated" 
d="M532 1138h-287l-21 87h127l-116 117l190 158l27 -82l-87 -71l146 -129zM1146 5c6 -32.667 9.00293 -65.333 9.00293 -98c0 -294.667 -237.667 -443.334 -713 -446.001c-105.333 -0.666992 -172 37 -200 113c-2.66699 7.33301 -24.667 91.333 -66 252
c89.333 -21.333 178.666 -32 267.999 -32c224.667 0 337 58.333 337 175v22c-1.33301 4.66699 -2.66602 10 -3.99902 16c-38.667 -6 -83.667 -9 -135 -9c-174.667 0 -328.334 65.333 -461.001 196c-126.667 125.333 -190.667 262 -192 410
c-0.666992 116.667 44.666 215.334 135.999 296.001c88 76.667 191.333 115 310 115c187.333 0 333 -70.667 437 -212c113.333 -154 204.666 -420 273.999 -798zM708.003 325.001c-18 118 -60.6689 213.334 -128.002 286.001c-53.333 58 -104.666 87 -153.999 87
c-28 0 -52 -11.333 -72 -34s-30.333 -48.334 -31 -77.001c-0.666992 -64 31 -121.667 95 -173c72.667 -58 169.334 -87.667 290.001 -89z" />
    <glyph glyph-name="u0625" unicode="&#x625;" horiz-adv-x="587" arabic-form="isolated" 
d="M617 1h-291c-45.333 0 -76.333 31 -93 93l-374 1405h342l366 -1413c10 -38 26.667 -66.333 50 -85zM673 -448h-288l-21 87h127l-117 118l190 157l28 -81l-87 -71l146 -129z" />
    <glyph glyph-name="u0626" unicode="&#x626;" horiz-adv-x="1787" arabic-form="isolated" 
d="M1771 -415c-236 -56 -378.335 -88.3301 -427.002 -96.9971c-107.333 -18.667 -240.666 -28 -399.999 -28c-212 0 -360.667 21.667 -446 65c-108.667 55.333 -194 170.666 -256 345.999c-22 62.667 -41 123 -57 181h294c35.333 0 63 -23.333 83 -70
c30.667 -70.667 52.334 -114 65.001 -130c38 -47.333 93.667 -71 167 -71c304.667 0 510.667 15.667 618 47c-33.333 24.667 -231 77.667 -593 159c-89.333 20 -134 60.667 -134 122c0 86 130.333 223 391 411c144 104 278 191 402 261l76 -315
c-138 -58.667 -256.333 -135.334 -355 -230.001c114.667 -25.333 199.667 -46 255 -62c134 -40.667 205 -79.334 213 -116.001zM479.998 214.003h-287l-21 88h126l-116 116l189 158l28 -82l-88 -71l147 -128z" />
    <glyph glyph-name="u0627" unicode="&#x627;" horiz-adv-x="587" arabic-form="isolated" 
d="M617 1h-291c-45.333 0 -76.333 31 -93 93l-374 1405h342l366 -1413c10 -38 26.667 -66.333 50 -85z" />
    <glyph glyph-name="u0628" unicode="&#x628;" horiz-adv-x="2294" arabic-form="isolated" 
d="M2291 1l-1657 -0.00292969c-140 0 -251.5 31 -334.5 93s-146.5 160 -190.5 294c-2.66699 8.66699 -30.667 120.667 -84 336h241c58 0 97 -24 117 -72c11.333 -47.333 22.666 -89.666 33.999 -126.999c25.333 -80 63.333 -133.667 114 -161
c41.333 -22 108.333 -33 201 -33h1088c-47.333 88.667 -126.333 204.667 -237 348c-102 132.667 -193.667 240.334 -275 323.001h419c76.667 -81.333 163 -188.666 259 -321.999c101.333 -141.333 174 -257.333 218 -348zM1404 -383.003h-252l-59 238h247z" />
    <glyph glyph-name="u0629" unicode="&#x629;" horiz-adv-x="1136" arabic-form="isolated" 
d="M727 1076h-286l-22 88h126l-115 116l189 158l27 -82l-87 -71l146 -128zM1133 1h-859.001c-37.333 0 -64.666 8 -81.999 24c-15.333 13.333 -28 39 -38 77l-47 179c-2 7.33301 -3 16.666 -3 27.999c0 58.667 17.333 109.667 52 153l299 376l-147 156h407
c89.333 -81.333 152 -151.666 188 -210.999c28.667 -48 60 -126.667 94 -236c32.667 -105.333 78 -287.333 136 -546zM719.999 331l-76 244l-195 -245z" />
    <glyph glyph-name="u062A" unicode="&#x62a;" horiz-adv-x="2294" arabic-form="isolated" 
d="M1099 880h-251l-60 239h247zM753 880h-252l-58 239h246zM2291 1l-1657 -0.00292969c-140 0 -251.5 31 -334.5 93s-146.5 160 -190.5 294c-2.66699 8.66699 -30.667 120.667 -84 336h241c58 0 97 -24 117 -72c11.333 -47.333 22.666 -89.666 33.999 -126.999
c25.333 -80 63.333 -133.667 114 -161c41.333 -22 108.333 -33 201 -33h1088c-47.333 88.667 -126.333 204.667 -237 348c-102 132.667 -193.667 240.334 -275 323.001h419c76.667 -81.333 163 -188.666 259 -321.999c101.333 -141.333 174 -257.333 218 -348z" />
    <glyph glyph-name="u062B" unicode="&#x62b;" horiz-adv-x="2294" arabic-form="isolated" 
d="M908 1121h-252l-59 238h248zM1157 803h-251l-59 238h246zM812 803h-253l-58 238h247zM2291 1l-1657 -0.00292969c-140 0 -251.5 31 -334.5 93s-146.5 160 -190.5 294c-2.66699 8.66699 -30.667 120.667 -84 336h241c58 0 97 -24 117 -72
c11.333 -47.333 22.666 -89.666 33.999 -126.999c25.333 -80 63.333 -133.667 114 -161c41.333 -22 108.333 -33 201 -33h1088c-47.333 88.667 -126.333 204.667 -237 348c-102 132.667 -193.667 240.334 -275 323.001h419c76.667 -81.333 163 -188.666 259 -321.999
c101.333 -141.333 174 -257.333 218 -348z" />
    <glyph glyph-name="u062C" unicode="&#x62c;" horiz-adv-x="1481" arabic-form="isolated" 
d="M1093 -2h-251l-59 238h246zM1585 -540h-645.001c-221.333 0 -393.666 46.667 -516.999 140c-140 106 -210 266 -210 480c0 211.333 117.667 411 353 599c-24.667 4 -69 6.66699 -133 8c-37.333 0.666992 -97.666 -1.33301 -180.999 -6
c-13.333 -0.666992 -62.333 -5 -147 -13l-79 325c194 16 414 24 660 24c258 0 429.667 -6.66699 515 -20l88 -314c-164.667 -24.667 -324.334 -92.667 -479.001 -204c-178.667 -128.667 -268 -268.334 -268 -419.001c0 -100 45.333 -173 136 -219c70 -36 160 -54 270 -54
h458c43.333 0 76 -14.667 98 -44c16 -21.333 43 -115.666 81 -282.999z" />
    <glyph glyph-name="u062D" unicode="&#x62d;" horiz-adv-x="1481" arabic-form="isolated" 
d="M1585 -540h-645.001c-221.333 0 -393.666 46.667 -516.999 140c-140 106 -210 266 -210 480c0 211.333 117.667 411 353 599c-24.667 4 -69 6.66699 -133 8c-37.333 0.666992 -97.666 -1.33301 -180.999 -6c-13.333 -0.666992 -62.333 -5 -147 -13l-79 325
c194 16 414 24 660 24c258 0 429.667 -6.66699 515 -20l88 -314c-164.667 -24.667 -324.334 -92.667 -479.001 -204c-178.667 -128.667 -268 -268.334 -268 -419.001c0 -100 45.333 -173 136 -219c70 -36 160 -54 270 -54h458c43.333 0 76 -14.667 98 -44
c16 -21.333 43 -115.666 81 -282.999z" />
    <glyph glyph-name="u062E" unicode="&#x62e;" horiz-adv-x="1481" arabic-form="isolated" 
d="M706 1157h-252l-58 238h246zM1585 -540h-645.001c-221.333 0 -393.666 46.667 -516.999 140c-140 106 -210 266 -210 480c0 211.333 117.667 411 353 599c-24.667 4 -69 6.66699 -133 8c-37.333 0.666992 -97.666 -1.33301 -180.999 -6
c-13.333 -0.666992 -62.333 -5 -147 -13l-79 325c194 16 414 24 660 24c258 0 429.667 -6.66699 515 -20l88 -314c-164.667 -24.667 -324.334 -92.667 -479.001 -204c-178.667 -128.667 -268 -268.334 -268 -419.001c0 -100 45.333 -173 136 -219c70 -36 160 -54 270 -54
h458c43.333 0 76 -14.667 98 -44c16 -21.333 43 -115.666 81 -282.999z" />
    <glyph glyph-name="u062F" unicode="&#x62f;" horiz-adv-x="1205" arabic-form="isolated" 
d="M1204 1l-906 0.000976562c-82.667 0 -138.667 110 -168 330h625c-46 70.667 -133 186 -261 346c-124 154 -215 262.333 -273 325h419c75.333 -79.333 166 -194 272 -344c102.667 -144.667 171 -253.334 205 -326.001z" />
    <glyph glyph-name="u0630" unicode="&#x630;" horiz-adv-x="1205" arabic-form="isolated" 
d="M514 1147h-252l-58 238h247zM1204 1l-906 0.000976562c-82.667 0 -138.667 110 -168 330h625c-46 70.667 -133 186 -261 346c-124 154 -215 262.333 -273 325h419c75.333 -79.333 166 -194 272 -344c102.667 -144.667 171 -253.334 205 -326.001z" />
    <glyph glyph-name="u0631" unicode="&#x631;" horiz-adv-x="1117" arabic-form="isolated" 
d="M1115 -60c0 -320 -227.001 -479.999 -681.001 -479.999c-67.333 0 -115.666 5.66699 -144.999 17c-44.667 17.333 -74 52.666 -88 105.999l-63 243c138.667 -24 230.667 -36 276 -36c84 0 156 13.667 216 41c79.333 36 119 91.333 119 166
c0 136.667 -140.667 473 -422 1009h389c120.667 -216.667 211 -398 271 -544c85.333 -207.333 128 -381.333 128 -522z" />
    <glyph glyph-name="u0632" unicode="&#x632;" horiz-adv-x="1117" arabic-form="isolated" 
d="M614 1130h-251l-59 237h246zM1115 -60c0 -320 -227.001 -479.999 -681.001 -479.999c-67.333 0 -115.666 5.66699 -144.999 17c-44.667 17.333 -74 52.666 -88 105.999l-63 243c138.667 -24 230.667 -36 276 -36c84 0 156 13.667 216 41c79.333 36 119 91.333 119 166
c0 136.667 -140.667 473 -422 1009h389c120.667 -216.667 211 -398 271 -544c85.333 -207.333 128 -381.333 128 -522z" />
    <glyph glyph-name="u0633" unicode="&#x633;" horiz-adv-x="3002" arabic-form="isolated" 
d="M3002 1l-1264 -0.000976562c0 -184 -71 -323.667 -213 -419c-122 -82 -279.333 -123 -472 -123c-379.333 0 -653.333 169.667 -822 509c-8 16 -54.667 136.667 -140 362h229c79.333 0 129.333 -21.333 150 -64c12 -27.333 35 -76.333 69 -147
c43.333 -85.333 103.333 -157.333 180 -216c97.333 -74 211.666 -111.333 342.999 -112c92 -0.666992 160.667 12.333 206 39c58.667 34 88.334 93.667 89.001 179c0.666992 130.667 -99.666 370 -300.999 718h388c87.333 -125.333 153.666 -257.333 198.999 -396h266
c-37.333 99.333 -114 231.333 -230 396h375c88.667 -108 164.667 -240 228 -396h260c-227.333 342.667 -390.666 566.334 -490 671.001h409c70.667 -76 153.334 -183.333 248 -322c98.667 -144 167.334 -260 206 -348z" />
    <glyph glyph-name="u0634" unicode="&#x634;" horiz-adv-x="3002" arabic-form="isolated" 
d="M1620 1330h-251l-59 238h246zM1870 1012h-252l-60 238h248zM1524 1012h-253l-58 238h247zM3002 1l-1264 -0.000976562c0 -184 -71 -323.667 -213 -419c-122 -82 -279.333 -123 -472 -123c-379.333 0 -653.333 169.667 -822 509c-8 16 -54.667 136.667 -140 362h229
c79.333 0 129.333 -21.333 150 -64c12 -27.333 35 -76.333 69 -147c43.333 -85.333 103.333 -157.333 180 -216c97.333 -74 211.666 -111.333 342.999 -112c92 -0.666992 160.667 12.333 206 39c58.667 34 88.334 93.667 89.001 179
c0.666992 130.667 -99.666 370 -300.999 718h388c87.333 -125.333 153.666 -257.333 198.999 -396h266c-37.333 99.333 -114 231.333 -230 396h375c88.667 -108 164.667 -240 228 -396h260c-227.333 342.667 -390.666 566.334 -490 671.001h409
c70.667 -76 153.334 -183.333 248 -322c98.667 -144 167.334 -260 206 -348z" />
    <glyph glyph-name="u0635" unicode="&#x635;" horiz-adv-x="2947" arabic-form="isolated" 
d="M2947 1l-1209 -0.000976562c0 -184 -71 -323.667 -213 -419c-122 -82 -279.333 -123 -472 -123c-379.333 0 -653.333 169.667 -822 509c-8 16 -54.667 136.667 -140 362h229c79.333 0 129.333 -21.333 150 -64l70 -147c43.333 -85.333 103.333 -157.333 180 -216
c97.333 -74 211.333 -111.333 342 -112c92 -0.666992 160.667 12.333 206 39c58.667 34 88.334 93.667 89.001 179c0.666992 130.667 -99.666 370 -300.999 718h388c50.667 -74 112.334 -205 185.001 -393c145.333 240 246 396.667 302 470c35.333 46.667 83 92.667 143 138
c76 58 159.667 87 251 87c128.667 0 236.667 -54.333 324 -163c62 -77.333 118.333 -190.333 169 -339c39.333 -115.333 82.333 -290.666 129 -525.999zM2533 329.999c-14 70.667 -28.332 126 -42.999 166c-42.667 115.333 -102.334 173 -179 173
c-47.333 0 -99.666 -23.667 -157 -71c-46.667 -38.667 -121.334 -128 -224.001 -268h603z" />
    <glyph glyph-name="u0636" unicode="&#x636;" horiz-adv-x="2947" arabic-form="isolated" 
d="M2363 1162h-252l-59 237h247zM2947 1l-1209 0.000976562c0 -184 -71 -323.667 -213 -419c-122 -82 -279.333 -123 -472 -123c-379.333 0 -653.333 169.667 -822 509c-8 16 -54.667 136.667 -140 362h229c79.333 0 129.333 -21.333 150 -64l70 -147
c43.333 -85.333 103.333 -157.333 180 -216c97.333 -74 211.333 -111.333 342 -112c92 -0.666992 160.667 12.333 206 39c58.667 34 88.334 93.667 89.001 179c0.666992 130.667 -99.666 370 -300.999 718h388c50.667 -74 112.334 -205 185.001 -393
c118 197.333 210.333 340.666 277 429.999c57.333 77.333 113.333 136.666 168 177.999c76 58 159.667 87 251 87c128.667 0 236.667 -54.333 324 -163c62 -77.333 118.333 -190.333 169 -339c39.333 -115.333 82.333 -290.666 129 -525.999zM2533 330.001
c-14 70.667 -28.332 126 -42.999 166c-42.667 115.333 -102.334 173 -179 173c-47.333 0 -99.666 -23.667 -157 -71c-46.667 -38.667 -121.334 -128 -224.001 -268h603z" />
    <glyph glyph-name="u0637" unicode="&#x637;" horiz-adv-x="1793" arabic-form="isolated" 
d="M1789 1h-1502c-52.667 0 -90.334 36 -113.001 108c-8.66699 26 -23.334 100 -44.001 222h240l-305 1168h340l241 -885c80.667 114.667 143.334 195.667 188.001 243c32.667 34.667 72.334 66.667 119.001 96c69.333 43.333 143.666 65 222.999 65
c128 0 234.667 -53 320 -159c61.333 -76 116.333 -187.667 165 -335c36.667 -110.667 79.334 -285 128.001 -523zM1374 330c-9.33301 55.333 -23.334 110 -42.001 164c-38.667 112 -93.667 168 -165 168c-99.333 0 -227.666 -110.667 -384.999 -332h592z" />
    <glyph glyph-name="u0638" unicode="&#x638;" horiz-adv-x="1793" arabic-form="isolated" 
d="M1183 1162h-253l-59 237h248zM1789 1h-1502c-52.667 0 -90.334 36 -113.001 108c-8.66699 26 -23.334 100 -44.001 222h240l-305 1168h340l241 -885c80.667 114.667 143.334 195.667 188.001 243c32.667 34.667 72.334 66.667 119.001 96
c69.333 43.333 143.666 65 222.999 65c128 0 234.667 -53 320 -159c61.333 -76 116.333 -187.667 165 -335c36.667 -110.667 79.334 -285 128.001 -523zM1374 330c-9.33301 55.333 -23.334 110 -42.001 164c-38.667 112 -93.667 168 -165 168
c-99.333 0 -227.666 -110.667 -384.999 -332h592z" />
    <glyph glyph-name="u0639" unicode="&#x639;" horiz-adv-x="1500" arabic-form="isolated" 
d="M1582 -541l-562.001 -0.000976562c-224 0 -402.667 33 -536 99c-178.667 88 -268.334 232.333 -269.001 433c-0.666992 92.667 48.333 205.667 147 339c-59.333 35.333 -109.333 79 -150 131c-52 66.667 -78.333 133.334 -79 200.001c-1.33301 237.333 271 356 817 356
l86 -332c-65.333 2 -122.666 3 -171.999 3c-244 0 -366 -29.667 -366 -89c0 -80.667 95.333 -121 286 -121h532l93 -329h-588c-181.333 0 -272.666 -48.333 -273.999 -145c-0.666992 -77.333 50.333 -134 153 -170c70.667 -24.667 153.667 -37 249 -37h442
c52 0 89 -14.667 111 -44c15.333 -20 29.333 -60 42 -120z" />
    <glyph glyph-name="u063A" unicode="&#x63a;" horiz-adv-x="1500" arabic-form="isolated" 
d="M736 1162h-252l-58 237h246zM1582 -541l-562.001 -0.000976562c-224 0 -402.667 33 -536 99c-178.667 88 -268.334 232.333 -269.001 433c-0.666992 92.667 48.333 205.667 147 339c-59.333 35.333 -109.333 79 -150 131c-52 66.667 -78.333 133.334 -79 200.001
c-1.33301 237.333 271 356 817 356l86 -332c-65.333 2 -122.666 3 -171.999 3c-244 0 -366 -29.667 -366 -89c0 -80.667 95.333 -121 286 -121h532l93 -329h-588c-181.333 0 -272.666 -48.333 -273.999 -145c-0.666992 -77.333 50.333 -134 153 -170
c70.667 -24.667 153.667 -37 249 -37h442c52 0 89 -14.667 111 -44c15.333 -20 29.333 -60 42 -120z" />
    <glyph glyph-name="u0641" unicode="&#x641;" horiz-adv-x="2294" arabic-form="isolated" 
d="M2295 1l-1661 0.000976562c-280 0 -457.333 129 -532 387c-21.333 72.667 -47 184.667 -77 336h241c54 0 91 -22 111 -66c12 -44.667 25.333 -89 40 -133c27.333 -80.667 65.333 -134.334 114 -161.001c40.667 -22 107.667 -33 201 -33h482
c-26.667 28.667 -48 75.667 -64 141c-13.333 55.333 -20.333 107.666 -21 156.999c-0.666992 118.667 45 217.334 137 296.001c87.333 73.333 191.666 110 312.999 110c288.667 0 498.334 -219.333 629.001 -658c10 -34 39 -159.333 87 -376zM1847 336.001
c-14.667 88.667 -43.332 167.999 -85.999 237.999c-54.667 90 -119.334 135.333 -194.001 136c-26.667 0.666992 -51 -9 -73 -29s-33 -43 -33 -69c0 -68 30.667 -126.667 92 -176c80.667 -65.333 178.667 -98.666 294 -99.999zM1629 1162h-252l-59 237h247z" />
    <glyph glyph-name="u0642" unicode="&#x642;" horiz-adv-x="1740" arabic-form="isolated" 
d="M1262 1157h-251l-60 238h247zM916 1157h-251l-59 238h247zM1731 -19c4 -19.333 6.00293 -36.665 6.00293 -51.998c0.666992 -148 -80 -267 -242 -357c-134.667 -75.333 -282 -113 -442 -113c-380 0 -654 169.667 -822 509c-37.333 75.333 -84 196 -140 362h229
c72.667 0 128 -29.333 166 -88l86 -185c89.333 -177.333 252.666 -266 489.999 -266c73.333 0 139.666 13 198.999 39c77.333 34 116.666 83.333 117.999 148c0 11.333 -1.66699 23.333 -5 36c-49.333 -13.333 -98 -20 -146 -20c-174 0 -327.667 60 -461 180
c-138 124 -207 272 -207 444c0 127.333 46 228.666 138 303.999c85.333 70 193 105 323 105c214 0 384.667 -128 512 -384c73.333 -146.667 139.333 -367.334 198 -662.001zM1299 336.001c0 24.667 -12.333 63.999 -37 117.999c-75.333 165.333 -161.333 248 -258 248
c-73.333 0 -110 -38.333 -110 -115c0 -84.667 49.333 -150 148 -196c76 -35.333 161.667 -53.666 257 -54.999z" />
    <glyph glyph-name="u0643" unicode="&#x643;" horiz-adv-x="2130" arabic-form="isolated" 
d="M1977 1184c-248.667 -27.333 -509.668 -75.334 -783.001 -144.001c203.333 -159.333 419 -395.333 647 -708l86 -331h-1283c-147.333 0 -264.333 30.667 -351 92c-88.667 62.667 -155 163.334 -199 302.001c-23.333 74 -50 183.667 -80 329h241
c50.667 0 86.334 -21 107.001 -63l44 -136c28 -80.667 66.333 -134.334 115 -161.001c40 -22 106.667 -33 200 -33h732c-118.667 166 -312.667 372.667 -582 620l-52 266c318.667 90.667 678.667 170.334 1080 239.001z" />
    <glyph glyph-name="u0644" unicode="&#x644;" horiz-adv-x="1740" arabic-form="isolated" 
d="M1719 26c7.33301 -28 11 -56.999 11 -86.999c0 -154.667 -77.667 -277 -233 -367c-130 -75.333 -278 -113 -444 -113c-384 0 -658.333 169.667 -823 509c-12.667 26 -59 146.667 -139 362h229c75.333 0 125.333 -21.333 150 -64c10.667 -18 35.334 -75.333 74.001 -172
c45.333 -113.333 113 -193.666 203 -240.999c76.667 -40.667 181.667 -61.334 315 -62.001c77.333 -0.666992 144.666 14.666 201.999 45.999c70 38 105 92.667 105 164c0 16 -2.33301 32.667 -7 50l-389 1448h360z" />
    <glyph glyph-name="u0645" unicode="&#x645;" horiz-adv-x="1445" arabic-form="isolated" 
d="M1445 0l-197 -283c-307.333 171.333 -529 258.333 -665 261c-45.333 0.666992 -69 -16.333 -71 -51l126 -468h-197c-36 0 -63 11.667 -81 35c-12 15.333 -23.667 44.333 -35 87l-171 631c0 50 14.667 84.333 44 103l83 33c29.333 16 44.333 46.333 45 91
c0 37.333 -7.5 92.166 -22.5 164.499s-22.5 126.833 -22.5 163.5c0 78 27 141 81 189c52 46.667 117.333 70 196 70c154 0 313.333 -81 478 -243c137.333 -135.333 243 -285.666 317 -450.999zM1014 217c-13.333 66 -56.667 146.002 -130 240.002
c-80.667 103.333 -150 155 -208 155c-16.667 0 -25 -9 -25 -27c0 -14.667 3.16699 -36.334 9.5 -65.001s9.5 -50.334 9.5 -65.001c0 -50.667 -6.33301 -94 -19 -130c107.333 -20 228.333 -56 363 -108z" />
    <glyph glyph-name="u0646" unicode="&#x646;" horiz-adv-x="1725" arabic-form="isolated" 
d="M1731 -19c0 -3.33301 0.333008 -7.99902 1 -13.999v-17c0 -154 -78 -277.667 -234 -371c-134 -80 -282.333 -120 -445 -120c-384 0 -658.333 169.667 -823 509c-12.667 26 -59 146.667 -139 362h229c75.333 0 125.333 -21.333 150 -64
c10.667 -18 35.334 -75.333 74.001 -172c45.333 -113.333 113 -193.666 203 -240.999c76.667 -40.667 181.667 -61.334 315 -62.001c78 -0.666992 145.333 15.666 202 48.999c68.667 40 103 96.333 103 169c0 174.667 -146.667 506.334 -440 995.001h390
c93.333 -140.667 179.666 -305 258.999 -493c89.333 -210.667 141 -387.334 155 -530.001zM862 446.001h-252l-59 238h248z" />
    <glyph glyph-name="u0647" unicode="&#x647;" horiz-adv-x="1136" arabic-form="isolated" 
d="M1133 1h-859.001c-37.333 0 -64.666 8 -81.999 24c-15.333 13.333 -28 39 -38 77l-47 179c-2 7.33301 -3 16.666 -3 27.999c0 58.667 17.333 109.667 52 153l299 376l-147 156h407c89.333 -81.333 152 -151.666 188 -210.999c28.667 -48 60 -126.667 94 -236
c32.667 -105.333 78 -287.333 136 -546zM719.999 331l-76 244l-195 -245z" />
    <glyph glyph-name="u0648" unicode="&#x648;" horiz-adv-x="1154" arabic-form="isolated" 
d="M1146 5c6 -32.667 9.00293 -65.333 9.00293 -98c0 -294.667 -237.667 -443.334 -713 -446.001c-105.333 -0.666992 -172 37 -200 113c-2.66699 7.33301 -24.667 91.333 -66 252c89.333 -21.333 178.666 -32 267.999 -32c224.667 0 337 58.333 337 175v22
c-1.33301 4.66699 -2.66602 10 -3.99902 16c-38.667 -6 -83.667 -9 -135 -9c-174.667 0 -328.334 65.333 -461.001 196c-126.667 125.333 -190.667 262 -192 410c-0.666992 116.667 44.666 215.334 135.999 296.001c88 76.667 191.333 115 310 115
c187.333 0 333 -70.667 437 -212c113.333 -154 204.666 -420 273.999 -798zM708.003 325.001c-18 118 -60.6689 213.334 -128.002 286.001c-53.333 58 -104.666 87 -153.999 87c-28 0 -52 -11.333 -72 -34s-30.333 -48.334 -31 -77.001c-0.666992 -64 31 -121.667 95 -173
c72.667 -58 169.334 -87.667 290.001 -89z" />
    <glyph glyph-name="u0649" unicode="&#x649;" horiz-adv-x="1787" arabic-form="isolated" 
d="M1771 -415c-236 -56 -378.335 -88.3301 -427.002 -96.9971c-107.333 -18.667 -240.666 -28 -399.999 -28c-212 0 -360.667 21.667 -446 65c-108.667 55.333 -194 170.666 -256 345.999c-22 62.667 -41 123 -57 181h294c35.333 0 63 -23.333 83 -70
c30.667 -70.667 52.334 -114 65.001 -130c38 -47.333 93.667 -71 167 -71c304.667 0 510.667 15.667 618 47c-33.333 24.667 -231 77.667 -593 159c-89.333 20 -134 60.667 -134 122c0 86 130.333 223 391 411c144 104 278 191 402 261l76 -315
c-138 -58.667 -256.333 -135.334 -355 -230.001c114.667 -25.333 199.667 -46 255 -62c134 -40.667 205 -79.334 213 -116.001z" />
    <glyph glyph-name="u064A" unicode="&#x64a;" horiz-adv-x="1787" arabic-form="isolated" 
d="M1771 -415c-236 -56 -378.335 -88.3301 -427.002 -96.9971c-107.333 -18.667 -240.666 -28 -399.999 -28c-212 0 -360.667 21.667 -446 65c-108.667 55.333 -194 170.666 -256 345.999c-22 62.667 -41 123 -57 181h294c35.333 0 63 -23.333 83 -70
c30.667 -70.667 52.334 -114 65.001 -130c38 -47.333 93.667 -71 167 -71c304.667 0 510.667 15.667 618 47c-33.333 24.667 -231 77.667 -593 159c-89.333 20 -134 60.667 -134 122c0 86 130.333 223 391 411c144 104 278 191 402 261l76 -315
c-138 -58.667 -256.333 -135.334 -355 -230.001c114.667 -25.333 199.667 -46 255 -62c134 -40.667 205 -79.334 213 -116.001z" />
    <glyph glyph-name="u067E" unicode="&#x67e;" horiz-adv-x="2294" arabic-form="isolated" 
d="M1122 -413h252l59 -238h-247zM873 -95h251l60 -238h-247zM1218 -95h253l59 -238h-248zM2291 1l-1657 -0.00292969c-140 0 -251.5 31 -334.5 93s-146.5 160 -190.5 294c-2.66699 8.66699 -30.667 120.667 -84 336h241c58 0 97 -24 117 -72
c11.333 -47.333 22.666 -89.666 33.999 -126.999c25.333 -80 63.333 -133.667 114 -161c41.333 -22 108.333 -33 201 -33h1088c-47.333 88.667 -126.333 204.667 -237 348c-102 132.667 -193.667 240.334 -275 323.001h419c76.667 -81.333 163 -188.666 259 -321.999
c101.333 -141.333 174 -257.333 218 -348z" />
    <glyph glyph-name="u0686" unicode="&#x686;" horiz-adv-x="1481" arabic-form="isolated" 
d="M925 69h201l47 -191h-197zM726 324h200l48 -191h-196zM1003 324h200l47 -191h-196zM1585 -540h-645.001c-221.333 0 -393.666 46.667 -516.999 140c-140 106 -210 266 -210 480c0 211.333 117.667 411 353 599c-24.667 4 -69 6.66699 -133 8
c-37.333 0.666992 -97.666 -1.33301 -180.999 -6c-13.333 -0.666992 -62.333 -5 -147 -13l-79 325c194 16 414 24 660 24c258 0 429.667 -6.66699 515 -20l88 -314c-164.667 -24.667 -324.334 -92.667 -479.001 -204c-178.667 -128.667 -268 -268.334 -268 -419.001
c0 -100 45.333 -173 136 -219c70 -36 160 -54 270 -54h458c43.333 0 76 -14.667 98 -44c16 -21.333 43 -115.666 81 -282.999z" />
    <glyph glyph-name="u0698" unicode="&#x698;" horiz-adv-x="1117" arabic-form="isolated" 
d="M535 1437h-251l-59 238h248zM785 1119h-252l-58 238h246zM439 1119h-252l-58 238h246zM1115 -60c0 -320 -227.001 -479.999 -681.001 -479.999c-67.333 0 -115.666 5.66699 -144.999 17c-44.667 17.333 -74 52.666 -88 105.999l-63 243c138.667 -24 230.667 -36 276 -36
c84 0 156 13.667 216 41c79.333 36 119 91.333 119 166c0 136.667 -140.667 473 -422 1009h389c120.667 -216.667 211 -398 271 -544c85.333 -207.333 128 -381.333 128 -522z" />
    <glyph glyph-name="u06AF" unicode="&#x6af;" horiz-adv-x="2130" arabic-form="isolated" 
d="M1889 1457c-244.667 -37.333 -601 -112 -1069 -224l-10 61c357.333 92 712 166.667 1064 224zM1977 1184c-248.667 -27.333 -509.666 -75.333 -782.999 -144c203.333 -159.333 419 -395.333 647 -708l86 -331h-1283c-147.333 0 -264.333 30.333 -351 91
c-88.667 62.667 -155 163.667 -199 303c-8.66699 28 -35.334 137.667 -80.001 329h241c52 0 88 -19.667 108 -59l43 -140c26 -82 67 -137.333 123 -166c36 -18.667 100 -28 192 -28h732c-118.667 166 -312.667 372.667 -582 620l-41 224c391.333 102.667 751 182 1079 238z
" />
    <glyph glyph-name="uFB57" unicode="&#x67e;" horiz-adv-x="2294" arabic-form="final" 
d="M1122 -413h252l59 -238h-247zM873 -95h251l60 -238h-247zM1218 -95h253l59 -238h-248zM2291 1l-1657 -0.00292969c-140 0 -251.5 31 -334.5 93s-146.5 160 -190.5 294c-2.66699 8.66699 -30.667 120.667 -84 336h241c58 0 97 -24 117 -72
c11.333 -47.333 22.666 -89.666 33.999 -126.999c25.333 -80 63.333 -133.667 114 -161c41.333 -22 108.333 -33 201 -33h1088c-47.333 88.667 -126.333 204.667 -237 348c-102 132.667 -193.667 240.334 -275 323.001h419c76.667 -81.333 163 -188.666 259 -321.999
c101.333 -141.333 174 -257.333 218 -348z" />
    <glyph glyph-name="uFB58" unicode="&#x67e;" horiz-adv-x="911" arabic-form="initial" 
d="M367 -413h252l58 -238h-246zM118 -95h251l60 -238h-248zM464 -95h252l58 -238h-247zM908 1l-959.998 0.000976562c-52.667 0 -90.334 36 -113.001 108c-8.66699 26 -23.334 100 -44.001 222h668c-48 73.333 -135 188.666 -261 345.999
c-122 152 -213.333 260.333 -274 325h419c74.667 -78 165.334 -192.667 272.001 -344c103.333 -146 171.666 -254.667 204.999 -326z" />
    <glyph glyph-name="uFB59" unicode="&#x67e;" horiz-adv-x="910" arabic-form="medial" 
d="M367 -413h252l58 -238h-246zM118 -95h251l60 -238h-248zM464 -95h252l58 -238h-247zM907 1h-950.001c-51.333 0 -89 36 -113 108c-6.66699 20.667 -21 94.667 -43 222h657c-50 107.333 -143.333 240.333 -280 399h398c106.667 -130 191.334 -262.667 254.001 -398z" />
    <glyph glyph-name="uFB7B" unicode="&#x686;" horiz-adv-x="1601" arabic-form="final" 
d="M807 5h181l42 -171h-177zM638 235h181l42 -172h-177zM876 235h182l42 -172h-178zM1714 1l-184.001 -0.000976562c-144.667 0 -272 57.333 -382 172c-108 112.667 -162.333 242 -163 388c-97.333 -27.333 -194 -92.333 -290 -195c-102 -109.333 -153 -211.333 -153 -306
c0 -182.667 136.333 -274 409 -274h447c61.333 0 105.333 -31.667 132 -95c6 -22.667 25.333 -100 58 -232h-645c-222 0 -395 46.667 -519 140c-140.667 106 -211 266.333 -211 481c0 211.333 117.667 411 353 599c-24.667 4 -69 6.66699 -133 8
c-37.333 0.666992 -97.666 -1.33301 -180.999 -6c-13.333 -0.666992 -62.333 -5 -147 -13l-79 325c194 16 414 24 660 24c258 0 429.667 -6.66699 515 -20l105 -376c27.333 -99.333 56 -167.666 86 -204.999c44.667 -56.667 109 -85 193 -85h25
c45.333 -196 80 -306 104 -330z" />
    <glyph glyph-name="uFB7C" unicode="&#x686;" horiz-adv-x="1674" arabic-form="initial" 
d="M675 -413h252l59 -238h-247zM427 -95h250l60 -238h-246zM772 -95h252l59 -238h-247zM1674 1h-1717c-51.333 0 -89 36 -113 108c-6.66699 20.667 -21 94.667 -43 222h1356c-74.667 90 -177.334 174.333 -308.001 253c-138 83.333 -253.667 125.333 -347 126
c-118 1.33301 -253.333 -56 -406 -172l-81 315c168.667 120 330.667 180.333 486 181c187.333 0 391 -77.667 611 -233c190 -134 348.333 -289.667 475 -467z" />
    <glyph glyph-name="uFB7D" unicode="&#x686;" horiz-adv-x="1674" arabic-form="medial" 
d="M675 -413h252l59 -238h-247zM427 -95h250l60 -238h-246zM772 -95h252l59 -238h-247zM1674 1h-1717c-51.333 0 -89 36 -113 108c-6.66699 20.667 -21 94.667 -43 222h1356c-74.667 90 -177.334 174.333 -308.001 253c-138 83.333 -253.667 125.333 -347 126
c-118 1.33301 -253.333 -56 -406 -172l-81 315c168.667 120 330.667 180.333 486 181c187.333 0 391 -77.667 611 -233c190 -134 348.333 -289.667 475 -467z" />
    <glyph glyph-name="uFB8B" unicode="&#x698;" horiz-adv-x="1117" arabic-form="final" 
d="M535 1437h-251l-59 238h248zM785 1119h-252l-58 238h246zM439 1119h-252l-58 238h246zM1115 -60c0 -320 -227.001 -479.999 -681.001 -479.999c-67.333 0 -115.666 5.66699 -144.999 17c-44.667 17.333 -74 52.666 -88 105.999l-63 243c138.667 -24 230.667 -36 276 -36
c84 0 156 13.667 216 41c79.333 36 119 91.333 119 166c0 136.667 -140.667 473 -422 1009h389c120.667 -216.667 211 -398 271 -544c85.333 -207.333 128 -381.333 128 -522z" />
    <glyph glyph-name="uFEDA" unicode="&#x6a9;" horiz-adv-x="2303" arabic-form="final" 
d="M2299 1l-1655 -0.000976562c-147.333 0 -264.333 30.333 -351 91c-88.667 62.667 -155 163.667 -199 303c-8.66699 28 -35.334 137.667 -80.001 329h241c58.667 0 98.334 -24 119.001 -72c5.33301 -24 16 -66.333 32 -127c22.667 -79.333 63.667 -134.666 123 -165.999
c35.333 -18.667 99.333 -28 192 -28h732c-118.667 166 -312.667 372.667 -582 620l-52 266c447.333 112 807.333 191.667 1080 239l78 -272c-224.667 -22.667 -482.667 -71 -774 -145c216 -187.333 428.667 -423.333 638 -708h373z" />
    <glyph glyph-name="uFEDB" unicode="&#x6a9;" horiz-adv-x="1234" arabic-form="initial" 
d="M1052 1184c-81.333 -6.66699 -208.999 -26.332 -382.999 -58.999c-164.667 -30.667 -298.334 -59.334 -401.001 -86.001c252 -212.667 467.667 -448.667 647 -708l89 -330h-1046l-93 330h662c-114.667 162 -308 368.667 -580 620l-54 266c126 35.333 311.667 80 557 134
c226 50 400.667 85 524 105z" />
    <glyph glyph-name="uFEDC" unicode="&#x6a9;" horiz-adv-x="1373" arabic-form="medial" 
d="M1372 1l-1414 -0.00195312l-93 330h662c-123.333 179.333 -316.666 386 -579.999 620l-54 266c440 112.667 800.333 192.334 1081 239.001l78 -272c-185.333 -19.333 -443.333 -66.666 -774 -141.999c260.667 -244 472.667 -481 636 -711h372z" />
    <glyph glyph-name="uFB93" unicode="&#x6af;" horiz-adv-x="2303" arabic-form="final" 
d="M1889 1457c-217.333 -30.667 -573.668 -105.334 -1069 -224.001l-10 61c388.667 98.667 743.334 173.334 1064 224.001zM2299 1l-1655 0.000976562c-147.333 0 -264.333 30.333 -351 91c-88.667 62.667 -155 163.667 -199 303c-8.66699 28 -35.334 137.667 -80.001 329
h241c55.333 0 92.666 -21.667 111.999 -65c6.66699 -25.333 19.667 -70 39 -134c26 -80.667 64 -134.334 114 -161.001c40.667 -22 107.667 -33 201 -33h732c-118.667 166 -312.667 372.667 -582 620l-41 224c391.333 102.667 751 182 1079 238l68 -229
c-248.667 -27.333 -509.667 -75.333 -783 -144c215.333 -170 431 -406.333 647 -709h373z" />
    <glyph glyph-name="uFB94" unicode="&#x6af;" horiz-adv-x="1243" arabic-form="initial" 
d="M964 1457c-326 -48.667 -682.668 -123.333 -1070 -224l-10 61c400.667 109.333 755.334 184 1064 224zM1052 1184c-246 -27.333 -507.334 -75.333 -784.001 -144c204.667 -159.333 420.334 -395.333 647.001 -708l88 -331h-1045l-93 330h662
c-114.667 162 -308 368.667 -580 620l-43 224c418.667 106.667 779 186 1081 238z" />
    <glyph glyph-name="uFB95" unicode="&#x6af;" horiz-adv-x="1372" arabic-form="medial" 
d="M962 1457c-238.667 -36 -595.334 -110.667 -1070 -224l-10 61c430.667 108 785.334 182.667 1064 224zM1372 1h-1414l-93 330h660c-115.333 162 -308.666 368.667 -579.999 620l-43 224c390 102 750 181.333 1080 238l68 -229c-246 -27.333 -507.333 -75.333 -784 -144
c216.667 -170 432.334 -406.333 647.001 -709h373z" />
    <glyph glyph-name="uFE94" unicode="&#x6c0;" horiz-adv-x="1136" arabic-form="final" 
d="M727 1076h-286l-22 88h126l-115 116l189 158l27 -82l-87 -71l146 -128zM1133 1h-859.001c-37.333 0 -64.666 8 -81.999 24c-15.333 13.333 -28 39 -38 77l-47 179c-2 7.33301 -3 16.666 -3 27.999c0 58.667 17.333 109.667 52 153l299 376l-147 156h407
c89.333 -81.333 152 -151.666 188 -210.999c28.667 -48 60 -126.667 94 -236c32.667 -105.333 78 -287.333 136 -546zM719.999 331l-76 244l-195 -245z" />
    <glyph glyph-name="uFEF2" unicode="&#x6cc;" horiz-adv-x="1685" arabic-form="final" 
d="M1791 -417c-299.333 -82 -581.668 -123 -847.001 -123c-220.667 0 -376.667 26 -468 78c-96.667 54.667 -174.667 165.667 -234 333c-14 38.667 -33 99 -57 181h294c37.333 0 66.333 -23.333 87 -70c34 -76.667 61.333 -125.667 82 -147c34.667 -36 86.667 -54 156 -54
c286.667 0 483.667 15 591 45c-20.667 28 -46 58.667 -76 92c-35.333 40 -85.666 64.667 -150.999 74c-32.667 4.66699 -108.667 7 -228 7l-85 331h744z" />
    <glyph glyph-name="uFEF3" unicode="&#x6cc;" horiz-adv-x="911" arabic-form="initial" 
d="M780 -336h-252l-59 238h247zM434 -336h-253l-57 238h246zM908 1l-960.001 0.000976562c-79.333 0 -131.666 110 -156.999 330h668c-48 73.333 -135 188.666 -261 345.999c-122 152 -213.333 260.333 -274 325h419c74.667 -78 165.334 -192.667 272.001 -344
c103.333 -146 171.666 -254.667 204.999 -326z" />
    <glyph glyph-name="uFEF4" unicode="&#x6cc;" horiz-adv-x="910" arabic-form="medial" 
d="M780 -336h-252l-59 238h247zM434 -336h-253l-57 238h246zM907 1h-950.001c-51.333 0 -89 36 -113 108c-6.66699 20.667 -21 94.667 -43 222h657c-50 107.333 -143.333 240.333 -280 399h398c106.667 -130 191.334 -262.667 254.001 -398z" />
    <glyph glyph-name="Hcircumflex" unicode="&#x622;" horiz-adv-x="766" arabic-form="final" 
d="M798 1h-290c-46 0 -77.333 31 -94 93l-373 1405h341l367 -1413c10 -38 26.333 -66.333 49 -85zM589 1652c-130 -60 -225.667 -90 -287 -90c-29.333 0 -76.666 12.667 -141.999 38s-110.333 38 -135 38c-58.667 0 -140.667 -24.667 -246 -74l-21 80
c120.667 54.667 209.667 82 267 82c31.333 0 78.5 -12.833 141.5 -38.5s107.833 -38.5 134.5 -38.5c71.333 0 160.666 25.333 267.999 76z" />
    <glyph glyph-name="uFE84" unicode="&#x623;" horiz-adv-x="587" arabic-form="final" 
d="M170 1549h-288l-22 87h127l-116 118l190 156l28 -81l-88 -70l146 -129zM617 1h-291c-45.333 0 -76.333 31 -93 93l-374 1405h342l366 -1413c10 -38 26.667 -66.333 50 -85z" />
    <glyph glyph-name="uFE86" unicode="&#x624;" horiz-adv-x="1154" arabic-form="final" 
d="M532 1138h-287l-21 87h127l-116 117l190 158l27 -82l-87 -71l146 -129zM1146 5c6 -32.667 9.00293 -65.333 9.00293 -98c0 -294.667 -237.667 -443.334 -713 -446.001c-105.333 -0.666992 -172 37 -200 113c-2.66699 7.33301 -24.667 91.333 -66 252
c89.333 -21.333 178.666 -32 267.999 -32c224.667 0 337 58.333 337 175v22c-1.33301 4.66699 -2.66602 10 -3.99902 16c-38.667 -6 -83.667 -9 -135 -9c-174.667 0 -328.334 65.333 -461.001 196c-126.667 125.333 -190.667 262 -192 410
c-0.666992 116.667 44.666 215.334 135.999 296.001c88 76.667 191.333 115 310 115c187.333 0 333 -70.667 437 -212c113.333 -154 204.666 -420 273.999 -798zM708.003 325.001c-18 118 -60.6689 213.334 -128.002 286.001c-53.333 58 -104.666 87 -153.999 87
c-28 0 -52 -11.333 -72 -34s-30.333 -48.334 -31 -77.001c-0.666992 -64 31 -121.667 95 -173c72.667 -58 169.334 -87.667 290.001 -89z" />
    <glyph glyph-name="uFE88" unicode="&#x625;" horiz-adv-x="587" arabic-form="final" 
d="M617 1h-291c-45.333 0 -76.333 31 -93 93l-374 1405h342l366 -1413c10 -38 26.667 -66.333 50 -85zM673 -448h-288l-21 87h127l-117 118l190 157l28 -81l-87 -71l146 -129z" />
    <glyph glyph-name="uFE8A" unicode="&#x626;" horiz-adv-x="1685" arabic-form="final" 
d="M1791 -417c-299.333 -82 -581.668 -123 -847.001 -123c-220.667 0 -376.667 26 -468 78c-96.667 54.667 -174.667 165.667 -234 333c-14 38.667 -33 99 -57 181h294c37.333 0 66.333 -23.333 87 -70c34 -76.667 61.333 -125.667 82 -147c34.667 -36 86.667 -54 156 -54
c286.667 0 483.667 15 591 45c-20.667 28 -46 58.667 -76 92c-35.333 40 -85.666 64.667 -150.999 74c-32.667 4.66699 -108.667 7 -228 7l-85 331h744zM479.998 214h-287l-21 88h126l-116 116l189 158l28 -82l-88 -71l147 -128z" />
    <glyph glyph-name="uFE8B" unicode="&#x626;" horiz-adv-x="911" arabic-form="initial" 
d="M316 1113h-287l-22 86h127l-116 117l189 158l28 -82l-87 -70l145 -128zM908 1l-959.998 0.000976562c-52.667 0 -90.334 36 -113.001 108c-8.66699 26 -23.334 100 -44.001 222h668c-48 73.333 -135 188.666 -261 345.999c-122 152 -213.333 260.333 -274 325h419
c74.667 -78 165.334 -192.667 272.001 -344c103.333 -146 171.666 -254.667 204.999 -326z" />
    <glyph glyph-name="uFE8C" unicode="&#x626;" horiz-adv-x="910" arabic-form="medial" 
d="M551 838h-286l-22 87h127l-116 117l190 157l27 -81l-87 -71l145 -129zM907 1h-950.001c-51.333 0 -89 36 -113 108c-6.66699 20.667 -21 94.667 -43 222h657c-50 107.333 -143.333 240.333 -280 399h398c106.667 -130 191.334 -262.667 254.001 -398z" />
    <glyph glyph-name="uFE8E" unicode="&#x627;" horiz-adv-x="587" arabic-form="final" 
d="M617 1h-291c-45.333 0 -76.333 31 -93 93l-374 1405h342l366 -1413c10 -38 26.667 -66.333 50 -85z" />
    <glyph glyph-name="uFE90" unicode="&#x628;" horiz-adv-x="2294" arabic-form="final" 
d="M1404 -383h-252l-59 238h247zM2291 1l-1657 -0.00292969c-140 0 -251.5 31 -334.5 93s-146.5 160 -190.5 294c-2.66699 8.66699 -30.667 120.667 -84 336h241c58 0 97 -24 117 -72c11.333 -47.333 22.666 -89.666 33.999 -126.999c25.333 -80 63.333 -133.667 114 -161
c41.333 -22 108.333 -33 201 -33h1088c-47.333 88.667 -126.333 204.667 -237 348c-102 132.667 -193.667 240.334 -275 323.001h419c76.667 -81.333 163 -188.666 259 -321.999c101.333 -141.333 174 -257.333 218 -348z" />
    <glyph glyph-name="uFE91" unicode="&#x628;" horiz-adv-x="911" arabic-form="initial" 
d="M585 -383h-252l-59 238h247zM908 1l-959.998 0.000976562c-52.667 0 -90.334 36 -113.001 108c-8.66699 26 -23.334 100 -44.001 222h668c-48 73.333 -135 188.666 -261 345.999c-122 152 -213.333 260.333 -274 325h419c74.667 -78 165.334 -192.667 272.001 -344
c103.333 -146 171.666 -254.667 204.999 -326z" />
    <glyph glyph-name="uFE92" unicode="&#x628;" horiz-adv-x="910" arabic-form="medial" 
d="M907 1h-950.001c-51.333 0 -89 36 -113 108c-6.66699 20.667 -21 94.667 -43 222h657c-50 107.333 -143.333 240.333 -280 399h398c106.667 -130 191.334 -262.667 254.001 -398zM584.999 -383h-252l-59 238h247z" />
    <glyph glyph-name="uFE96" unicode="&#x62a;" horiz-adv-x="2294" arabic-form="final" 
d="M1099 880h-251l-60 239h247zM753 880h-252l-58 239h246zM2291 1l-1657 -0.00292969c-140 0 -251.5 31 -334.5 93s-146.5 160 -190.5 294c-2.66699 8.66699 -30.667 120.667 -84 336h241c58 0 97 -24 117 -72c11.333 -47.333 22.666 -89.666 33.999 -126.999
c25.333 -80 63.333 -133.667 114 -161c41.333 -22 108.333 -33 201 -33h1088c-47.333 88.667 -126.333 204.667 -237 348c-102 132.667 -193.667 240.334 -275 323.001h419c76.667 -81.333 163 -188.666 259 -321.999c101.333 -141.333 174 -257.333 218 -348z" />
    <glyph glyph-name="uFE97" unicode="&#x62a;" horiz-adv-x="911" arabic-form="initial" 
d="M908 1l-959.998 0.000976562c-52.667 0 -90.334 36 -113.001 108c-8.66699 26 -23.334 100 -44.001 222h668c-48 73.333 -135 188.666 -261 345.999c-122 152 -213.333 260.333 -274 325h419c74.667 -78 165.334 -192.667 272.001 -344
c103.333 -146 171.666 -254.667 204.999 -326zM397.002 1121h-251l-60 238h247zM51.002 1121h-252l-58 238h246z" />
    <glyph glyph-name="uFE98" unicode="&#x62a;" horiz-adv-x="910" arabic-form="medial" 
d="M652 845h-251l-60 238h247zM306 845h-252l-58 238h246zM907 1h-950.001c-51.333 0 -89 36 -113 108c-6.66699 20.667 -21 94.667 -43 222h657c-50 107.333 -143.333 240.333 -280 399h398c106.667 -130 191.334 -262.667 254.001 -398z" />
    <glyph glyph-name="uFE9A" unicode="&#x62b;" horiz-adv-x="2294" arabic-form="final" 
d="M908 1121h-252l-59 238h248zM1157 803h-251l-59 238h246zM812 803h-253l-58 238h247zM2291 1l-1657 -0.00292969c-140 0 -251.5 31 -334.5 93s-146.5 160 -190.5 294c-2.66699 8.66699 -30.667 120.667 -84 336h241c58 0 97 -24 117 -72
c11.333 -47.333 22.666 -89.666 33.999 -126.999c25.333 -80 63.333 -133.667 114 -161c41.333 -22 108.333 -33 201 -33h1088c-47.333 88.667 -126.333 204.667 -237 348c-102 132.667 -193.667 240.334 -275 323.001h419c76.667 -81.333 163 -188.666 259 -321.999
c101.333 -141.333 174 -257.333 218 -348z" />
    <glyph glyph-name="uFE9B" unicode="&#x62b;" horiz-adv-x="911" arabic-form="initial" 
d="M132 1451h-253l-57 238h246zM381 1133h-251l-60 238h247zM35 1133h-252l-58 238h246zM908 1l-959.998 0.000976562c-52.667 0 -90.334 36 -113.001 108c-8.66699 26 -23.334 100 -44.001 222h668c-48 73.333 -135 188.666 -261 345.999
c-122 152 -213.333 260.333 -274 325h419c74.667 -78 165.334 -192.667 272.001 -344c103.333 -146 171.666 -254.667 204.999 -326z" />
    <glyph glyph-name="uFE9C" unicode="&#x62b;" horiz-adv-x="910" arabic-form="medial" 
d="M366 1164h-252l-59 238h247zM614 846h-250l-60 238h246zM269 846h-252l-59 238h247zM907 1h-950.001c-51.333 0 -89 36 -113 108c-6.66699 20.667 -21 94.667 -43 222h657c-50 107.333 -143.333 240.333 -280 399h398c106.667 -130 191.334 -262.667 254.001 -398z" />
    <glyph glyph-name="uFE9E" unicode="&#x62c;" horiz-adv-x="1601" arabic-form="final" 
d="M1040 -34h-252l-58 238h246zM1714 1l-184.001 -0.000976562c-144.667 0 -272 57.333 -382 172c-108 112.667 -162.333 242 -163 388c-97.333 -27.333 -194 -92.333 -290 -195c-102 -109.333 -153 -211.333 -153 -306c0 -182.667 136.333 -274 409 -274h447
c61.333 0 105.333 -31.667 132 -95c6 -22.667 25.333 -100 58 -232h-645c-222 0 -395 46.667 -519 140c-140.667 106 -211 266.333 -211 481c0 211.333 117.667 411 353 599c-24.667 4 -69 6.66699 -133 8c-37.333 0.666992 -97.666 -1.33301 -180.999 -6
c-13.333 -0.666992 -62.333 -5 -147 -13l-79 325c194 16 414 24 660 24c258 0 429.667 -6.66699 515 -20l105 -376c27.333 -99.333 56 -167.666 86 -204.999c44.667 -56.667 109 -85 193 -85h25c45.333 -196 80 -306 104 -330z" />
    <glyph glyph-name="uFE9F" unicode="&#x62c;" horiz-adv-x="1674" arabic-form="initial" 
d="M1674 1h-1717c-51.333 0 -89 36 -113 108c-6.66699 20.667 -21 94.667 -43 222h1356c-74.667 90 -177.334 174.333 -308.001 253c-138 83.333 -253.667 125.333 -347 126c-118 1.33301 -253.333 -56 -406 -172l-81 315c168.667 120 330.667 180.333 486 181
c187.333 0 391 -77.667 611 -233c190 -134 348.333 -289.667 475 -467zM893.001 -383h-252l-59 238h248z" />
    <glyph glyph-name="uFEA0" unicode="&#x62c;" horiz-adv-x="1674" arabic-form="medial" 
d="M893 -383h-252l-59 238h248zM1674 1h-1717c-51.333 0 -89 36 -113 108c-6.66699 20.667 -21 94.667 -43 222h1356c-74.667 90 -177.334 174.333 -308.001 253c-138 83.333 -253.667 125.333 -347 126c-118 1.33301 -253.333 -56 -406 -172l-81 315
c168.667 120 330.667 180.333 486 181c187.333 0 391 -77.667 611 -233c190 -134 348.333 -289.667 475 -467z" />
    <glyph glyph-name="uFEA2" unicode="&#x62d;" horiz-adv-x="1601" arabic-form="final" 
d="M1714 1l-184.001 -0.000976562c-144.667 0 -272 57.333 -382 172c-108 112.667 -162.333 242 -163 388c-97.333 -27.333 -194 -92.333 -290 -195c-102 -109.333 -153 -211.333 -153 -306c0 -182.667 136.333 -274 409 -274h447c61.333 0 105.333 -31.667 132 -95
c6 -22.667 25.333 -100 58 -232h-645c-222 0 -395 46.667 -519 140c-140.667 106 -211 266.333 -211 481c0 211.333 117.667 411 353 599c-24.667 4 -69 6.66699 -133 8c-37.333 0.666992 -97.666 -1.33301 -180.999 -6c-13.333 -0.666992 -62.333 -5 -147 -13l-79 325
c194 16 414 24 660 24c258 0 429.667 -6.66699 515 -20l105 -376c27.333 -99.333 56 -167.666 86 -204.999c44.667 -56.667 109 -85 193 -85h25c45.333 -196 80 -306 104 -330z" />
    <glyph glyph-name="uFEA3" unicode="&#x62d;" horiz-adv-x="1674" arabic-form="initial" 
d="M1674 1h-1717c-51.333 0 -89 36 -113 108c-6.66699 20.667 -21 94.667 -43 222h1356c-74.667 90 -177.334 174.333 -308.001 253c-138 83.333 -253.667 125.333 -347 126c-118 1.33301 -253.333 -56 -406 -172l-81 315c168.667 120 330.667 180.333 486 181
c187.333 0 391 -77.667 611 -233c190 -134 348.333 -289.667 475 -467z" />
    <glyph glyph-name="uFEA4" unicode="&#x62d;" horiz-adv-x="1674" arabic-form="medial" 
d="M1674 1h-1717c-51.333 0 -89 36 -113 108c-6.66699 20.667 -21 94.667 -43 222h1356c-74.667 90 -177.334 174.333 -308.001 253c-138 83.333 -253.667 125.333 -347 126c-118 1.33301 -253.333 -56 -406 -172l-81 315c168.667 120 330.667 180.333 486 181
c187.333 0 391 -77.667 611 -233c190 -134 348.333 -289.667 475 -467z" />
    <glyph glyph-name="uFEA6" unicode="&#x62e;" horiz-adv-x="1601" arabic-form="final" 
d="M706 1157h-252l-58 238h246zM1714 1l-184.001 -0.000976562c-144.667 0 -272 57.333 -382 172c-108 112.667 -162.333 242 -163 388c-97.333 -27.333 -194 -92.333 -290 -195c-102 -109.333 -153 -211.333 -153 -306c0 -182.667 136.333 -274 409 -274h447
c61.333 0 105.333 -31.667 132 -95c6 -22.667 25.333 -100 58 -232h-645c-222 0 -395 46.667 -519 140c-140.667 106 -211 266.333 -211 481c0 211.333 117.667 411 353 599c-24.667 4 -69 6.66699 -133 8c-37.333 0.666992 -97.666 -1.33301 -180.999 -6
c-13.333 -0.666992 -62.333 -5 -147 -13l-79 325c194 16 414 24 660 24c258 0 429.667 -6.66699 515 -20l105 -376c27.333 -99.333 56 -167.666 86 -204.999c44.667 -56.667 109 -85 193 -85h25c45.333 -196 80 -306 104 -330z" />
    <glyph glyph-name="uFEA7" unicode="&#x62e;" horiz-adv-x="1674" arabic-form="initial" 
d="M557 1157h-252l-59 238h248zM1674 1h-1717c-51.333 0 -89 36 -113 108c-6.66699 20.667 -21 94.667 -43 222h1356c-74.667 90 -177.334 174.333 -308.001 253c-138 83.333 -253.667 125.333 -347 126c-118 1.33301 -253.333 -56 -406 -172l-81 315
c168.667 120 330.667 180.333 486 181c187.333 0 391 -77.667 611 -233c190 -134 348.333 -289.667 475 -467z" />
    <glyph glyph-name="uFEA8" unicode="&#x62e;" horiz-adv-x="1674" arabic-form="medial" 
d="M557 1157h-252l-59 238h248zM1674 1h-1717c-51.333 0 -89 36 -113 108c-6.66699 20.667 -21 94.667 -43 222h1356c-74.667 90 -177.334 174.333 -308.001 253c-138 83.333 -253.667 125.333 -347 126c-118 1.33301 -253.333 -56 -406 -172l-81 315
c168.667 120 330.667 180.333 486 181c187.333 0 391 -77.667 611 -233c190 -134 348.333 -289.667 475 -467z" />
    <glyph glyph-name="uFEAA" unicode="&#x62f;" horiz-adv-x="1205" arabic-form="final" 
d="M1204 1l-906 0.000976562c-82.667 0 -138.667 110 -168 330h625c-46 70.667 -133 186 -261 346c-124 154 -215 262.333 -273 325h419c75.333 -79.333 166 -194 272 -344c102.667 -144.667 171 -253.334 205 -326.001z" />
    <glyph glyph-name="uFEAC" unicode="&#x630;" horiz-adv-x="1205" arabic-form="final" 
d="M514 1147h-252l-58 238h247zM1204 1l-906 0.000976562c-82.667 0 -138.667 110 -168 330h625c-46 70.667 -133 186 -261 346c-124 154 -215 262.333 -273 325h419c75.333 -79.333 166 -194 272 -344c102.667 -144.667 171 -253.334 205 -326.001z" />
    <glyph glyph-name="uFEAE" unicode="&#x631;" horiz-adv-x="1117" arabic-form="final" 
d="M1115 -60c0 -320 -227.001 -479.999 -681.001 -479.999c-67.333 0 -115.666 5.66699 -144.999 17c-44.667 17.333 -74 52.666 -88 105.999l-63 243c138.667 -24 230.667 -36 276 -36c84 0 156 13.667 216 41c79.333 36 119 91.333 119 166
c0 136.667 -140.667 473 -422 1009h389c120.667 -216.667 211 -398 271 -544c85.333 -207.333 128 -381.333 128 -522z" />
    <glyph glyph-name="uFEB0" unicode="&#x632;" horiz-adv-x="1117" arabic-form="final" 
d="M614 1130h-251l-59 237h246zM1115 -60c0 -320 -227.001 -479.999 -681.001 -479.999c-67.333 0 -115.666 5.66699 -144.999 17c-44.667 17.333 -74 52.666 -88 105.999l-63 243c138.667 -24 230.667 -36 276 -36c84 0 156 13.667 216 41c79.333 36 119 91.333 119 166
c0 136.667 -140.667 473 -422 1009h389c120.667 -216.667 211 -398 271 -544c85.333 -207.333 128 -381.333 128 -522z" />
    <glyph glyph-name="uFEB2" unicode="&#x633;" horiz-adv-x="3002" arabic-form="final" 
d="M3002 1l-1264 -0.000976562c0 -184 -71 -323.667 -213 -419c-122 -82 -279.333 -123 -472 -123c-379.333 0 -653.333 169.667 -822 509c-8 16 -54.667 136.667 -140 362h229c79.333 0 129.333 -21.333 150 -64c12 -27.333 35 -76.333 69 -147
c43.333 -85.333 103.333 -157.333 180 -216c97.333 -74 211.666 -111.333 342.999 -112c92 -0.666992 160.667 12.333 206 39c58.667 34 88.334 93.667 89.001 179c0.666992 130.667 -99.666 370 -300.999 718h388c87.333 -125.333 153.666 -257.333 198.999 -396h266
c-37.333 99.333 -114 231.333 -230 396h375c88.667 -108 164.667 -240 228 -396h260c-227.333 342.667 -390.666 566.334 -490 671.001h409c70.667 -76 153.334 -183.333 248 -322c98.667 -144 167.334 -260 206 -348z" />
    <glyph glyph-name="uFEB3" unicode="&#x633;" horiz-adv-x="2151" arabic-form="initial" 
d="M2151 1l-2194 -0.00195312c-51.333 0 -89 36 -113 108c-6.66699 20.667 -21 94.667 -43 222h620c-74 168 -150.667 301 -230 399h385c66 -79.333 143.667 -212 233 -398l250 -1c-71.333 170 -148.333 303.333 -231 400h384c52 -65.333 131.667 -198.666 239 -399.999h240
c-223.333 338.667 -386.666 562.334 -489.999 671.001h409c76.667 -82 159.667 -189 249 -321c92 -134 160.667 -250.333 206 -349z" />
    <glyph glyph-name="uFEB4" unicode="&#x633;" horiz-adv-x="2151" arabic-form="medial" 
d="M2151 1l-2194 -0.00195312c-51.333 0 -89 36 -113 108c-6.66699 20.667 -21 94.667 -43 222h620c-74 168 -150.667 301 -230 399h385c66 -79.333 143.667 -212 233 -398l250 -1c-71.333 170 -148.333 303.333 -231 400h384c52 -65.333 131.667 -198.666 239 -399.999h240
c-223.333 338.667 -386.666 562.334 -489.999 671.001h409c76.667 -82 159.667 -189 249 -321c92 -134 160.667 -250.333 206 -349z" />
    <glyph glyph-name="uFEB6" unicode="&#x634;" horiz-adv-x="3002" arabic-form="final" 
d="M1620 1330h-251l-59 238h246zM1870 1012h-252l-60 238h248zM1524 1012h-253l-58 238h247zM3002 1l-1264 -0.000976562c0 -184 -71 -323.667 -213 -419c-122 -82 -279.333 -123 -472 -123c-379.333 0 -653.333 169.667 -822 509c-8 16 -54.667 136.667 -140 362h229
c79.333 0 129.333 -21.333 150 -64c12 -27.333 35 -76.333 69 -147c43.333 -85.333 103.333 -157.333 180 -216c97.333 -74 211.666 -111.333 342.999 -112c92 -0.666992 160.667 12.333 206 39c58.667 34 88.334 93.667 89.001 179
c0.666992 130.667 -99.666 370 -300.999 718h388c87.333 -125.333 153.666 -257.333 198.999 -396h266c-37.333 99.333 -114 231.333 -230 396h375c88.667 -108 164.667 -240 228 -396h260c-227.333 342.667 -390.666 566.334 -490 671.001h409
c70.667 -76 153.334 -183.333 248 -322c98.667 -144 167.334 -260 206 -348z" />
    <glyph glyph-name="uFEB7" unicode="&#x634;" horiz-adv-x="2151" arabic-form="initial" 
d="M749 1330h-252l-59 238h247zM997 1012h-250l-60 238h246zM652 1012h-252l-59 238h247zM2151 1l-2194 -0.00195312c-51.333 0 -89 36 -113 108c-6.66699 20.667 -21 94.667 -43 222h620c-74 168 -150.667 301 -230 399h385c66 -79.333 143.667 -212 233 -398l250 -1
c-71.333 170 -148.333 303.333 -231 400h384c52 -65.333 131.667 -198.666 239 -399.999h240c-223.333 338.667 -386.666 562.334 -489.999 671.001h409c76.667 -82 159.667 -189 249 -321c92 -134 160.667 -250.333 206 -349z" />
    <glyph glyph-name="uFEB8" unicode="&#x634;" horiz-adv-x="2151" arabic-form="medial" 
d="M749 1330h-252l-59 238h247zM997 1012h-250l-60 238h246zM652 1012h-252l-59 238h247zM2151 1l-2194 -0.00195312c-51.333 0 -89 36 -113 108c-6.66699 20.667 -21 94.667 -43 222h620c-74 168 -150.667 301 -230 399h385c66 -79.333 143.667 -212 233 -398l250 -1
c-71.333 170 -148.333 303.333 -231 400h384c52 -65.333 131.667 -198.666 239 -399.999h240c-223.333 338.667 -386.666 562.334 -489.999 671.001h409c76.667 -82 159.667 -189 249 -321c92 -134 160.667 -250.333 206 -349z" />
    <glyph glyph-name="uFEBA" unicode="&#x635;" horiz-adv-x="2947" arabic-form="final" 
d="M2947 1l-1209 -0.000976562c0 -184 -71 -323.667 -213 -419c-122 -82 -279.333 -123 -472 -123c-379.333 0 -653.333 169.667 -822 509c-8 16 -54.667 136.667 -140 362h229c79.333 0 129.333 -21.333 150 -64l70 -147c43.333 -85.333 103.333 -157.333 180 -216
c97.333 -74 211.333 -111.333 342 -112c92 -0.666992 160.667 12.333 206 39c58.667 34 88.334 93.667 89.001 179c0.666992 130.667 -99.666 370 -300.999 718h388c50.667 -74 112.334 -205 185.001 -393c145.333 240 246 396.667 302 470c35.333 46.667 83 92.667 143 138
c76 58 159.667 87 251 87c128.667 0 236.667 -54.333 324 -163c62 -77.333 118.333 -190.333 169 -339c39.333 -115.333 82.333 -290.666 129 -525.999zM2533 329.999c-14 70.667 -28.332 126 -42.999 166c-42.667 115.333 -102.334 173 -179 173
c-47.333 0 -99.666 -23.667 -157 -71c-46.667 -38.667 -121.334 -128 -224.001 -268h603z" />
    <glyph glyph-name="uFEBB" unicode="&#x635;" horiz-adv-x="1506" arabic-form="initial" 
d="M1502 1h-1545c-51.333 0 -89 36 -113 108c-6.66699 20.667 -21 94.667 -43 222h282l-63 212h167l46 -150c178.667 290 314.667 470.333 408 541c74 56 155 84 243 84c218 0 381.333 -165 490 -495c38.667 -117.333 81.334 -291.333 128.001 -522zM1087 330
c-14.667 72 -28.668 126.668 -42.001 164.001c-37.333 105.333 -95.333 158 -174 158c-65.333 0 -137.333 -40.667 -216 -122c-33.333 -34.667 -86.666 -101.334 -159.999 -200.001h592z" />
    <glyph glyph-name="uFEBC" unicode="&#x635;" horiz-adv-x="1506" arabic-form="medial" 
d="M1502 1h-1545c-51.333 0 -89 36 -113 108c-6.66699 20.667 -21 94.667 -43 222h282l-63 212h167l46 -150c178.667 290 314.667 470.333 408 541c74 56 155 84 243 84c218 0 381.333 -165 490 -495c38.667 -117.333 81.334 -291.333 128.001 -522zM1087 330
c-14.667 72 -28.668 126.668 -42.001 164.001c-37.333 105.333 -95.333 158 -174 158c-65.333 0 -137.333 -40.667 -216 -122c-33.333 -34.667 -86.666 -101.334 -159.999 -200.001h592z" />
    <glyph glyph-name="uFEBE" unicode="&#x636;" horiz-adv-x="2947" arabic-form="final" 
d="M2363 1162h-252l-59 237h247zM2947 1l-1209 -0.000976562c0 -184 -71 -323.667 -213 -419c-122 -82 -279.333 -123 -472 -123c-379.333 0 -653.333 169.667 -822 509c-8 16 -54.667 136.667 -140 362h229c79.333 0 129.333 -21.333 150 -64l70 -147
c43.333 -85.333 103.333 -157.333 180 -216c97.333 -74 211.333 -111.333 342 -112c92 -0.666992 160.667 12.333 206 39c58.667 34 88.334 93.667 89.001 179c0.666992 130.667 -99.666 370 -300.999 718h388c50.667 -74 112.334 -205 185.001 -393
c125.333 207.333 220 354 284 440c126.667 170 264 255 412 255c128.667 0 236.667 -54.333 324 -163c62 -77.333 118.333 -190.333 169 -339c39.333 -115.333 82.333 -290.666 129 -525.999zM2533 329.999c-14 70.667 -28.332 126 -42.999 166
c-42.667 115.333 -102.334 173 -179 173c-47.333 0 -99.666 -23.667 -157 -71c-46.667 -38.667 -121.334 -128 -224.001 -268h603z" />
    <glyph glyph-name="uFEBF" unicode="&#x636;" horiz-adv-x="1506" arabic-form="initial" 
d="M916 1162h-251l-59 237h247zM1502 1h-1545c-51.333 0 -89 36 -113 108c-6.66699 20.667 -21 94.667 -43 222h282l-63 212h167l46 -150c178.667 290 314.667 470.333 408 541c74 56 155 84 243 84c218 0 381.333 -165 490 -495
c38.667 -117.333 81.334 -291.333 128.001 -522zM1087 330c-14.667 72 -28.668 126.668 -42.001 164.001c-37.333 105.333 -95.333 158 -174 158c-65.333 0 -137.333 -40.667 -216 -122c-33.333 -34.667 -86.666 -101.334 -159.999 -200.001h592z" />
    <glyph glyph-name="uFEC0" unicode="&#x636;" horiz-adv-x="1506" arabic-form="medial" 
d="M916 1162h-251l-59 237h247zM1502 1h-1545c-51.333 0 -89 36 -113 108c-6.66699 20.667 -21 94.667 -43 222h282l-63 212h167l46 -150c178.667 290 314.667 470.333 408 541c74 56 155 84 243 84c218 0 381.333 -165 490 -495
c38.667 -117.333 81.334 -291.333 128.001 -522zM1087 330c-14.667 72 -28.666 126.667 -41.999 164c-37.333 105.333 -95.333 158 -174 158c-46.667 0 -96.334 -20.333 -149.001 -61c-45.333 -34.667 -121 -121.667 -227 -261h592z" />
    <glyph glyph-name="uFEC2" unicode="&#x637;" horiz-adv-x="1793" arabic-form="final" 
d="M1789 1h-1502c-52.667 0 -90.334 36 -113.001 108c-8.66699 26 -23.334 100 -44.001 222h240l-305 1168h340l241 -885c80.667 114.667 143.334 195.667 188.001 243c32.667 34.667 72.334 66.667 119.001 96c69.333 43.333 143.666 65 222.999 65
c128 0 234.667 -53 320 -159c61.333 -76 116.333 -187.667 165 -335c36.667 -110.667 79.334 -285 128.001 -523zM1374 330c-9.33301 55.333 -23.334 110 -42.001 164c-38.667 112 -93.667 168 -165 168c-99.333 0 -227.666 -110.667 -384.999 -332h592z" />
    <glyph glyph-name="uFEC3" unicode="&#x637;" horiz-adv-x="1543" arabic-form="initial" 
d="M1543 1h-1586c-51.333 0 -89 36 -113 108c-6.66699 20.667 -21 94.667 -43 222h325l-305 1168h340l241 -885c83.333 118 145.666 199 186.999 243c32.667 34 72.334 66 119.001 96c68 43.333 142.333 65 223 65c127.333 0 234.333 -53.333 321 -160
c61.333 -76 116.333 -187.333 165 -334c36.667 -112 78.667 -286.333 126 -523zM1130 330c-16 74.667 -30.001 129.334 -42.001 164.001c-38.667 111.333 -94 167 -166 167c-46 0 -98.333 -22.667 -157 -68c-37.333 -28.667 -59 -46.334 -65 -53.001
c-27.333 -29.333 -81.666 -99.333 -162.999 -210h593z" />
    <glyph glyph-name="uFEC4" unicode="&#x637;" horiz-adv-x="1543" arabic-form="medial" 
d="M1543 1h-1586c-51.333 0 -89 36 -113 108c-6.66699 20.667 -21 94.667 -43 222h325l-305 1168h340l241 -885c83.333 118 145.666 199 186.999 243c32.667 34 72.334 66 119.001 96c68 43.333 142.333 65 223 65c127.333 0 234.333 -53.333 321 -160
c61.333 -76 116.333 -187.333 165 -334c36.667 -112 78.667 -286.333 126 -523zM1130 330c-16 74.667 -30.001 129.334 -42.001 164.001c-38.667 111.333 -94 167 -166 167c-46 0 -98.333 -22.667 -157 -68c-37.333 -28.667 -59 -46.334 -65 -53.001
c-27.333 -29.333 -81.666 -99.333 -162.999 -210h593z" />
    <glyph glyph-name="uFEC6" unicode="&#x638;" horiz-adv-x="1793" arabic-form="final" 
d="M1183 1162h-253l-59 237h248zM1789 1h-1502c-52.667 0 -90.334 36 -113.001 108c-8.66699 26 -23.334 100 -44.001 222h240l-305 1168h340l241 -885c80.667 114.667 143.334 195.667 188.001 243c32.667 34.667 72.334 66.667 119.001 96
c69.333 43.333 143.666 65 222.999 65c128 0 234.667 -53 320 -159c61.333 -76 116.333 -187.667 165 -335c36.667 -110.667 79.334 -285 128.001 -523zM1374 330c-9.33301 55.333 -23.334 110 -42.001 164c-38.667 112 -93.667 168 -165 168
c-99.333 0 -227.666 -110.667 -384.999 -332h592z" />
    <glyph glyph-name="uFEC7" unicode="&#x638;" horiz-adv-x="1543" arabic-form="initial" 
d="M927 1162h-252l-58 237h246zM1543 1h-1586c-51.333 0 -89 36 -113 108c-6.66699 20.667 -21 94.667 -43 222h325l-305 1168h340l241 -885c83.333 118 145.666 199 186.999 243c32.667 34 72.334 66 119.001 96c68 43.333 142.333 65 223 65
c127.333 0 234.333 -53.333 321 -160c61.333 -76 116.333 -187.333 165 -334c36.667 -112 78.667 -286.333 126 -523zM1130 330c-16 74.667 -30.001 129.334 -42.001 164.001c-38.667 111.333 -94 167 -166 167c-46 0 -98.333 -22.667 -157 -68
c-37.333 -28.667 -59 -46.334 -65 -53.001c-27.333 -29.333 -81.666 -99.333 -162.999 -210h593z" />
    <glyph glyph-name="uFEC8" unicode="&#x638;" horiz-adv-x="1543" arabic-form="medial" 
d="M927 1162h-252l-58 237h246zM1543 1h-1586c-51.333 0 -89 36 -113 108c-6.66699 20.667 -21 94.667 -43 222h325l-305 1168h340l241 -885c83.333 118 145.666 199 186.999 243c32.667 34 72.334 66 119.001 96c68 43.333 142.333 65 223 65
c127.333 0 234.333 -53.333 321 -160c61.333 -76 116.333 -187.333 165 -334c36.667 -112 78.667 -286.333 126 -523zM1130 330c-16 74.667 -30.001 129.334 -42.001 164.001c-38.667 111.333 -94 167 -166 167c-46 0 -98.333 -22.667 -157 -68
c-37.333 -28.667 -59 -46.334 -65 -53.001c-27.333 -29.333 -81.666 -99.333 -162.999 -210h593z" />
    <glyph glyph-name="uFECA" unicode="&#x639;" horiz-adv-x="1436" arabic-form="final" 
d="M1569 -540l-597.999 0.000976562c-228 0 -400 29 -516 87c-160 80 -240.667 221.667 -242 425c-0.666992 124 81.666 257.333 246.999 400c-84.667 62 -170.667 112.333 -258 151l-106 408c180 69.333 360.667 104.666 542 105.999c49.333 0 126 -7.66699 230 -23
c117.333 -17.333 214 -38.666 290 -63.999l101 -361c-132.667 -70.667 -225 -137.334 -277 -200.001c19.333 -19.333 56.333 -34.333 111 -45c43.333 -8.66699 84.333 -13 123 -13h113c32 -173.333 68 -283.333 108 -330h-247c-152 0 -310.333 55 -475 165
c-108.667 -96.667 -163.667 -174.667 -165 -234c-2 -100.667 132.667 -151 404 -151h444c36 0 64.667 -14.333 86 -43c16 -21.333 44.333 -114 85 -278zM894.001 702.001c-42 12 -106.667 18.668 -194 20.001c-74 1.33301 -139.667 -5.33398 -197 -20.001
c34 -21.333 104 -71 210 -149z" />
    <glyph glyph-name="uFECB" unicode="&#x639;" horiz-adv-x="1090" arabic-form="initial" 
d="M1090 1h-1132c-72.667 0 -116.667 53 -132 159c-4 30.667 -12 87.667 -24 171h308c0 195.333 47.333 356.333 142 483c105.333 140.667 252.333 211 441 211c44 0 87.333 -4.33301 130 -13l87 -345c-80 23.333 -144.667 35 -194 35c-178.667 0 -269 -123.667 -271 -371
h559z" />
    <glyph glyph-name="uFECC" unicode="&#x639;" horiz-adv-x="1338" arabic-form="medial" 
d="M1338 1l-534.001 -0.00195312c-52.667 0 -93.667 25.333 -123 76c-32.667 -51.333 -66 -77 -100 -77l-624 1c-51.333 0 -89 36 -113 108c-6.66699 20.667 -21 94.667 -43 222h627c-114 81.333 -222.333 145.333 -325 192l-107 410c180 68 361 102.667 543 104
c49.333 0 126 -7.66699 230 -23c116.667 -17.333 213.334 -38.666 290.001 -63.999l102 -361c-36 -18 -90 -57.167 -162 -117.5s-121.667 -107.166 -149 -140.499h380c32 -173.333 68 -283.333 108 -330zM795.999 701.998c-42.667 12 -107.667 18.668 -195 20.001
c-73.333 1.33301 -139 -5.33398 -197 -20.001c50 -34 121 -91.333 213 -172z" />
    <glyph glyph-name="uFECE" unicode="&#x63a;" horiz-adv-x="1436" arabic-form="final" 
d="M757 1162h-251l-59 237h246zM1569 -540l-597.999 0.000976562c-228 0 -400 29 -516 87c-160 80 -240.667 221.667 -242 425c-0.666992 124 81.666 257.333 246.999 400c-84.667 62 -170.667 112.333 -258 151l-106 408c180 69.333 360.667 104.666 542 105.999
c49.333 0 126 -7.66699 230 -23c117.333 -17.333 214 -38.666 290 -63.999l101 -361c-132.667 -70.667 -225 -137.334 -277 -200.001c19.333 -19.333 56.333 -34.333 111 -45c43.333 -8.66699 84.333 -13 123 -13h113c32 -173.333 68 -283.333 108 -330h-247
c-152 0 -310.333 55 -475 165c-108.667 -96.667 -163.667 -174.667 -165 -234c-2 -100.667 132.667 -151 404 -151h444c36 0 64.667 -14.333 86 -43c16 -21.333 44.333 -114 85 -278zM894.001 702.001c-42 12 -106.667 18.668 -194 20.001
c-74 1.33301 -139.667 -5.33398 -197 -20.001c34 -21.333 104 -71 210 -149z" />
    <glyph glyph-name="uFECF" unicode="&#x63a;" horiz-adv-x="1090" arabic-form="initial" 
d="M1090 1h-1132c-70 0 -114 53 -132 159c-12.667 74.667 -20.667 131.667 -24 171h308c0 195.333 47.333 356.333 142 483c105.333 140.667 252.333 211 441 211c44 0 87.333 -4.33301 130 -13l87 -345c-80 23.333 -144.667 35 -194 35c-178.667 0 -269 -123.667 -271 -371
h559zM640 1162h-252l-58 237h246z" />
    <glyph glyph-name="uFED0" unicode="&#x63a;" horiz-adv-x="1338" arabic-form="medial" 
d="M1338 1l-534.001 -0.00195312c-52.667 0 -93.667 25.333 -123 76c-32.667 -51.333 -66 -77 -100 -77l-624 1c-51.333 0 -89 36 -113 108c-6.66699 20.667 -21 94.667 -43 222h627c-114 81.333 -222.333 145.333 -325 192l-107 410c180 68 361 102.667 543 104
c49.333 0 126 -7.66699 230 -23c116.667 -17.333 213.334 -38.666 290.001 -63.999l102 -361c-36 -18 -90 -57.167 -162 -117.5s-121.667 -107.166 -149 -140.499h380c32 -173.333 68 -283.333 108 -330zM795.999 701.998c-42.667 12 -107.667 18.668 -195 20.001
c-73.333 1.33301 -139 -5.33398 -197 -20.001c50 -34 121 -91.333 213 -172zM671.999 1162h-252l-58 237h246z" />
    <glyph glyph-name="uFED2" unicode="&#x641;" horiz-adv-x="2294" arabic-form="final" 
d="M1629 1162h-252l-59 237h247zM2295 1l-1661 0.000976562c-280 0 -457.333 129 -532 387c-21.333 72.667 -47 184.667 -77 336h241c54 0 91 -22 111 -66c12 -44.667 25.333 -89 40 -133c27.333 -80.667 65.333 -134.334 114 -161.001c40.667 -22 107.667 -33 201 -33h482
c-26.667 28.667 -48 75.667 -64 141c-13.333 55.333 -20.333 107.666 -21 156.999c-0.666992 118.667 45 217.334 137 296.001c87.333 73.333 191.666 110 312.999 110c288.667 0 498.334 -219.333 629.001 -658c10 -34 39 -159.333 87 -376zM1847 336.001
c-14.667 88.667 -43.332 167.999 -85.999 237.999c-54.667 90 -119.334 135.333 -194.001 136c-26.667 0.666992 -51 -9 -73 -29s-33 -43 -33 -69c0 -68 30.667 -126.667 92 -176c80.667 -65.333 178.667 -98.666 294 -99.999z" />
    <glyph glyph-name="uFED3" unicode="&#x641;" horiz-adv-x="1220" arabic-form="initial" 
d="M1218 1h-1260c-52 0 -89.667 36 -113 108c-6 18.667 -20.333 92.667 -43 222h336c-26.667 30.667 -48.334 78 -65.001 142c-14 55.333 -21.333 107.333 -22 156c-0.666992 119.333 45.333 218 138 296c87.333 73.333 191.666 110 312.999 110
c287.333 0 497 -219.333 629 -658c14 -46.667 43 -172 87 -376zM770.002 336c-14.667 87.333 -43.334 166.331 -86.001 236.998c-54.667 90.667 -119 136.334 -193 137.001c-33.333 0.666992 -59.666 -10.333 -78.999 -33s-29 -50.667 -29 -84
c0 -59.333 31.333 -111.666 94 -156.999c91.333 -66 189 -99.333 293 -100zM544.002 1162h-252l-58 237h247z" />
    <glyph glyph-name="uFED4" unicode="&#x641;" horiz-adv-x="1220" arabic-form="medial" 
d="M544 1162h-252l-58 237h247zM1218 1h-1260c-52 0 -89.667 36 -113 108c-6 18.667 -20.333 92.667 -43 222h336c-26.667 30.667 -48.334 78 -65.001 142c-14 55.333 -21.333 107.333 -22 156c-0.666992 119.333 45.333 218 138 296c87.333 73.333 191.666 110 312.999 110
c287.333 0 497 -219.333 629 -658c14 -46.667 43 -172 87 -376zM770.002 336c-14.667 87.333 -43.334 166.331 -86.001 236.998c-54.667 90.667 -119 136.334 -193 137.001c-33.333 0.666992 -59.666 -10.333 -78.999 -33s-29 -50.667 -29 -84
c0 -59.333 31.333 -111.666 94 -156.999c91.333 -66 189 -99.333 293 -100z" />
    <glyph glyph-name="uFED6" unicode="&#x642;" horiz-adv-x="1740" arabic-form="final" 
d="M1262 1157h-251l-60 238h247zM916 1157h-251l-59 238h247zM1731 -19c4 -19.333 6.00293 -36.665 6.00293 -51.998c0.666992 -148 -80 -267 -242 -357c-134.667 -75.333 -282 -113 -442 -113c-380 0 -654 169.667 -822 509c-37.333 75.333 -84 196 -140 362h229
c72.667 0 128 -29.333 166 -88l86 -185c89.333 -177.333 252.666 -266 489.999 -266c73.333 0 139.666 13 198.999 39c77.333 34 116.666 83.333 117.999 148c0 11.333 -1.66699 23.333 -5 36c-49.333 -13.333 -98 -20 -146 -20c-174 0 -327.667 60 -461 180
c-138 124 -207 272 -207 444c0 127.333 46 228.666 138 303.999c85.333 70 193 105 323 105c214 0 384.667 -128 512 -384c73.333 -146.667 139.333 -367.334 198 -662.001zM1299 336.001c0 24.667 -12.333 63.999 -37 117.999c-75.333 165.333 -161.333 248 -258 248
c-73.333 0 -110 -38.333 -110 -115c0 -84.667 49.333 -150 148 -196c76 -35.333 161.667 -53.666 257 -54.999z" />
    <glyph glyph-name="uFED7" unicode="&#x642;" horiz-adv-x="1220" arabic-form="initial" 
d="M731 1157h-251l-60 238h247zM385 1157h-252l-58 238h246zM1218 1h-1260c-52 0 -89.667 36 -113 108c-6 18.667 -20.333 92.667 -43 222h336c-26.667 30.667 -48.334 78 -65.001 142c-14 55.333 -21.333 107.333 -22 156c-0.666992 119.333 45.333 218 138 296
c87.333 73.333 191.666 110 312.999 110c287.333 0 497 -219.333 629 -658c14 -46.667 43 -172 87 -376zM770.002 336c-14.667 87.333 -43.334 166.331 -86.001 236.998c-54.667 90.667 -119 136.334 -193 137.001c-33.333 0.666992 -59.666 -10.333 -78.999 -33
s-29 -50.667 -29 -84c0 -59.333 31.333 -111.666 94 -156.999c91.333 -66 189 -99.333 293 -100z" />
    <glyph glyph-name="uFED8" unicode="&#x642;" horiz-adv-x="1220" arabic-form="medial" 
d="M731 1157h-251l-60 238h247zM385 1157h-252l-58 238h246zM1218 1h-1260c-52 0 -89.667 36 -113 108c-6 18.667 -20.333 92.667 -43 222h336c-26.667 30.667 -48.334 78 -65.001 142c-14 55.333 -21.333 107.333 -22 156c-0.666992 119.333 45.333 218 138 296
c87.333 73.333 191.666 110 312.999 110c287.333 0 497 -219.333 629 -658c14 -46.667 43 -172 87 -376zM770.002 336c-14.667 87.333 -43.334 166.331 -86.001 236.998c-54.667 90.667 -119 136.334 -193 137.001c-33.333 0.666992 -59.666 -10.333 -78.999 -33
s-29 -50.667 -29 -84c0 -59.333 31.333 -111.666 94 -156.999c91.333 -66 189 -99.333 293 -100z" />
    <glyph glyph-name="uFEDE" unicode="&#x644;" horiz-adv-x="1740" arabic-form="final" 
d="M1719 26c7.33301 -28 11 -56.999 11 -86.999c0 -154.667 -77.667 -277 -233 -367c-130 -75.333 -278 -113 -444 -113c-384 0 -658.333 169.667 -823 509c-12.667 26 -59 146.667 -139 362h229c75.333 0 125.333 -21.333 150 -64c10.667 -18 35.334 -75.333 74.001 -172
c45.333 -113.333 113 -193.666 203 -240.999c76.667 -40.667 181.667 -61.334 315 -62.001c77.333 -0.666992 144.666 14.666 201.999 45.999c70 38 105 92.667 105 164c0 16 -2.33301 32.667 -7 50l-389 1448h360z" />
    <glyph glyph-name="uFEDF" unicode="&#x644;" horiz-adv-x="532" arabic-form="initial" 
d="M532 1h-575.001c-55.333 0 -95.666 53.333 -120.999 160l-38 170h303l-308 1168h346z" />
    <glyph glyph-name="uFEE0" unicode="&#x644;" horiz-adv-x="532" arabic-form="medial" 
d="M532 1h-575.001c-55.333 0 -95.666 53.333 -120.999 160l-38 170h303l-308 1168h346z" />
    <glyph glyph-name="uFEE2" unicode="&#x645;" horiz-adv-x="1445" arabic-form="final" 
d="M1445 0l-197 -283c-307.333 171.333 -529 258.333 -665 261c-45.333 0.666992 -69 -16.333 -71 -51l126 -468h-197c-36 0 -63 11.667 -81 35c-12 15.333 -23.667 44.333 -35 87l-171 631c0 50 14.667 84.333 44 103l83 33c29.333 16 44.333 46.333 45 91
c0 37.333 -7.5 92.166 -22.5 164.499s-22.5 126.833 -22.5 163.5c0 78 27 141 81 189c52 46.667 117.333 70 196 70c154 0 313.333 -81 478 -243c137.333 -135.333 243 -285.666 317 -450.999zM1014 217c-13.333 66 -56.667 146.002 -130 240.002
c-80.667 103.333 -150 155 -208 155c-16.667 0 -25 -9 -25 -27c0 -14.667 3.16699 -36.334 9.5 -65.001s9.5 -50.334 9.5 -65.001c0 -50.667 -6.33301 -94 -19 -130c107.333 -20 228.333 -56 363 -108z" />
    <glyph glyph-name="uFEE3" unicode="&#x645;" horiz-adv-x="1184" arabic-form="initial" 
d="M1184 0l-201.999 -274c-192 116 -352.667 191.333 -482 226c-122 32.667 -298.667 49 -530 49c-66.667 0 -110.334 39.333 -131.001 118c-3.33301 14 -17 84.667 -41 212h166c40 0 67 7.83301 81 23.5s21 43.834 21 84.501c0 37.333 -7.66699 92.166 -23 164.499
s-23.333 126.833 -24 163.5c-0.666992 74.667 27 137 83 187c54 48 119 72 195 72c154 0 313 -80.667 477 -242c138 -136 243.667 -286.667 317 -452zM753.001 217c-13.333 66 -56.666 145.669 -129.999 239.002c-80 102.667 -149.333 154.667 -208 156
c-17.333 0.666992 -26 -8.33301 -26 -27c0 -14.667 3.33301 -36.334 10 -65.001s10 -50.334 10 -65.001c0 -28.667 -6.66699 -72 -20 -130c107.333 -20 228.666 -56 363.999 -108z" />
    <glyph glyph-name="uFEE4" unicode="&#x645;" horiz-adv-x="1184" arabic-form="medial" 
d="M1184 0l-201.999 -274c-192 116 -352.667 191.333 -482 226c-122 32.667 -298.667 49 -530 49c-66.667 0 -110.334 39.333 -131.001 118c-3.33301 14 -17 84.667 -41 212h166c40 0 67 7.83301 81 23.5s21 43.834 21 84.501c0 37.333 -7.66699 92.166 -23 164.499
s-23.333 126.833 -24 163.5c-0.666992 74.667 27 137 83 187c54 48 119 72 195 72c154 0 313 -80.667 477 -242c138 -136 243.667 -286.667 317 -452zM753.001 217c-13.333 66 -56.666 145.669 -129.999 239.002c-80 102.667 -149.333 154.667 -208 156
c-17.333 0.666992 -26 -8.33301 -26 -27c0 -14.667 3.33301 -36.334 10 -65.001s10 -50.334 10 -65.001c0 -28.667 -6.66699 -72 -20 -130c107.333 -20 228.666 -56 363.999 -108z" />
    <glyph glyph-name="uFEE6" unicode="&#x646;" horiz-adv-x="1725" arabic-form="final" 
d="M1731 -19c0 -3.33301 0.332031 -7.99902 0.999023 -13.999v-17c0 -154 -78 -277.667 -234 -371c-134 -80 -282.333 -120 -445 -120c-391.333 0 -665.666 169.667 -822.999 509c-34 73.333 -80.333 194 -139 362h229c75.333 0 125.333 -21.333 150 -64
c10.667 -18 35.334 -75.333 74.001 -172c45.333 -113.333 113 -193.666 203 -240.999c76.667 -40.667 181.667 -61.334 315 -62.001c78 -0.666992 145.333 15.666 202 48.999c68.667 40 103 96.333 103 169c0 174.667 -146.667 506.334 -440 995.001h390
c93.333 -140.667 179.666 -305 258.999 -493c89.333 -210.667 141 -387.334 155 -530.001zM861.999 446.001h-252l-59 238h248z" />
    <glyph glyph-name="uFEE7" unicode="&#x646;" horiz-adv-x="911" arabic-form="initial" 
d="M230 1145h-251l-59 237h247zM908 1l-959.998 0.000976562c-52.667 0 -90.334 36 -113.001 108c-8.66699 26 -23.334 100 -44.001 222h668c-48 73.333 -135 188.666 -261 345.999c-122 152 -213.333 260.333 -274 325h419c74.667 -78 165.334 -192.667 272.001 -344
c103.333 -146 171.666 -254.667 204.999 -326z" />
    <glyph glyph-name="uFEE8" unicode="&#x646;" horiz-adv-x="910" arabic-form="medial" 
d="M477 866h-253l-58 239h247zM907 1h-950.001c-51.333 0 -89 36 -113 108c-6.66699 20.667 -21 94.667 -43 222h657c-50 107.333 -143.333 240.333 -280 399h398c106.667 -130 191.334 -262.667 254.001 -398z" />
    <glyph glyph-name="uFEEA" unicode="&#x647;" horiz-adv-x="1136" arabic-form="final" 
d="M1133 1h-859.001c-37.333 0 -64.666 8 -81.999 24c-15.333 13.333 -28 39 -38 77l-47 179c-2 7.33301 -3 16.666 -3 27.999c0 58.667 17.333 109.667 52 153l299 376l-147 156h407c89.333 -81.333 152 -151.666 188 -210.999c28.667 -48 60 -126.667 94 -236
c32.667 -105.333 78 -287.333 136 -546zM719.999 331l-76 244l-195 -245z" />
    <glyph glyph-name="uFEEB" unicode="&#x647;" horiz-adv-x="1394" arabic-form="initial" 
d="M1393 1h-1435c-64 0 -118.333 110 -163 330h295c-67.333 100 -101.666 202.333 -102.999 307c-1.33301 121.333 66 220.333 202 297l-19 59h547c236 -197.333 431.333 -418 586 -662zM918.999 331l-180 183l-53 -183h233zM489.999 618
c0.666992 68.667 -27.666 103.668 -84.999 105.001c-49.333 1.33301 -74.333 -32.334 -75 -101.001c-1.33301 -88.667 28.667 -153 90 -193c45.333 33.333 68.666 96.333 69.999 189z" />
    <glyph glyph-name="uFEEC" unicode="&#x647;" horiz-adv-x="1394" arabic-form="medial" 
d="M1393 1h-1435c-64 0 -118.333 110 -163 330h295c-67.333 100 -101.666 202.333 -102.999 307c-1.33301 121.333 66 220.333 202 297l-19 59h547c236 -197.333 431.333 -418 586 -662zM918.999 331l-180 183l-53 -183h233zM489.999 618
c0.666992 68.667 -27.666 103.668 -84.999 105.001c-49.333 1.33301 -74.333 -32.334 -75 -101.001c-1.33301 -88.667 28.667 -153 90 -193c45.333 33.333 68.666 96.333 69.999 189z" />
    <glyph glyph-name="uFEEE" unicode="&#x648;" horiz-adv-x="1154" arabic-form="final" 
d="M1146 5c6 -32.667 9.00293 -65.333 9.00293 -98c0 -294.667 -237.667 -443.334 -713 -446.001c-105.333 -0.666992 -172 37 -200 113c-2.66699 7.33301 -24.667 91.333 -66 252c89.333 -21.333 178.666 -32 267.999 -32c224.667 0 337 58.333 337 175v22
c-1.33301 4.66699 -2.66602 10 -3.99902 16c-38.667 -6 -83.667 -9 -135 -9c-174.667 0 -328.334 65.333 -461.001 196c-126.667 125.333 -190.667 262 -192 410c-0.666992 116.667 44.666 215.334 135.999 296.001c88 76.667 191.333 115 310 115
c187.333 0 333 -70.667 437 -212c113.333 -154 204.666 -420 273.999 -798zM708.003 325.001c-18 118 -60.6689 213.334 -128.002 286.001c-53.333 58 -104.666 87 -153.999 87c-28 0 -52 -11.333 -72 -34s-30.333 -48.334 -31 -77.001c-0.666992 -64 31 -121.667 95 -173
c72.667 -58 169.334 -87.667 290.001 -89z" />
    <glyph glyph-name="uFEF0" unicode="&#x649;" horiz-adv-x="1685" arabic-form="final" 
d="M1791 -417c-299.333 -82 -581.668 -123 -847.001 -123c-220.667 0 -376.667 26 -468 78c-96.667 54.667 -174.667 165.667 -234 333c-14 38.667 -33 99 -57 181h294c37.333 0 66.333 -23.333 87 -70c34 -76.667 61.333 -125.667 82 -147c34.667 -36 86.667 -54 156 -54
c286.667 0 483.667 15 591 45c-20.667 28 -46 58.667 -76 92c-35.333 40 -85.666 64.667 -150.999 74c-32.667 4.66699 -108.667 7 -228 7l-85 331h744z" />
    <glyph glyph-name=".notdef" horiz-adv-x="1024" 
d="M128 0v1385h768v-1385h-768zM256 128h512v1129h-512v-1129z" />
    <glyph glyph-name="space" unicode=" " horiz-adv-x="533" 
 />
    <glyph glyph-name="exclam" unicode="!" horiz-adv-x="558" 
d="M502 223h-348l-330 1276h348zM557 2h-346l-32 140h346z" />
    <glyph glyph-name="percent" unicode="%" horiz-adv-x="1297" 
d="M320 1210h-193l-46 183h190zM895 1390l-458 -1482h-346l454 1482h350zM931 -93h-193l-46 184h190z" />
    <glyph glyph-name="parenleft" unicode="(" horiz-adv-x="851" 
d="M909 -532l-350.001 -0.999023c-133.333 252 -259.666 582.333 -378.999 991c-128 437.333 -192 782.666 -192 1036h325c30.667 -288.667 111.667 -653 243 -1093c128 -427.333 245.667 -738.333 353 -933z" />
    <glyph glyph-name="parenright" unicode=")" horiz-adv-x="851" 
d="M-12 1492l349.999 1c132.667 -252.667 258.667 -583 378 -991c126.667 -434 191 -779.333 193 -1036h-324c-31.333 286.667 -112.666 650.667 -243.999 1092c-127.333 428.667 -245 740 -353 934z" />
    <glyph glyph-name="asterisk" unicode="*" horiz-adv-x="1510" 
d="M1321 498h-309l270 -219l-145 -187l-269 216l74 -307h-267l-72 308l-167 -216l-233 188l167 217h-307l-62 267l308 -1l-270 218l143 188l272 -220l-73 310h264l73 -309l166 220l234 -190l-169 -217l310 1z" />
    <glyph glyph-name="plus" unicode="+" horiz-adv-x="1106" 
d="M962 211h-293l53 -245h-337l-61 246l-290 -1l-89 327h288l-67 247h349l61 -248h297z" />
    <glyph glyph-name="comma" unicode="," horiz-adv-x="522" 
d="M177 238h253l82 -332h-104l-29 94h-138z" />
    <glyph glyph-name="hyphen" unicode="-" horiz-adv-x="1106" 
d="M962 211h-928l-89 327l928 -1z" />
    <glyph glyph-name="period" unicode="." horiz-adv-x="539" 
d="M538 4h-252l-60 238h249z" />
    <glyph glyph-name="slash" unicode="/" horiz-adv-x="965" 
d="M758 1390l-458 -1482h-347l456 1482h349z" />
    <glyph glyph-name="zero" unicode="0" horiz-adv-x="873" 
d="M539 359h-320c-50.667 0 -89.667 54.667 -117 164l-51 204h390z" />
    <glyph glyph-name="zero" unicode="&#x6f0;" horiz-adv-x="873" 
d="M539 359h-320c-50.667 0 -89.667 54.667 -117 164l-51 204h390z" />
    <glyph glyph-name="zero" unicode="&#x660;" horiz-adv-x="873" 
d="M539 359h-320c-50.667 0 -89.667 54.667 -117 164l-51 204h390z" />
    <glyph glyph-name="one" unicode="1" horiz-adv-x="765" 
d="M567 -95h-258c-46 0 -77.333 31 -94 93l-373 1396h341z" />
    <glyph glyph-name="one" unicode="&#x6f1;" horiz-adv-x="765" 
d="M567 -95h-258c-46 0 -77.333 31 -94 93l-373 1396h341z" />
    <glyph glyph-name="one" unicode="&#x661;" horiz-adv-x="765" 
d="M567 -95h-258c-46 0 -77.333 31 -94 93l-373 1396h341z" />
    <glyph glyph-name="two" unicode="2" horiz-adv-x="1151" 
d="M893 1059c-116.667 14.667 -228.667 22 -336 22c-112 0 -191.333 -9.33301 -238 -28l287 -1149l-256 1c-46.667 0 -78 31 -94 93l-339 1326c108.667 52.667 299.334 79 572.001 79c117.333 0 224.666 -7.33301 321.999 -22z" />
    <glyph glyph-name="two" unicode="&#x6f2;" horiz-adv-x="1151" 
d="M893 1059c-116.667 14.667 -228.667 22 -336 22c-112 0 -191.333 -9.33301 -238 -28l287 -1149l-256 1c-46.667 0 -78 31 -94 93l-339 1326c108.667 52.667 299.334 79 572.001 79c117.333 0 224.666 -7.33301 321.999 -22z" />
    <glyph glyph-name="two" unicode="&#x662;" horiz-adv-x="1151" 
d="M893 1059c-116.667 14.667 -228.667 22 -336 22c-112 0 -191.333 -9.33301 -238 -28l287 -1149l-256 1c-46.667 0 -78 31 -94 93l-339 1326c108.667 52.667 299.334 79 572.001 79c117.333 0 224.666 -7.33301 321.999 -22z" />
    <glyph glyph-name="three" unicode="3" horiz-adv-x="1189" 
d="M1002 906c-228.667 0 -359.333 5 -392 15c-28 -20.667 -100.333 -31 -217 -31l253 -985h-258c-46 0 -77.333 31 -94 93l-373 1400h341l59 -196h131l-46 194h170l46 -193h133l-42 193h165z" />
    <glyph glyph-name="three" unicode="&#x6f3;" horiz-adv-x="1189" 
d="M1002 906c-228.667 0 -359.333 5 -392 15c-28 -20.667 -100.333 -31 -217 -31l253 -985h-258c-46 0 -77.333 31 -94 93l-373 1400h341l59 -196h131l-46 194h170l46 -193h133l-42 193h165z" />
    <glyph glyph-name="three" unicode="&#x663;" horiz-adv-x="1189" 
d="M1002 906c-228.667 0 -359.333 5 -392 15c-28 -20.667 -100.333 -31 -217 -31l253 -985h-258c-46 0 -77.333 31 -94 93l-373 1400h341l59 -196h131l-46 194h170l46 -193h133l-42 193h165z" />
    <glyph glyph-name="four" unicode="4" horiz-adv-x="1366" 
d="M1212 -112l-925 0.00195312c-49.333 0 -74 32.333 -74 97c0 93.333 28 204.666 84 333.999c58.667 135.333 123 229.333 193 282l-437 96l75 382c147.333 141.333 333.333 253 558 335l117 -233c-78.667 -29.333 -164 -67.666 -256 -114.999
c-122 -62.667 -196.333 -113.334 -223 -152.001l537 -95l53 -282c-63.333 -16 -128.333 -56.667 -195 -122c-72 -70.667 -108 -136.334 -108 -197.001h564z" />
    <glyph glyph-name="four" unicode="&#x6f4;" horiz-adv-x="1366" 
d="M1212 -112l-925 0.00195312c-49.333 0 -74 32.333 -74 97c0 93.333 28 204.666 84 333.999c58.667 135.333 123 229.333 193 282l-437 96l75 382c147.333 141.333 333.333 253 558 335l117 -233c-78.667 -29.333 -164 -67.666 -256 -114.999
c-122 -62.667 -196.333 -113.334 -223 -152.001l537 -95l53 -282c-63.333 -16 -128.333 -56.667 -195 -122c-72 -70.667 -108 -136.334 -108 -197.001h564z" />
    <glyph glyph-name="four" unicode="&#x664;" horiz-adv-x="1366" 
d="M1212 -112l-925 0.00195312c-49.333 0 -74 32.333 -74 97c0 93.333 28 204.666 84 333.999c58.667 135.333 123 229.333 193 282l-437 96l75 382c147.333 141.333 333.333 253 558 335l117 -233c-78.667 -29.333 -164 -67.666 -256 -114.999
c-122 -62.667 -196.333 -113.334 -223 -152.001l537 -95l53 -282c-63.333 -16 -128.333 -56.667 -195 -122c-72 -70.667 -108 -136.334 -108 -197.001h564z" />
    <glyph glyph-name="five" unicode="5" horiz-adv-x="1295" 
d="M1065 91c-28 -42 -101.666 -74.3311 -220.999 -96.998c-87.333 -16.667 -171 -25.334 -251 -26.001c-246.667 -1.33301 -387.334 62 -422.001 190l-118 438c-27.333 101.333 -41.333 196.333 -42 285c-0.666992 98 15.333 188 48 270c43.333 109.333 107.333 164 192 164
c105.333 0 211 -43 317 -129c94.667 -76.667 167.667 -167.334 219 -272.001c102 -208 194.667 -482.333 278 -823zM687.001 361.002l-99.002 292c-28.667 83.333 -57.667 144.666 -87 183.999c-45.333 60.667 -102 91.667 -170 93
c-29.333 0.666992 -44 -22.666 -44 -69.999c0 -54 25 -162.667 75 -326c22.667 -74 44.334 -133 65.001 -177c34.667 -25.333 83.334 -38 146.001 -38s100.667 14 114 42z" />
    <glyph glyph-name="five" unicode="&#x6f5;" horiz-adv-x="1295" 
d="M1065 91c-28 -42 -101.666 -74.3311 -220.999 -96.998c-87.333 -16.667 -171 -25.334 -251 -26.001c-246.667 -1.33301 -387.334 62 -422.001 190l-118 438c-27.333 101.333 -41.333 196.333 -42 285c-0.666992 98 15.333 188 48 270c43.333 109.333 107.333 164 192 164
c105.333 0 211 -43 317 -129c94.667 -76.667 167.667 -167.334 219 -272.001c102 -208 194.667 -482.333 278 -823zM687.001 361.002l-99.002 292c-28.667 83.333 -57.667 144.666 -87 183.999c-45.333 60.667 -102 91.667 -170 93
c-29.333 0.666992 -44 -22.666 -44 -69.999c0 -54 25 -162.667 75 -326c22.667 -74 44.334 -133 65.001 -177c34.667 -25.333 83.334 -38 146.001 -38s100.667 14 114 42z" />
    <glyph glyph-name="five" unicode="&#x665;" horiz-adv-x="1295" 
d="M1065 91c-28 -42 -101.666 -74.3311 -220.999 -96.998c-87.333 -16.667 -171 -25.334 -251 -26.001c-246.667 -1.33301 -387.334 62 -422.001 190l-118 438c-27.333 101.333 -41.333 196.333 -42 285c-0.666992 98 15.333 188 48 270c43.333 109.333 107.333 164 192 164
c105.333 0 211 -43 317 -129c94.667 -76.667 167.667 -167.334 219 -272.001c102 -208 194.667 -482.333 278 -823zM687.001 361.002l-99.002 292c-28.667 83.333 -57.667 144.666 -87 183.999c-45.333 60.667 -102 91.667 -170 93
c-29.333 0.666992 -44 -22.666 -44 -69.999c0 -54 25 -162.667 75 -326c22.667 -74 44.334 -133 65.001 -177c34.667 -25.333 83.334 -38 146.001 -38s100.667 14 114 42z" />
    <glyph glyph-name="six" unicode="6" horiz-adv-x="1212" 
d="M1110 -95h-258.001c-47.333 0 -78.666 31 -93.999 93l-263 1071c-90.667 10 -179.667 15 -267 15c-110.667 0 -211.667 -8.33301 -303 -25l-76 322c118.667 19.333 250.667 29 396 29c136 0 304.333 -9.33301 505 -28z" />
    <glyph glyph-name="six" unicode="&#x6f6;" horiz-adv-x="1212" 
d="M1110 -95h-258.001c-47.333 0 -78.666 31 -93.999 93l-263 1071c-90.667 10 -179.667 15 -267 15c-110.667 0 -211.667 -8.33301 -303 -25l-76 322c118.667 19.333 250.667 29 396 29c136 0 304.333 -9.33301 505 -28z" />
    <glyph glyph-name="six" unicode="&#x666;" horiz-adv-x="1212" 
d="M1110 -95h-258.001c-47.333 0 -78.666 31 -93.999 93l-263 1071c-90.667 10 -179.667 15 -267 15c-110.667 0 -211.667 -8.33301 -303 -25l-76 322c118.667 19.333 250.667 29 396 29c136 0 304.333 -9.33301 505 -28z" />
    <glyph glyph-name="seven" unicode="7" horiz-adv-x="1108" 
d="M816 1396c-108.667 -563.333 -163 -1059.67 -163 -1489h-316c-46.667 0 -78 30.333 -94 91l-373 1398h341l186 -696l82 695z" />
    <glyph glyph-name="seven" unicode="&#x6f7;" horiz-adv-x="1108" 
d="M816 1396c-108.667 -563.333 -163 -1059.67 -163 -1489h-316c-46.667 0 -78 30.333 -94 91l-373 1398h341l186 -696l82 695z" />
    <glyph glyph-name="seven" unicode="&#x667;" horiz-adv-x="1108" 
d="M816 1396c-108.667 -563.333 -163 -1059.67 -163 -1489h-316c-46.667 0 -78 30.333 -94 91l-373 1398h341l186 -696l82 695z" />
    <glyph glyph-name="eight" unicode="8" horiz-adv-x="1108" 
d="M-108 -90c108.667 565.333 163 1061.67 163 1489h316c46.667 0 78 -30 94 -90l373 -1399h-341l-186 697l-82 -696z" />
    <glyph glyph-name="eight" unicode="&#x6f8;" horiz-adv-x="1108" 
d="M-108 -90c108.667 565.333 163 1061.67 163 1489h316c46.667 0 78 -30 94 -90l373 -1399h-341l-186 697l-82 -696z" />
    <glyph glyph-name="eight" unicode="&#x668;" horiz-adv-x="1108" 
d="M-108 -90c108.667 565.333 163 1061.67 163 1489h316c46.667 0 78 -30 94 -90l373 -1399h-341l-186 697l-82 -696z" />
    <glyph glyph-name="nine" unicode="9" horiz-adv-x="1299" 
d="M1050 -95h-259c-45.333 0 -76.333 31 -93 93l-109 398h-562c-31.333 80.667 -62.333 199 -93 355c4 34 59 131.667 165 293c103.333 157.333 186 271.333 248 342l316 1zM515 717l-80 270l-185 -270h265z" />
    <glyph glyph-name="nine" unicode="&#x6f9;" horiz-adv-x="1299" 
d="M1050 -95h-259c-45.333 0 -76.333 31 -93 93l-109 398h-562c-31.333 80.667 -62.333 199 -93 355c4 34 59 131.667 165 293c103.333 157.333 186 271.333 248 342l316 1zM515 717l-80 270l-185 -270h265z" />
    <glyph glyph-name="nine" unicode="&#x669;" horiz-adv-x="1299" 
d="M1050 -95h-259c-45.333 0 -76.333 31 -93 93l-109 398h-562c-31.333 80.667 -62.333 199 -93 355c4 34 59 131.667 165 293c103.333 157.333 186 271.333 248 342l316 1zM515 717l-80 270l-185 -270h265z" />
    <glyph glyph-name="colon" unicode=":" horiz-adv-x="539" 
d="M538 4h-252l-60 238h249zM453 366h-252l-59 238h247z" />
    <glyph glyph-name="equal" unicode="=" horiz-adv-x="1201" 
d="M890 416h-744l-96 319h749zM1007 -52h-745l-95 319h748z" />
    <glyph glyph-name="bracketleft" unicode="[" horiz-adv-x="686" 
d="M1002 -537h-454l-745 2039h453l71 -196h-251l601 -1645h252z" />
    <glyph glyph-name="bracketright" unicode="]" horiz-adv-x="956" 
d="M-140 1501h454l745 -2039h-453l-72 197h252l-601 1644h-252z" />
    <glyph glyph-name="braceleft" unicode="{" horiz-adv-x="981" 
d="M832 -320c-101.333 18 -184.332 61.001 -248.999 129.001c-68.667 71.333 -103 157 -103 257c0 40.667 8.66699 99.667 26 177c12.667 56.667 19 94 19 112c0 64.667 -24 119 -72 163c-44.667 41.333 -100 65.666 -166 72.999v38c159.333 34.667 239 107.667 239 219
c0 31.333 -5.33301 72 -16 122c-18 84 -27 146.667 -27 188c0 100.667 33.667 186.334 101 257.001c64 68 146.667 110.333 248 127v-40c-62.667 -9.33301 -114.334 -33.666 -155.001 -72.999c-44.667 -42.667 -67 -94.334 -67 -155.001c0 -30.667 4.33301 -69 13 -115
c20 -106.667 30 -176.667 30 -210c0 -149.333 -95.333 -261.333 -286 -336c188.667 -77.333 283 -194 283 -350c0 -32.667 -9 -92.334 -27 -179.001c-11.333 -54.667 -17 -99.667 -17 -135c0 -120 75.333 -197.667 226 -233v-36z" />
    <glyph glyph-name="braceright" unicode="}" horiz-adv-x="981" 
d="M695 593c-159.333 -34.667 -239.001 -107.994 -239.001 -219.994c0 -34.667 5 -75.334 15 -122.001c18.667 -87.333 28 -149.666 28 -186.999c0 -100.667 -33.667 -186.334 -101 -257.001c-64 -68 -146.667 -110.333 -248 -127v40
c62.667 9.33301 114.334 33.666 155.001 72.999c44 42 66 93.667 66 155c0 32 -4 70 -12 114c-20 109.333 -30 179.666 -30 210.999c0 148.667 95 260.667 285 336c-188 77.333 -282 193.666 -282 348.999c0 36.667 8.66699 96.667 26 180c12 58 18 103 18 135
c0 120 -75.333 197.667 -226 233v36c101.333 -18.667 184.333 -61.667 249 -129c68.667 -70.667 103 -156.334 103 -257.001c0 -38 -9 -97 -27 -177c-12 -53.333 -18 -91 -18 -113c0 -64.667 24.333 -118.667 73 -162c42.667 -38.667 97.667 -63.334 165 -74.001v-37z" />
    <glyph glyph-name="guillemotleft" unicode="&#xab;" horiz-adv-x="1547" 
d="M1455 -160h-294l-408 647l131 642h296l-126 -644zM849 -160h-295l-407 647l131 642h295l-125 -644z" />
    <glyph glyph-name="periodcentered" unicode="&#xb7;" horiz-adv-x="405" 
d="M326 768c0 -33.333 -11.832 -61.668 -35.499 -85.001s-52.167 -35 -85.5 -35c-32.667 0 -60.834 11.833 -84.501 35.5s-35.5 51.834 -35.5 84.501s11.5 61 34.5 85s50.833 36 83.5 36c34 0 63 -11.667 87 -35s36 -52 36 -86z" />
    <glyph glyph-name="periodcentered" unicode="&#x2219;" horiz-adv-x="405" 
d="M326 768c0 -33.333 -11.832 -61.668 -35.499 -85.001s-52.167 -35 -85.5 -35c-32.667 0 -60.834 11.833 -84.501 35.5s-35.5 51.834 -35.5 84.501s11.5 61 34.5 85s50.833 36 83.5 36c34 0 63 -11.667 87 -35s36 -52 36 -86z" />
    <glyph glyph-name="periodcentered" unicode="&#x2d9;" horiz-adv-x="405" 
d="M326 768c0 -33.333 -11.832 -61.668 -35.499 -85.001s-52.167 -35 -85.5 -35c-32.667 0 -60.834 11.833 -84.501 35.5s-35.5 51.834 -35.5 84.501s11.5 61 34.5 85s50.833 36 83.5 36c34 0 63 -11.667 87 -35s36 -52 36 -86z" />
    <glyph glyph-name="guillemotright" unicode="&#xbb;" horiz-adv-x="1547" 
d="M229 1127h295l407 -646l-131 -642h-294l124 644zM836 1127h295l406 -646l-131 -642h-295l125 644z" />
    <glyph glyph-name="multiply" unicode="&#xd7;" horiz-adv-x="946" 
d="M802 219l-58 -57l-277 275l-277 -275l-59 57l275 278l-275 278l62 56l274 -276l277 276l58 -56l-279 -278z" />
    <glyph glyph-name="divide" unicode="&#xf7;" horiz-adv-x="1201" 
d="M971 181h-914l-96 320h918zM486 661h-251l-60 238h248zM683 -209h-252l-60 238h249z" />
    <glyph glyph-name="u060C" unicode="&#x60c;" horiz-adv-x="522" 
d="M512 4h-253l-82 332h104l29 -94h138z" />
    <glyph glyph-name="u061B" unicode="&#x61b;" horiz-adv-x="539" 
d="M538 4h-252l-60 238h249zM448 355h-253l-81 332h103l29 -94h138z" />
    <glyph glyph-name="u061F" unicode="&#x61f;" horiz-adv-x="1056" 
d="M806 993h-315.998l-51 178c-54.667 0 -88.334 -1 -101.001 -3c-29.333 -4.66699 -44 -19 -44 -43c0 -3.33301 0.333008 -6 1 -8c13.333 -108 49 -200 107 -276l120 -108c65.333 -58.667 104.666 -114 117.999 -166l93 -357h-352c-20 134.667 -54.333 236.667 -103 306
c-16.667 24 -60 65.333 -130 124c-50 42 -83.667 94.667 -101 158l-160 587c-3.33301 12 -5 22.333 -5 31c0 48.667 32.333 73 97 73l696 -1zM778.002 2h-346l-32 140h346z" />
    <glyph glyph-name="u0621" unicode="&#x621;" horiz-adv-x="561" 
d="M512 166h-383l-42 99h222l-193 169l270 253l33 -124l-121 -121l189 -182zM558 1h-389l-27 93h391z" />
    <glyph glyph-name="u0640" unicode="&#x640;" horiz-adv-x="924" 
d="M925 1h-966l-86 330h967z" />
    <glyph glyph-name="u064B" unicode="&#x64b;" 
d="M162 1686h-335l-26 76h334zM191 1555h-335l-27 75h335z" />
    <glyph glyph-name="u064C" unicode="&#x64c;" 
d="M183 1554h-345.001l-19 64h34c3.33301 28 -9.66699 52.667 -39 74l29 48c17.333 -2 32.333 -14 45 -36c11.333 -18.667 17.333 -37.667 18 -57c0.666992 -11.333 -1.66602 -21 -6.99902 -29h37c0 86.667 34.333 130.667 103 132c71.333 2 119.333 -63.333 144 -196z
M106.999 1619c-6.66699 41.333 -27.666 62.332 -62.999 62.999c-18.667 0.666992 -32.334 -7.66602 -41.001 -24.999l-12 -38h116z" />
    <glyph glyph-name="u064D" unicode="&#x64d;" 
d="M705 -717h-335l-27 76h335zM734 -848h-335l-27 75h335z" />
    <glyph glyph-name="u064E" unicode="&#x64e;" 
d="M180 1607h-335l-26 76h335z" />
    <glyph glyph-name="u064F" unicode="&#x64f;" 
d="M183 1554h-345l-19 64h117c0 86.667 34.333 130.667 103 132c71.333 2 119.333 -63.333 144 -196zM107 1619c-6.66699 42 -27.667 63 -63 63c-22 0 -39.667 -21 -53 -63h116z" />
    <glyph glyph-name="u0650" unicode="&#x650;" 
d="M683 -727h-335l-27 75h335z" />
    <glyph glyph-name="u0651" unicode="&#x651;" 
d="M204 1554h-367l-32 125h67l17 -62h84l-19 62h65l23 -62h75l-16 60h68z" />
    <glyph glyph-name="u0652" unicode="&#x652;" 
d="M122 1646c0 -26 -8.33398 -48.002 -25.001 -66.002s-38 -27 -64 -27c-42 0 -77 12.833 -105 38.5s-42 59.5 -42 101.5c0 60.667 29.667 91.334 89 92.001c36.667 0.666992 70.334 -13.166 101.001 -41.499s46 -60.833 46 -97.5zM-16.001 1721
c-23.333 -3.33301 -35 -17.334 -35 -42.001c0 -16.667 7.16699 -31.167 21.5 -43.5s29.833 -18.5 46.5 -18.5c24.667 0 37 14.667 37 44c0 14.667 -7.83301 28.334 -23.5 41.001s-31.167 19 -46.5 19z" />
    <glyph glyph-name="zeronojoin" unicode="&#x200c;" horiz-adv-x="33" 
 />
    <glyph glyph-name="zerojoin" unicode="&#x200d;" horiz-adv-x="33" 
 />
    <glyph glyph-name="lefttoright" unicode="&#x200e;" horiz-adv-x="33" 
d="M217 1155l-96 -98l-25 20l64 64h-127v-1141h-33v1171h156l-60 60l25 22z" />
    <glyph glyph-name="righttoleft" unicode="&#x200f;" horiz-adv-x="33" 
d="M33 0h-33v1141h-127l61 -64l-20 -20l-100 98l100 98l20 -22l-59 -60h158v-1171z" />
    <glyph glyph-name="quoteleft" unicode="&#x2018;" horiz-adv-x="491" 
d="M467 1486c-59.333 -39.333 -110.666 -87.6689 -153.999 -145.002c-50.667 -67.333 -76 -131.666 -76 -192.999c0 -36.667 10.667 -69.334 32 -98.001c26 31.333 56 47 90 47c68 0 102 -33.333 102 -100c0 -39.333 -16 -70 -48 -92c-28.667 -20 -63.334 -30 -104.001 -30
c-54.667 0 -99 16.833 -133 50.5s-51 77.834 -51 132.501c0 94 36 188.333 108 283c64.667 84.667 142.667 151.334 234 200.001v-55z" />
    <glyph glyph-name="quoteright" unicode="&#x2019;" horiz-adv-x="491" 
d="M444 1353c0 -95.333 -35.668 -189 -107.001 -281c-60.667 -78.667 -138 -145.334 -232 -200.001v56c152 108 228 220.667 228 338c0 41.333 -11 75 -33 101c-22 -32.667 -53.667 -49 -95 -49c-27.333 0 -50.5 9.33301 -69.5 28s-28.5 41.667 -28.5 69
c0 38.667 16.333 69.667 49 93c28.667 20.667 63.334 31 104.001 31c57.333 0 102.333 -16.667 135 -50s49 -78.666 49 -135.999z" />
    <glyph glyph-name="quotedblleft" unicode="&#x201c;" horiz-adv-x="650" 
d="M572 1146c-8.66699 -4 -22.333 -12.666 -41 -25.999c-34.667 -34 -52 -65.667 -52 -95c54.667 -14.667 82 -52 82 -112c0 -30 -10.5 -56 -31.5 -78s-46.5 -33 -76.5 -33c-34.667 0 -62.667 14 -84 42c-19.333 25.333 -29 56 -29 92c0 134 67.667 253.667 203 359
c0 -55.333 0.333008 -86.333 1 -93c2.66699 -26.667 12 -45.334 28 -56.001zM302.001 1146c-8.66699 -4 -22.333 -12.666 -41 -25.999c-34.667 -34 -52 -65.667 -52 -95c54.667 -14.667 82 -52 82 -112c0 -30 -10.5 -56 -31.5 -78s-46.5 -33 -76.5 -33
c-34.667 0 -62.667 14 -84 42c-19.333 25.333 -29 56 -29 92c0 134 67.667 253.667 203 359c0 -55.333 0.333008 -86.333 1 -93c2.66699 -26.667 12 -45.334 28 -56.001z" />
    <glyph glyph-name="quotedblright" unicode="&#x201d;" horiz-adv-x="650" 
d="M580 1151c0 -134 -67.6689 -253.669 -203.002 -359.002c0 55.333 -0.333008 86.333 -1 93c-2.66699 26.667 -12 45.334 -28 56.001c8.66699 4 22.334 12.667 41.001 26c34.667 34 52 65.667 52 95c-54.667 14.667 -82 52 -82 112c0 30.667 10.333 56.834 31 78.501
s46.334 32.5 77.001 32.5c36 0 64.333 -13.667 85 -41c18.667 -24.667 28 -55.667 28 -93zM309.998 1151c0 -134 -67.6689 -253.669 -203.002 -359.002c0 55.333 -0.333008 86.333 -1 93c-2.66699 26.667 -12 45.334 -28 56.001c8.66699 4 22.334 12.667 41.001 26
c34.667 34 52 65.667 52 95c-54.667 14.667 -82 52 -82 112c0 30.667 10.333 56.834 31 78.501s46.334 32.5 77.001 32.5c36 0 64.333 -13.667 85 -41c18.667 -24.667 28 -55.667 28 -93z" />
    </font>
</defs>
</svg>
