<?xml version="1.0" standalone="no"?>
<!DOCTYPE svg PUBLIC "-//W3C//DTD SVG 1.1//EN" "http://www.w3.org/Graphics/SVG/1.1/DTD/svg11.dtd" >
<svg>
<metadata>
Created by FontForge 20090914 at Fri Feb 22 23:13:57 2013
 By www-data
Digitized data copyright &#194;&#169; 2010, Google Corporation.
</metadata>
<defs>
<font id="DroidArabicKufi" horiz-adv-x="0" >
  <font-face 
    font-family="Droid Arabic Kufi"
    font-weight="400"
    font-stretch="normal"
    units-per-em="2048"
    panose-1="2 11 6 6 3 8 4 2 2 4"
    ascent="1638"
    descent="-410"
    bbox="-479 -1123 3111 2605"
    underline-thickness="102"
    underline-position="-103"
    unicode-range="U+0020-U+FEFC"
  />
<missing-glyph horiz-adv-x="1229" 
d="M102 -362v1806h1024v-1806h-1024zM217 -248h795v1577h-795v-1577z" />
    <glyph glyph-name="allah" unicode="&#x627;&#xfedf;&#xfee0;&#xfeea;" horiz-adv-x="3213" arabic-form="isolated" 
d="M653 0c-164 0 -291.666 41.5 -382.999 124.5s-137 199.167 -137 348.5c0 161.333 50.667 288.333 152 381s237.666 139 408.999 139h135v129h175v-962h483v1089h182v-1089h516v1089h182v-1249h-1714zM829.001 160v674h-129c-122.667 0 -217.5 -31.5 -284.5 -94.5
s-100.5 -151.167 -100.5 -264.5c0 -102 29 -180 87 -234s140.333 -81 247 -81h180zM2826 1556h183v-1556h-183v1556zM1393 1339c-53.333 0 -94.667 17 -124 51s-44 83.333 -44 148v129h106v-111c0 -36.667 5.5 -64.5 16.5 -83.5s32.833 -28.5 65.5 -28.5
c60 0 90 31.333 90 94v180h96v-139c0 -36 6.33301 -60.667 19 -74s32.334 -20 59.001 -20c37.333 0 62.5 8.66699 75.5 26s19.5 46 19.5 86v152h106v-170c0 -64 -15 -113.167 -45 -147.5s-73.667 -51.5 -131 -51.5c-62.667 0 -110.334 20.667 -143.001 62
c-32.667 -68.667 -88 -103 -166 -103zM1493 2161h117v-338h-117v338z" />
    <glyph glyph-name="riyal" unicode="&#x631;&#xfef3;&#xfe8e;&#x644;" horiz-adv-x="3285" arabic-form="isolated" 
d="M545 -492c-126.667 0 -227.002 46.6689 -301.002 140.002s-111 221.666 -111 384.999c0 84 7.33301 169.167 22 255.5s35.334 162.166 62.001 227.499h170c-46.667 -118 -70 -279 -70 -483c0 -116.667 23.333 -206.667 70 -270s112.334 -95 197.001 -95h100
c118.667 0 205.667 27 261 81s83 135.667 83 245v1562h174v-1548c0 -165.333 -41 -290 -123 -374s-211 -126 -387 -126h-147zM1565 1556h182v-1396h532v833h183v-993h-897v1556zM2746 -491.998c-64 0 -133.667 19.334 -209 58.001l54 137c50.667 -23.333 101 -35 151 -35
c60.667 0 108.667 24.667 144 74s53 115.666 53 198.999v1052h172v-1042c0 -138 -31.333 -246.333 -94 -325s-153 -118 -271 -118zM1937 -409.997c-35.333 0 -63.167 10.665 -83.5 31.998s-30.5 51.666 -30.5 90.999c0 38.667 10 68.834 30 90.501s48 32.5 84 32.5
c36.667 0 65 -11.167 85 -33.5s30 -52.166 30 -89.499s-10 -67.166 -30 -89.499s-48.333 -33.5 -85 -33.5zM2292 -409.999c-32 0 -59.168 9.66797 -81.501 29.001s-33.5 50.666 -33.5 93.999s11.167 74.666 33.5 93.999s49.5 29 81.5 29c34.667 0 62.334 -10.5 83 -31.5
c20.667 -21 31 -51.5 31 -91.5c0 -39.333 -10.167 -69.666 -30.5 -90.999s-48.166 -32 -83.499 -32z" />
    <glyph glyph-name="uni06440622.isol" unicode="&#xfedf;&#xfe82;" horiz-adv-x="1380" arabic-form="isolated" 
d="M92 160h459l-264 1120h190l264 -1120h56c144.667 0 217 79 217 237v1159h182v-1183c0 -113.333 -34.333 -203.833 -103 -271.5s-160.667 -101.5 -276 -101.5h-725v160zM45 1434c7.33301 65.333 26.3311 116.833 56.998 154.5s74.334 56.5 131.001 56.5
c24.667 0 49.334 -4.66699 74.001 -14s48.5 -19.666 71.5 -30.999s45 -21.666 66 -30.999s40.167 -14 57.5 -14c27.333 0 47.833 7.16699 61.5 21.5s25.167 37.833 34.5 70.5h92c-7.33301 -64.667 -26.333 -115.834 -57 -153.501s-74.334 -56.5 -131.001 -56.5
c-24.667 0 -49 4.66699 -73 14s-47.333 19.666 -70 30.999s-44.667 21.666 -66 30.999s-41.333 14 -60 14c-28 0 -48.667 -7.16699 -62 -21.5s-24.666 -38.166 -33.999 -71.499h-92z" />
    <glyph glyph-name="uni06440622.fina" unicode="&#xfee0;&#xfe82;" horiz-adv-x="1452" arabic-form="final" 
d="M92 160h459l-264 1120h190l264 -1120h273v1396h182v-1396h266c7.33301 0 11 -2.66699 11 -8v-142c0 -6.66699 -3.66699 -10 -11 -10h-1370v160zM45 1434c7.33301 65.333 26.3311 116.833 56.998 154.5s74.334 56.5 131.001 56.5c24.667 0 49.334 -4.66699 74.001 -14
s48.5 -19.666 71.5 -30.999s45 -21.666 66 -30.999s40.167 -14 57.5 -14c27.333 0 47.833 7.16699 61.5 21.5s25.167 37.833 34.5 70.5h92c-7.33301 -64.667 -26.333 -115.834 -57 -153.501s-74.334 -56.5 -131.001 -56.5c-24.667 0 -49 4.66699 -73 14
s-47.333 19.666 -70 30.999s-44.667 21.666 -66 30.999s-41.333 14 -60 14c-28 0 -48.667 -7.16699 -62 -21.5s-24.666 -38.166 -33.999 -71.499h-92z" />
    <glyph glyph-name="uni06440623.isol" unicode="&#xfedf;&#xfe84;" horiz-adv-x="1380" arabic-form="isolated" 
d="M92 160h459l-264 1120h190l264 -1120h56c144.667 0 217 79 217 237v1159h182v-1183c0 -113.333 -34.333 -203.833 -103 -271.5s-160.667 -101.5 -276 -101.5h-725v160zM141 1547l97.001 14c-48 31.333 -72 74.666 -72 129.999c0 58.667 19.167 104 57.5 136
s88.833 48 151.5 48c53.333 0 98.333 -10.333 135 -31l-31 -92c-27.333 16.667 -61.333 25 -102 25c-30 0 -55.333 -8.5 -76 -25.5s-31 -43.5 -31 -79.5c0 -23.333 6 -43.166 18 -59.499s26.667 -28.5 44 -36.5c13.333 3.33301 46 8.5 98 15.5s87.667 10.5 107 10.5v-100
c-10.667 0 -34.834 -1.83301 -72.501 -5.5s-107.167 -12.167 -208.5 -25.5l-115 -18v94z" />
    <glyph glyph-name="uni06440623.fina" unicode="&#xfee0;&#xfe84;" horiz-adv-x="1452" arabic-form="final" 
d="M92 160h459l-264 1120h190l264 -1120h273v1396h182v-1396h266c7.33301 0 11 -2.66699 11 -8v-142c0 -6.66699 -3.66699 -10 -11 -10h-1370v160zM141 1547l97.001 14c-48 31.333 -72 74.666 -72 129.999c0 58.667 19.167 104 57.5 136s88.833 48 151.5 48
c53.333 0 98.333 -10.333 135 -31l-31 -92c-27.333 16.667 -61.333 25 -102 25c-30 0 -55.333 -8.5 -76 -25.5s-31 -43.5 -31 -79.5c0 -23.333 6 -43.166 18 -59.499s26.667 -28.5 44 -36.5c13.333 3.33301 46 8.5 98 15.5s87.667 10.5 107 10.5v-100
c-10.667 0 -34.834 -1.83301 -72.501 -5.5s-107.167 -12.167 -208.5 -25.5l-115 -18v94z" />
    <glyph glyph-name="uni06440625.isol" unicode="&#xfedf;&#xfe88;" horiz-adv-x="1380" arabic-form="isolated" 
d="M92 160h459l-264 1120h190l264 -1120h56c144.667 0 217 79 217 237v1159h182v-1183c0 -113.333 -34.333 -203.833 -103 -271.5s-160.667 -101.5 -276 -101.5h-725v160zM473 -527l96.999 14.001c-19.333 12 -36.166 29 -50.499 51s-21.5 48 -21.5 78
c0 57.333 18.5 102.333 55.5 135s88.167 49 153.5 49c53.333 0 98.333 -10.333 135 -31l-31 -92c-27.333 16.667 -61.333 25 -102 25c-30 0 -55.333 -8.5 -76 -25.5s-31 -43.5 -31 -79.5c0 -43.333 20.667 -75.333 62 -96c13.333 3.33301 47.333 8.66602 102 15.999
s89 11 103 11v-101c-30.667 0 -95.5 -6.33301 -194.5 -19s-166.167 -22.667 -201.5 -30v95z" />
    <glyph glyph-name="uni06440625.fina" unicode="&#xfee0;&#xfe88;" horiz-adv-x="1452" arabic-form="final" 
d="M92 160h459l-264 1120h190l264 -1120h273v1396h182v-1396h266c7.33301 0 11 -2.66699 11 -8v-142c0 -6.66699 -3.66699 -10 -11 -10h-1370v160zM473 -527l96.999 14.001c-19.333 12 -36.166 29 -50.499 51s-21.5 48 -21.5 78c0 57.333 18.5 102.333 55.5 135
s88.167 49 153.5 49c53.333 0 98.333 -10.333 135 -31l-31 -92c-27.333 16.667 -61.333 25 -102 25c-30 0 -55.333 -8.5 -76 -25.5s-31 -43.5 -31 -79.5c0 -43.333 20.667 -75.333 62 -96c13.333 3.33301 47.333 8.66602 102 15.999s89 11 103 11v-101
c-30.667 0 -95.5 -6.33301 -194.5 -19s-166.167 -22.667 -201.5 -30v95z" />
    <glyph glyph-name="uni06440627.isol" unicode="&#xfedf;&#xfe8e;" horiz-adv-x="1380" arabic-form="isolated" 
d="M92 160h459l-264 1120h190l264 -1120h56c144.667 0 217 79 217 237v1159h182v-1183c0 -113.333 -34.333 -203.833 -103 -271.5s-160.667 -101.5 -276 -101.5h-725v160z" />
    <glyph glyph-name="uni06440627.fina" unicode="&#xfee0;&#xfe8e;" horiz-adv-x="1452" arabic-form="final" 
d="M92 160h459l-264 1120h190l264 -1120h273v1396h182v-1396h266c7.33301 0 11 -2.66699 11 -8v-142c0 -6.66699 -3.66699 -10 -11 -10h-1370v160z" />
    <glyph glyph-name="uni06440671.isol" unicode="&#xfedf;&#xfb51;" horiz-adv-x="1380" 
d="M92 160h459l-264 1120h190l264 -1120h56c144.667 0 217 79 217 237v1159h182v-1183c0 -113.333 -34.333 -203.833 -103 -271.5s-160.667 -101.5 -276 -101.5h-725v160zM90 1527h94c48 139.333 124.333 209 229 209c56.667 0 100.167 -18.333 130.5 -55
s45.5 -88 45.5 -154v-94h-499v94zM485 1527c0 40 -5.83203 68.833 -17.499 86.5s-29.834 26.5 -54.501 26.5c-24 0 -46.833 -10.667 -68.5 -32s-37.5 -48.333 -47.5 -81h188z" />
    <glyph glyph-name="uni06440671.fina" unicode="&#xfee0;&#xfb51;" horiz-adv-x="1452" 
d="M92 160h459l-264 1120h190l264 -1120h273v1396h182v-1396h266c7.33301 0 11 -2.66699 11 -8v-142c0 -6.66699 -3.66699 -10 -11 -10h-1370v160zM90 1527h94c48 139.333 124.333 209 229 209c56.667 0 100.167 -18.333 130.5 -55s45.5 -88 45.5 -154v-94h-499v94z
M485 1527c0 40 -5.83203 68.833 -17.499 86.5s-29.834 26.5 -54.501 26.5c-24 0 -46.833 -10.667 -68.5 -32s-37.5 -48.333 -47.5 -81h188z" />
    <glyph glyph-name="uni0621" unicode="&#x621;" horiz-adv-x="1004" arabic-form="isolated" 
d="M133 131c28 3.33301 49.9971 7.33203 65.9971 11.999l116 21c-38 25.333 -69.333 63.333 -94 114s-37 106 -37 166c0 82.667 17.5 153.334 52.5 212.001s84.667 103.667 149 135s138.5 47 222.5 47c98 0 180.667 -20 248 -60l-45 -153
c-67.333 35.333 -133.666 53 -198.999 53c-79.333 0 -139.666 -21 -180.999 -63s-62 -103 -62 -183c0 -51.333 11.833 -98 35.5 -140s54.834 -72.333 93.501 -91l45 5c206.667 26.667 333 40 379 40v-166c-66.667 0 -198 -12.667 -394 -38s-327.667 -45.333 -395 -60v149z
" />
    <glyph glyph-name="uni0622" unicode="&#x622;" horiz-adv-x="592" arabic-form="isolated" 
d="M205 1434h182v-1434h-182v1434zM-18 1556c7.33301 65.333 26.3311 116.833 56.998 154.5s74.334 56.5 131.001 56.5c24.667 0 49.334 -4.66699 74.001 -14s48.5 -19.666 71.5 -30.999s45 -21.666 66 -30.999s40.167 -14 57.5 -14c27.333 0 47.833 7.16699 61.5 21.5
s25.167 37.833 34.5 70.5h92c-7.33301 -64.667 -26.333 -115.834 -57 -153.501s-74.334 -56.5 -131.001 -56.5c-24.667 0 -49 4.66699 -73 14s-47.333 19.666 -70 30.999s-44.667 21.666 -66 30.999s-41.333 14 -60 14c-28 0 -48.667 -7.16699 -62 -21.5
s-24.666 -38.166 -33.999 -71.499h-92z" />
    <glyph glyph-name="uni0623" unicode="&#x623;" horiz-adv-x="592" arabic-form="isolated" 
d="M205 1434h182v-1434h-182v1434zM90 1628l97.001 14c-48 31.333 -72 74.666 -72 129.999c0 58.667 19.167 104 57.5 136s88.833 48 151.5 48c53.333 0 98.333 -10.333 135 -31l-31 -92c-27.333 16.667 -61.333 25 -102 25c-30 0 -55.333 -8.5 -76 -25.5
s-31 -43.5 -31 -79.5c0 -23.333 6 -43.166 18 -59.499s26.667 -28.5 44 -36.5c13.333 3.33301 46 8.5 98 15.5s87.667 10.5 107 10.5v-100c-10.667 0 -34.834 -1.83301 -72.501 -5.5s-107.167 -12.167 -208.5 -25.5l-115 -18v94z" />
    <glyph glyph-name="uni0624" unicode="&#x624;" horiz-adv-x="1149" arabic-form="isolated" 
d="M502 -492c-139.333 0 -262.335 34.999 -369.002 104.999l82 137c44 -23.333 89.333 -42.833 136 -58.5s98.334 -23.5 155.001 -23.5c92.667 0 165.334 24.833 218.001 74.5s79 115.834 79 198.501v59h-201c-145.333 0 -257.833 40 -337.5 120s-119.5 195.667 -119.5 347
c0 160.667 51 288.5 153 383.5s238.333 142.5 409 142.5h268v-1042c0 -139.333 -41.167 -248 -123.5 -326s-198.833 -117 -349.5 -117zM800.998 159.999v674.001h-88c-121.333 0 -215.833 -32 -283.5 -96s-101.5 -153.667 -101.5 -269
c0 -106.667 23.167 -184.834 69.5 -234.501s116.5 -74.5 210.5 -74.5h193zM351.998 1267l97.001 14c-48 31.333 -72 74.666 -72 129.999c0 58.667 19.167 104 57.5 136s88.833 48 151.5 48c53.333 0 98.333 -10.333 135 -31l-31 -92c-27.333 16.667 -61.333 25 -102 25
c-30 0 -55.333 -8.5 -76 -25.5s-31 -43.5 -31 -79.5c0 -23.333 6 -43.166 18 -59.499s26.667 -28.5 44 -36.5c13.333 3.33301 46 8.5 98 15.5s87.667 10.5 107 10.5v-100c-10.667 0 -34.834 -1.83301 -72.501 -5.5s-107.167 -12.167 -208.5 -25.5l-115 -18v94z" />
    <glyph glyph-name="uni0625" unicode="&#x625;" horiz-adv-x="592" arabic-form="isolated" 
d="M205 1556h182v-1556h-182v1556zM104 -446l96.999 14.001c-19.333 12 -36.166 29 -50.499 51s-21.5 48 -21.5 78c0 57.333 18.5 102.333 55.5 135s88.167 49 153.5 49c53.333 0 98.333 -10.333 135 -31l-31 -92c-27.333 16.667 -61.333 25 -102 25
c-30 0 -55.333 -8.5 -76 -25.5s-31 -43.5 -31 -79.5c0 -43.333 20.667 -75.333 62 -96c13.333 3.33301 47.333 8.66602 102 15.999s89 11 103 11v-101c-30.667 0 -95.5 -6.33301 -194.5 -19s-166.167 -22.667 -201.5 -30v95z" />
    <glyph glyph-name="uni0626" unicode="&#x626;" horiz-adv-x="1718" arabic-form="isolated" 
d="M545 -492c-128 0 -228.669 44.3369 -302.002 133.004s-110 209 -110 361c0 71.333 5.83301 135.666 17.5 192.999s29.834 116 54.501 176h170c-15.333 -38 -27.166 -74.5 -35.499 -109.5s-14.166 -68.833 -17.499 -101.5s-5 -81.334 -5 -146.001
c0 -110.667 23 -196 69 -256s112 -90 198 -90h401c104.667 0 187.5 19 248.5 57s91.5 88.667 91.5 152c0 25.333 -8.66699 50 -26 74s-40.666 47.667 -69.999 71s-79.333 56.333 -150 99c-82 48.667 -139.333 87.167 -172 115.5s-57.5 57.666 -74.5 87.999
s-25.5 63.5 -25.5 99.5c0 81.333 30.167 167.166 90.5 257.499s135.166 164.833 224.499 223.5s176 88 260 88c32.667 0 78.5 -9.33301 137.5 -28s101.5 -36.667 127.5 -54l-74 -137c-20 10 -48.5 18.333 -85.5 25s-69.833 10 -98.5 10c-46 0 -99.5 -18.667 -160.5 -56
s-112.667 -83.333 -155 -138s-63.5 -106.667 -63.5 -156c0 -46 51 -100 153 -162c100.667 -61.333 172.167 -112 214.5 -152s75.166 -83.167 98.499 -129.5s35 -93.833 35 -142.5c0 -114 -45.667 -203.333 -137 -268s-221 -97 -389 -97h-440zM306.998 709.004l97.001 14
c-48 31.333 -72 74.666 -72 129.999c0 58.667 19.167 104 57.5 136s88.833 48 151.5 48c53.333 0 98.333 -10.333 135 -31l-31 -92c-27.333 16.667 -61.333 25 -102 25c-30 0 -55.333 -8.5 -76 -25.5s-31 -43.5 -31 -79.5c0 -23.333 6 -43.166 18 -59.499
s26.667 -28.5 44 -36.5c13.333 3.33301 46 8.5 98 15.5s87.667 10.5 107 10.5v-100c-10.667 0 -34.834 -1.83301 -72.501 -5.5s-107.167 -12.167 -208.5 -25.5l-115 -18v94z" />
    <glyph glyph-name="uni0627" unicode="&#x627;" horiz-adv-x="592" arabic-form="isolated" 
d="M205 1556h182v-1556h-182v1556z" />
    <glyph glyph-name="uni0628" unicode="&#x628;" horiz-adv-x="1593" arabic-form="isolated" 
d="M516 0c-118 0 -211.334 35.5039 -280.001 106.504s-103 167.833 -103 290.5c0 45.333 4.83301 97.666 14.5 156.999s21.834 109.666 36.501 150.999h164c-20.667 -98.667 -31 -196.334 -31 -293.001c0 -74.667 17.667 -135.334 53 -182.001s82 -70 140 -70h735v833h174
v-993h-903zM853.999 -409.996c-35.333 0 -63.333 10.667 -84 32s-31 51.666 -31 90.999s10.167 69.666 30.5 90.999s48.5 32 84.5 32c36.667 0 65 -11.167 85 -33.5s30 -52.166 30 -89.499s-10 -67.166 -30 -89.499s-48.333 -33.5 -85 -33.5z" />
    <glyph glyph-name="uni0629" unicode="&#x629;" horiz-adv-x="1223" arabic-form="isolated" 
d="M608 -20c-150.667 0 -267.503 41.166 -350.503 123.499s-124.5 199.5 -124.5 351.5c0 100 20.833 193.333 62.5 280s99.334 154.834 173.001 204.501s155.5 74.5 245.5 74.5c84.667 0 163.834 -25.5 237.501 -76.5s131.834 -120.5 174.501 -208.5s64 -179.333 64 -274
c0 -154.667 -40.5 -272.5 -121.5 -353.5s-201.167 -121.5 -360.5 -121.5zM611.997 136.999c195.333 0 293 105.333 293 316c0 124 -26 222.167 -78 294.5s-124.333 108.5 -217 108.5c-83.333 0 -153 -37.333 -209 -112s-84 -171.667 -84 -291
c0 -210.667 98.333 -316 295 -316zM407.997 1188c-32 0 -59.1689 9.66797 -81.502 29.001s-33.5 50.666 -33.5 93.999s11.167 74.666 33.5 93.999s49.5 29 81.5 29c34.667 0 62.334 -10.5 83.001 -31.5s31 -51.5 31 -91.5c0 -39.333 -10.167 -69.666 -30.5 -90.999
s-48.166 -32 -83.499 -32zM761.995 1188c-35.333 0 -63.333 10.667 -84 32s-31 51.666 -31 90.999s10.167 69.666 30.5 90.999s48.5 32 84.5 32c36.667 0 65 -11.167 85 -33.5s30 -52.166 30 -89.499s-10 -67.166 -30 -89.499s-48.333 -33.5 -85 -33.5z" />
    <glyph glyph-name="uni062A" unicode="&#x62a;" horiz-adv-x="1593" arabic-form="isolated" 
d="M516 0c-118 0 -211.334 35.5039 -280.001 106.504s-103 167.833 -103 290.5c0 45.333 4.83301 97.666 14.5 156.999s21.834 109.666 36.501 150.999h164c-20.667 -98.667 -31 -196.334 -31 -293.001c0 -74.667 17.667 -135.334 53 -182.001s82 -70 140 -70h735v833h174
v-993h-903zM597.999 994.004c-32 0 -59.1689 9.66797 -81.502 29.001s-33.5 50.666 -33.5 93.999s11.167 74.666 33.5 93.999s49.5 29 81.5 29c34.667 0 62.334 -10.5 83.001 -31.5s31 -51.5 31 -91.5c0 -39.333 -10.167 -69.666 -30.5 -90.999s-48.166 -32 -83.499 -32z
M951.997 994.005c-35.333 0 -63.333 10.667 -84 32s-31 51.666 -31 90.999s10.167 69.666 30.5 90.999s48.5 32 84.5 32c36.667 0 65 -11.167 85 -33.5s30 -52.166 30 -89.499s-10 -67.166 -30 -89.499s-48.333 -33.5 -85 -33.5z" />
    <glyph glyph-name="uni062B" unicode="&#x62b;" horiz-adv-x="1593" arabic-form="isolated" 
d="M516 0c-118 0 -211.334 35.5039 -280.001 106.504s-103 167.833 -103 290.5c0 45.333 4.83301 97.666 14.5 156.999s21.834 109.666 36.501 150.999h164c-20.667 -98.667 -31 -196.334 -31 -293.001c0 -74.667 17.667 -135.334 53 -182.001s82 -70 140 -70h735v833h174
v-993h-903zM790.999 1272c-30.667 0 -56 8.83301 -76 26.5s-30 46.5 -30 86.5c0 39.333 10 68 30 86s45.333 27 76 27c28.667 0 53.5 -9.16699 74.5 -27.5s31.5 -46.833 31.5 -85.5c0 -40 -10.5 -68.833 -31.5 -86.5s-45.833 -26.5 -74.5 -26.5zM614.999 996.004
c-32 0 -59.167 9.66699 -81.5 29s-33.5 50.666 -33.5 93.999s11.167 74.666 33.5 93.999s49.5 29 81.5 29c36.667 0 65 -11.167 85 -33.5s30 -52.166 30 -89.499s-10 -67.166 -30 -89.499s-48.333 -33.5 -85 -33.5zM968.999 996.004c-35.333 0 -63.333 10.667 -84 32
s-31 51.666 -31 90.999s10.167 69.666 30.5 90.999s48.5 32 84.5 32c36.667 0 65 -11.167 85 -33.5s30 -52.166 30 -89.499s-10 -67.166 -30 -89.499s-48.333 -33.5 -85 -33.5z" />
    <glyph glyph-name="uni062C" unicode="&#x62c;" horiz-adv-x="1319" arabic-form="isolated" 
d="M1077 25c-36.667 29.333 -67.9941 57.667 -93.9941 85s-48.667 59 -68 95c-228.667 -62 -391.834 -129 -489.501 -201s-146.5 -155.333 -146.5 -250c0 -87.333 25.333 -151.5 76 -192.5s129.667 -61.5 237 -61.5c68.667 0 169 11 301 33l22 -141
c-96.667 -20.667 -173.334 -34 -230.001 -40s-112.334 -9 -167.001 -9c-132 0 -236 34.5 -312 103.5s-114 166.167 -114 291.5c0 86 25 165 75 237s128.667 137.833 236 197.5s259.666 118.834 456.999 177.501c-10.667 36 -23.667 97.667 -39 185
c-18 108 -51.5 188.167 -100.5 240.5s-115.167 78.5 -198.5 78.5c-48.667 0 -107.334 -9.83301 -176.001 -29.5s-129.334 -43.834 -182.001 -72.501l-72 141c52.667 34 118.667 62.667 198 86s157.333 35 234 35c261.333 0 414.333 -144 459 -432
c16.667 -106.667 41 -193.5 73 -260.5s75.333 -118.833 130 -155.5zM614.006 -348.999c-35.333 0 -63.333 10.667 -84 32s-31 51.666 -31 90.999s10.167 69.666 30.5 90.999s48.5 32 84.5 32c36.667 0 65 -11.167 85 -33.5s30 -52.166 30 -89.499s-10 -67.166 -30 -89.499
s-48.333 -33.5 -85 -33.5z" />
    <glyph glyph-name="uni062D" unicode="&#x62d;" horiz-adv-x="1319" arabic-form="isolated" 
d="M1077 25c-36.667 29.333 -67.9941 57.667 -93.9941 85s-48.667 59 -68 95c-228.667 -62 -391.834 -129 -489.501 -201s-146.5 -155.333 -146.5 -250c0 -87.333 25.333 -151.5 76 -192.5s129.667 -61.5 237 -61.5c68.667 0 169 11 301 33l22 -141
c-96.667 -20.667 -173.334 -34 -230.001 -40s-112.334 -9 -167.001 -9c-132 0 -236 34.5 -312 103.5s-114 166.167 -114 291.5c0 86 25 165 75 237s128.667 137.833 236 197.5s259.666 118.834 456.999 177.501c-10.667 36 -23.667 97.667 -39 185
c-18 108 -51.5 188.167 -100.5 240.5s-115.167 78.5 -198.5 78.5c-48.667 0 -107.334 -9.83301 -176.001 -29.5s-129.334 -43.834 -182.001 -72.501l-72 141c52.667 34 118.667 62.667 198 86s157.333 35 234 35c261.333 0 414.333 -144 459 -432
c16.667 -106.667 41 -193.5 73 -260.5s75.333 -118.833 130 -155.5z" />
    <glyph glyph-name="uni062E" unicode="&#x62e;" horiz-adv-x="1319" arabic-form="isolated" 
d="M1077 25c-36.667 29.333 -67.9941 57.667 -93.9941 85s-48.667 59 -68 95c-228.667 -62 -391.834 -129 -489.501 -201s-146.5 -155.333 -146.5 -250c0 -87.333 25.333 -151.5 76 -192.5s129.667 -61.5 237 -61.5c68.667 0 169 11 301 33l22 -141
c-96.667 -20.667 -173.334 -34 -230.001 -40s-112.334 -9 -167.001 -9c-132 0 -236 34.5 -312 103.5s-114 166.167 -114 291.5c0 86 25 165 75 237s128.667 137.833 236 197.5s259.666 118.834 456.999 177.501c-10.667 36 -23.667 97.667 -39 185
c-18 108 -51.5 188.167 -100.5 240.5s-115.167 78.5 -198.5 78.5c-48.667 0 -107.334 -9.83301 -176.001 -29.5s-129.334 -43.834 -182.001 -72.501l-72 141c52.667 34 118.667 62.667 198 86s157.333 35 234 35c261.333 0 414.333 -144 459 -432
c16.667 -106.667 41 -193.5 73 -260.5s75.333 -118.833 130 -155.5zM506.006 1188c-35.333 0 -63.333 10.667 -84 32s-31 51.666 -31 90.999s10.167 69.666 30.5 90.999s48.5 32 84.5 32c36.667 0 65 -11.167 85 -33.5s30 -52.166 30 -89.499s-10 -67.166 -30 -89.499
s-48.333 -33.5 -85 -33.5z" />
    <glyph glyph-name="uni062F" unicode="&#x62f;" horiz-adv-x="1042" arabic-form="isolated" 
d="M92 160h681.999c-26.667 183.333 -77.667 339.5 -153 468.5s-182.666 240.5 -321.999 334.5l66 155c157.333 -82 285.5 -203.667 384.5 -365s165.833 -360.333 200.5 -597v-156h-858v160z" />
    <glyph glyph-name="uni0630" unicode="&#x630;" horiz-adv-x="1042" arabic-form="isolated" 
d="M92 160h681.999c-26.667 183.333 -77.667 339.5 -153 468.5s-182.666 240.5 -321.999 334.5l66 155c157.333 -82 285.5 -203.667 384.5 -365s165.833 -360.333 200.5 -597v-156h-858v160zM370.999 1307c-35.333 0 -63.333 10.667 -84 32s-31 51.666 -31 90.999
s10.167 69.666 30.5 90.999s48.5 32 84.5 32c36.667 0 65 -11.167 85 -33.5s30 -52.166 30 -89.499s-10 -67.166 -30 -89.499s-48.333 -33.5 -85 -33.5z" />
    <glyph glyph-name="uni0631" unicode="&#x631;" horiz-adv-x="666" arabic-form="isolated" 
d="M127 -492c-65.333 0 -134.998 19.333 -208.998 58l53 137c33.333 -14.667 60.666 -24.167 81.999 -28.5s44.666 -6.5 69.999 -6.5c61.333 0 109.333 25 144 75s52 116 52 198v1052h173v-1042c0 -138 -31.333 -246.333 -94 -325s-153 -118 -271 -118z" />
    <glyph glyph-name="uni0632" unicode="&#x632;" horiz-adv-x="666" arabic-form="isolated" 
d="M127 -492c-65.333 0 -134.998 19.333 -208.998 58l53 137c33.333 -14.667 60.666 -24.167 81.999 -28.5s44.666 -6.5 69.999 -6.5c61.333 0 109.333 25 144 75s52 116 52 198v1052h173v-1042c0 -138 -31.333 -246.333 -94 -325s-153 -118 -271 -118zM395.002 1188
c-35.333 0 -63.333 10.667 -84 32s-31 51.666 -31 90.999s10.167 69.666 30.5 90.999s48.5 32 84.5 32c36.667 0 65 -11.167 85 -33.5s30 -52.166 30 -89.499s-10 -67.166 -30 -89.499s-48.333 -33.5 -85 -33.5z" />
    <glyph glyph-name="uni0633" unicode="&#x633;" horiz-adv-x="2544" arabic-form="isolated" 
d="M2071 0c-61.333 0 -117.834 10.167 -169.501 30.5s-105.167 57.166 -160.5 110.499c-31.333 -42 -72 -76 -122 -102s-109 -39 -177 -39h-240c0 -161.333 -41 -283.666 -123 -366.999s-211 -125 -387 -125h-147c-126.667 0 -227 46.667 -301 140
s-111 221.666 -111 384.999c0 84 7.33301 169.167 22 255.5s35.334 162.166 62.001 227.499h170c-46.667 -118 -70 -279 -70 -483c0 -116.667 23.333 -206.667 70 -270s112.334 -95 197.001 -95h100c118.667 0 205.667 27 261 81s83 135.667 83 245v840h174v-674h221
c66 0 117.333 21.833 154 65.5s55 100.834 55 171.501v437h174v-492l-2 -23c34 -59.333 71.667 -100.666 113 -123.999s92.666 -35 153.999 -35h124v833h175v-993h-299z" />
    <glyph glyph-name="uni0634" unicode="&#x634;" horiz-adv-x="2544" arabic-form="isolated" 
d="M2071 0c-61.333 0 -117.834 10.167 -169.501 30.5s-105.167 57.166 -160.5 110.499c-31.333 -42 -72 -76 -122 -102s-109 -39 -177 -39h-240c0 -161.333 -41 -283.666 -123 -366.999s-211 -125 -387 -125h-147c-126.667 0 -227 46.667 -301 140
s-111 221.666 -111 384.999c0 84 7.33301 169.167 22 255.5s35.334 162.166 62.001 227.499h170c-46.667 -118 -70 -279 -70 -483c0 -116.667 23.333 -206.667 70 -270s112.334 -95 197.001 -95h100c118.667 0 205.667 27 261 81s83 135.667 83 245v840h174v-674h221
c66 0 117.333 21.833 154 65.5s55 100.834 55 171.501v437h174v-492l-2 -23c34 -59.333 71.667 -100.666 113 -123.999s92.666 -35 153.999 -35h124v833h175v-993h-299zM1706 1464c-30.667 0 -56 8.83301 -76 26.5s-30 46.5 -30 86.5c0 39.333 10 68 30 86s45.333 27 76 27
c28.667 0 53.5 -9.16699 74.5 -27.5s31.5 -46.833 31.5 -85.5c0 -40 -10.5 -68.833 -31.5 -86.5s-45.833 -26.5 -74.5 -26.5zM1530 1188c-32 0 -59.167 9.66699 -81.5 29s-33.5 50.666 -33.5 93.999s11.167 74.666 33.5 93.999s49.5 29 81.5 29
c36.667 0 65 -11.167 85 -33.5s30 -52.166 30 -89.499s-10 -67.166 -30 -89.499s-48.333 -33.5 -85 -33.5zM1884 1188c-35.333 0 -63.333 10.667 -84 32s-31 51.666 -31 90.999s10.167 69.666 30.5 90.999s48.5 32 84.5 32c36.667 0 65 -11.167 85 -33.5
s30 -52.166 30 -89.499s-10 -67.166 -30 -89.499s-48.333 -33.5 -85 -33.5z" />
    <glyph glyph-name="uni0635" unicode="&#x635;" horiz-adv-x="2392" arabic-form="isolated" 
d="M545 -492c-126.667 0 -227.003 46.668 -301.003 140.001s-111 221.666 -111 384.999c0 84 7.33301 169.167 22 255.5s35.334 162.166 62.001 227.499h170c-46.667 -118 -70 -279 -70 -483c0 -116.667 23.333 -206.667 70 -270s112.334 -95 197.001 -95h100
c118.667 0 205.667 27 261 81s83 135.667 83 245v999h174v-440c64 152.667 144.333 267.667 241 345s205.334 116 326.001 116c154.667 0 271.5 -42 350.5 -126s118.5 -215.333 118.5 -394v-494h-1036c0 -165.333 -41 -288.666 -123 -369.999s-211 -122 -387 -122h-147z
M2064 160.001v325c0 126 -27.333 218.667 -82 278s-137.667 89 -249 89c-211.333 0 -388.333 -173.333 -531 -520v-172h862z" />
    <glyph glyph-name="uni0636" unicode="&#x636;" horiz-adv-x="2392" arabic-form="isolated" 
d="M545 -492c-126.667 0 -227.003 46.668 -301.003 140.001s-111 221.666 -111 384.999c0 84 7.33301 169.167 22 255.5s35.334 162.166 62.001 227.499h170c-46.667 -118 -70 -279 -70 -483c0 -116.667 23.333 -206.667 70 -270s112.334 -95 197.001 -95h100
c118.667 0 205.667 27 261 81s83 135.667 83 245v999h174v-440c64 152.667 144.333 267.667 241 345s205.334 116 326.001 116c154.667 0 271.5 -42 350.5 -126s118.5 -215.333 118.5 -394v-494h-1036c0 -165.333 -41 -288.666 -123 -369.999s-211 -122 -387 -122h-147z
M2064 160.001v325c0 126 -27.333 218.667 -82 278s-137.667 89 -249 89c-211.333 0 -388.333 -173.333 -531 -520v-172h862zM1726 1188c-35.333 0 -63.333 10.667 -84 32s-31 51.666 -31 90.999s10.167 69.666 30.5 90.999s48.5 32 84.5 32c36.667 0 65 -11.167 85 -33.5
s30 -52.166 30 -89.499s-10 -67.166 -30 -89.499s-48.333 -33.5 -85 -33.5z" />
    <glyph glyph-name="uni0637" unicode="&#x637;" horiz-adv-x="1645" arabic-form="isolated" 
d="M51 0c-6.66699 0 -10.001 3.33301 -10.001 10v142c0 5.33301 3.33301 8 10 8h250v1396h174v-1003c64 152.667 144.333 267.667 241 345s205.334 116 326.001 116c154.667 0 271.5 -42 350.5 -126s118.5 -215.333 118.5 -394v-494h-1460zM1337 160l-0.000976562 325
c0 126 -27.333 218.667 -82 278s-137.667 89 -249 89c-103.333 0 -199.666 -43.5 -288.999 -130.5s-170 -218.167 -242 -393.5v-168h862z" />
    <glyph glyph-name="uni0638" unicode="&#x638;" horiz-adv-x="1645" arabic-form="isolated" 
d="M51 0c-6.66699 0 -10.001 3.33301 -10.001 10v142c0 5.33301 3.33301 8 10 8h250v1396h174v-1003c64 152.667 144.333 267.667 241 345s205.334 116 326.001 116c154.667 0 271.5 -42 350.5 -126s118.5 -215.333 118.5 -394v-494h-1460zM1337 160l-0.000976562 325
c0 126 -27.333 218.667 -82 278s-137.667 89 -249 89c-103.333 0 -199.666 -43.5 -288.999 -130.5s-170 -218.167 -242 -393.5v-168h862zM998.998 1188c-35.333 0 -63.333 10.667 -84 32s-31 51.666 -31 90.999s10.167 69.666 30.5 90.999s48.5 32 84.5 32
c36.667 0 65 -11.167 85 -33.5s30 -52.166 30 -89.499s-10 -67.166 -30 -89.499s-48.333 -33.5 -85 -33.5z" />
    <glyph glyph-name="uni0639" unicode="&#x639;" horiz-adv-x="1096" arabic-form="isolated" 
d="M559 -657c-132 0 -235.999 34.501 -311.999 103.501s-114 166.167 -114 291.5c0 151.333 88 285.666 264 402.999c-121.333 106 -182 242 -182 408c0 94.667 21.667 177 65 247s103.5 123.833 180.5 161.5s163.167 56.5 258.5 56.5
c58.667 0 112.834 -5.83301 162.501 -17.5s90.5 -25.834 122.5 -42.501l-56 -153c-84.667 35.333 -164.334 53 -239.001 53c-98 0 -173.833 -26.167 -227.5 -78.5s-80.5 -127.166 -80.5 -224.499c0 -70.667 11.167 -135.5 33.5 -194.5s52.833 -105.5 91.5 -139.5
c114 56.667 231.667 103 353 139l49 -151c-120.667 -30 -229.167 -69.5 -325.5 -118.5s-167.666 -101.5 -213.999 -157.5s-69.5 -114.333 -69.5 -175c0 -88 25.667 -152.333 77 -193s130.333 -61 237 -61c68.667 0 169 11 301 33l22 -141
c-96.667 -20.667 -173.334 -34 -230.001 -40s-112.334 -9 -167.001 -9z" />
    <glyph glyph-name="uni063A" unicode="&#x63a;" horiz-adv-x="1096" arabic-form="isolated" 
d="M559 -657c-132 0 -235.999 34.501 -311.999 103.501s-114 166.167 -114 291.5c0 151.333 88 285.666 264 402.999c-121.333 106 -182 242 -182 408c0 94.667 21.667 177 65 247s103.5 123.833 180.5 161.5s163.167 56.5 258.5 56.5
c58.667 0 112.834 -5.83301 162.501 -17.5s90.5 -25.834 122.5 -42.501l-56 -153c-84.667 35.333 -164.334 53 -239.001 53c-98 0 -173.833 -26.167 -227.5 -78.5s-80.5 -127.166 -80.5 -224.499c0 -70.667 11.167 -135.5 33.5 -194.5s52.833 -105.5 91.5 -139.5
c114 56.667 231.667 103 353 139l49 -151c-120.667 -30 -229.167 -69.5 -325.5 -118.5s-167.666 -101.5 -213.999 -157.5s-69.5 -114.333 -69.5 -175c0 -88 25.667 -152.333 77 -193s130.333 -61 237 -61c68.667 0 169 11 301 33l22 -141
c-96.667 -20.667 -173.334 -34 -230.001 -40s-112.334 -9 -167.001 -9zM625.001 1188c-35.333 0 -63.333 10.667 -84 32s-31 51.666 -31 90.999s10.167 69.666 30.5 90.999s48.5 32 84.5 32c36.667 0 65 -11.167 85 -33.5s30 -52.166 30 -89.499s-10 -67.166 -30 -89.499
s-48.333 -33.5 -85 -33.5z" />
    <glyph glyph-name="uni0641" unicode="&#x641;" horiz-adv-x="2073" arabic-form="isolated" 
d="M516 0c-118 0 -211.333 35.5029 -280 106.503s-103 167.833 -103 290.5c0 45.333 4.83301 97.666 14.5 156.999s21.834 109.666 36.501 150.999h164c-20.667 -98.667 -31 -196.334 -31 -293.001c0 -74.667 17.667 -135.334 53 -182.001s82 -70 140 -70h666
c-32 34.667 -57.833 80.334 -77.5 137.001s-29.5 114 -29.5 172c0 160 50.167 287.333 150.5 382s237.166 142 410.499 142h268v-993h-1382zM1724 160.003v673.999h-88c-121.333 0 -215.833 -31.667 -283.5 -95s-101.5 -152.666 -101.5 -267.999
c0 -207.333 93.667 -311 281 -311h192zM1511 1188c-35.333 0 -63.333 10.667 -84 32s-31 51.666 -31 90.999s10.167 69.666 30.5 90.999s48.5 32 84.5 32c36.667 0 65 -11.167 85 -33.5s30 -52.166 30 -89.499s-10 -67.166 -30 -89.499s-48.333 -33.5 -85 -33.5z" />
    <glyph glyph-name="uni0642" unicode="&#x642;" horiz-adv-x="1794" arabic-form="isolated" 
d="M618 -492c-150 0 -268.333 44.332 -355 132.999s-130 209 -130 361c0 174 28 335 84 483h170c-46.667 -130.667 -70 -287.667 -70 -471c0 -110.667 29.5 -196 88.5 -256s142.167 -90 249.5 -90h414c133.333 0 229.5 25.833 288.5 77.5s88.5 131.834 88.5 240.501v14h-189
c-151.333 0 -266.833 40 -346.5 120s-119.5 195.667 -119.5 347c0 162 51 290.167 153 384.5s238 141.5 408 141.5h268v-1005c0 -320 -172.667 -480 -518 -480h-484zM1446 159.999v674.001h-88c-121.333 0 -215.833 -32 -283.5 -96s-101.5 -153.667 -101.5 -269
c0 -106.667 23.167 -184.834 69.5 -234.501s116.5 -74.5 210.5 -74.5h193zM1100 1188c-32 0 -59.1689 9.66797 -81.502 29.001s-33.5 50.666 -33.5 93.999s11.167 74.666 33.5 93.999s49.5 29 81.5 29c34.667 0 62.334 -10.5 83.001 -31.5s31 -51.5 31 -91.5
c0 -39.333 -10.167 -69.666 -30.5 -90.999s-48.166 -32 -83.499 -32zM1454 1188c-35.333 0 -63.333 10.667 -84 32s-31 51.666 -31 90.999s10.167 69.666 30.5 90.999s48.5 32 84.5 32c36.667 0 65 -11.167 85 -33.5s30 -52.166 30 -89.499s-10 -67.166 -30 -89.499
s-48.333 -33.5 -85 -33.5z" />
    <glyph glyph-name="uni0643" unicode="&#x643;" horiz-adv-x="1624" arabic-form="isolated" 
d="M586 731l96 14c-48 31.333 -72 74.333 -72 129c0 58 19 103.333 57 136s88.667 49 152 49c50.667 0 95.667 -10.333 135 -31l-30 -92c-28.667 16.667 -63 25 -103 25c-30 0 -55.167 -8.5 -75.5 -25.5s-30.5 -43.5 -30.5 -79.5c0 -23.333 5.83301 -43.166 17.5 -59.499
s26.167 -28.5 43.5 -36.5c16 3.33301 49.333 8.5 100 15.5s85.667 10.5 105 10.5v-100c-11.333 0 -41.333 -2.5 -90 -7.5s-84.667 -9.16699 -108 -12.5c-118 -16.667 -183.667 -26.334 -197 -29.001v94zM516 0c-124 0 -218.833 31.666 -284.5 94.999s-98.5 154 -98.5 272
c0 90.667 17 182.667 51 276h154c-20.667 -97.333 -31 -184.666 -31 -261.999c0 -68.667 18.167 -122.667 54.5 -162s85.833 -59 148.5 -59h735v1396h174v-1556h-903z" />
    <glyph glyph-name="uni0644" unicode="&#x644;" horiz-adv-x="1407" arabic-form="isolated" 
d="M545 -492c-126.667 0 -227.002 46.6689 -301.002 140.002s-111 221.666 -111 384.999c0 84 7.33301 169.167 22 255.5s35.334 162.166 62.001 227.499h170c-46.667 -118 -70 -279 -70 -483c0 -116.667 23.333 -206.667 70 -270s112.334 -95 197.001 -95h100
c118.667 0 205.667 27 261 81s83 135.667 83 245v1562h174v-1548c0 -165.333 -41 -290 -123 -374s-211 -126 -387 -126h-147z" />
    <glyph glyph-name="uni0645" unicode="&#x645;" horiz-adv-x="1329" arabic-form="isolated" 
d="M451 0c-97.333 0 -146.002 -49.999 -146.002 -149.999v-505h-172v536c0 59.333 11 109.666 33 150.999s51.833 73 89.5 95s80.167 33 127.5 33h14c-50 130 -75 246.667 -75 350c0 121.333 24.333 230 73 326c50.667 42 108.334 75.333 173.001 100s132 37 202 37
c85.333 0 160.333 -18.833 225 -56.5s114.334 -91.167 149.001 -160.5s52 -148 52 -236c0 -107.333 -19.5 -200 -58.5 -278s-94 -137.833 -165 -179.5s-152.167 -62.5 -243.5 -62.5h-278zM505.998 545.001c0 -63.333 5.49902 -125.499 16.499 -186.499
s31.5 -127.167 61.5 -198.5h145c91.333 0 161.333 31 210 93s73 151.667 73 269c0 86 -23.5 156.333 -70.5 211s-104.167 82 -171.5 82c-86 0 -166 -28 -240 -84c-11.333 -28.667 -18.166 -57.834 -20.499 -87.501s-3.5 -62.5 -3.5 -98.5z" />
    <glyph glyph-name="uni0646" unicode="&#x646;" horiz-adv-x="1376" arabic-form="isolated" 
d="M545 -492c-128 0 -228.667 44.333 -302 133s-110 209 -110 361c0 163.333 28 314.333 84 453h170c-46.667 -118 -70 -265 -70 -441c0 -110.667 23 -196 69 -256s112 -90 198 -90h100c118.667 0 205.667 27 261 81s83 135.667 83 245v999h174v-985
c0 -165.333 -41 -290 -123 -374s-211 -126 -387 -126h-147zM672 994c-35.333 0 -63.333 10.667 -84 32s-31 51.666 -31 90.999s10.167 69.666 30.5 90.999s48.5 32 84.5 32c36.667 0 65 -11.167 85 -33.5s30 -52.166 30 -89.499s-10 -67.166 -30 -89.499
s-48.333 -33.5 -85 -33.5z" />
    <glyph glyph-name="uni0647" unicode="&#x647;" horiz-adv-x="1223" arabic-form="isolated" 
d="M608 -20c-150.667 0 -267.503 41.166 -350.503 123.499s-124.5 199.5 -124.5 351.5c0 100 20.833 193.333 62.5 280s99.334 154.834 173.001 204.501s155.5 74.5 245.5 74.5c84.667 0 163.834 -25.5 237.501 -76.5s131.834 -120.5 174.501 -208.5s64 -179.333 64 -274
c0 -154.667 -40.5 -272.5 -121.5 -353.5s-201.167 -121.5 -360.5 -121.5zM611.997 136.999c195.333 0 293 105.333 293 316c0 124 -26 222.167 -78 294.5s-124.333 108.5 -217 108.5c-83.333 0 -153 -37.333 -209 -112s-84 -171.667 -84 -291
c0 -210.667 98.333 -316 295 -316z" />
    <glyph glyph-name="uni0648" unicode="&#x648;" horiz-adv-x="1149" arabic-form="isolated" 
d="M502 -492c-139.333 0 -262.335 34.999 -369.002 104.999l82 137c44 -23.333 89.333 -42.833 136 -58.5s98.334 -23.5 155.001 -23.5c92.667 0 165.334 24.833 218.001 74.5s79 115.834 79 198.501v59h-201c-145.333 0 -257.833 40 -337.5 120s-119.5 195.667 -119.5 347
c0 160.667 51 288.5 153 383.5s238.333 142.5 409 142.5h268v-1042c0 -139.333 -41.167 -248 -123.5 -326s-198.833 -117 -349.5 -117zM800.998 159.999v674.001h-88c-121.333 0 -215.833 -32 -283.5 -96s-101.5 -153.667 -101.5 -269
c0 -106.667 23.167 -184.834 69.5 -234.501s116.5 -74.5 210.5 -74.5h193z" />
    <glyph glyph-name="uni0649" unicode="&#x649;" horiz-adv-x="1718" arabic-form="isolated" 
d="M545 -492c-128 0 -228.669 44.3369 -302.002 133.004s-110 209 -110 361c0 71.333 5.83301 135.666 17.5 192.999s29.834 116 54.501 176h170c-15.333 -38 -27.166 -74.5 -35.499 -109.5s-14.166 -68.833 -17.499 -101.5s-5 -81.334 -5 -146.001
c0 -110.667 23 -196 69 -256s112 -90 198 -90h401c104.667 0 187.5 19 248.5 57s91.5 88.667 91.5 152c0 25.333 -8.66699 50 -26 74s-40.666 47.667 -69.999 71s-79.333 56.333 -150 99c-82 48.667 -139.333 87.167 -172 115.5s-57.5 57.666 -74.5 87.999
s-25.5 63.5 -25.5 99.5c0 81.333 30.167 167.166 90.5 257.499s135.166 164.833 224.499 223.5s176 88 260 88c32.667 0 78.5 -9.33301 137.5 -28s101.5 -36.667 127.5 -54l-74 -137c-20 10 -48.5 18.333 -85.5 25s-69.833 10 -98.5 10c-46 0 -99.5 -18.667 -160.5 -56
s-112.667 -83.333 -155 -138s-63.5 -106.667 -63.5 -156c0 -46 51 -100 153 -162c100.667 -61.333 172.167 -112 214.5 -152s75.166 -83.167 98.499 -129.5s35 -93.833 35 -142.5c0 -114 -45.667 -203.333 -137 -268s-221 -97 -389 -97h-440z" />
    <glyph glyph-name="uni064A" unicode="&#x64a;" horiz-adv-x="1718" arabic-form="isolated" 
d="M545 -492c-128 0 -228.669 44.3369 -302.002 133.004s-110 209 -110 361c0 71.333 5.83301 135.666 17.5 192.999s29.834 116 54.501 176h170c-15.333 -38 -27.166 -74.5 -35.499 -109.5s-14.166 -68.833 -17.499 -101.5s-5 -81.334 -5 -146.001
c0 -110.667 23 -196 69 -256s112 -90 198 -90h401c104.667 0 187.5 19 248.5 57s91.5 88.667 91.5 152c0 25.333 -8.66699 50 -26 74s-40.666 47.667 -69.999 71s-79.333 56.333 -150 99c-82 48.667 -139.333 87.167 -172 115.5s-57.5 57.666 -74.5 87.999
s-25.5 63.5 -25.5 99.5c0 81.333 30.167 167.166 90.5 257.499s135.166 164.833 224.499 223.5s176 88 260 88c32.667 0 78.5 -9.33301 137.5 -28s101.5 -36.667 127.5 -54l-74 -137c-20 10 -48.5 18.333 -85.5 25s-69.833 10 -98.5 10c-46 0 -99.5 -18.667 -160.5 -56
s-112.667 -83.333 -155 -138s-63.5 -106.667 -63.5 -156c0 -46 51 -100 153 -162c100.667 -61.333 172.167 -112 214.5 -152s75.166 -83.167 98.499 -129.5s35 -93.833 35 -142.5c0 -114 -45.667 -203.333 -137 -268s-221 -97 -389 -97h-440zM607.998 -900.996
c-32 0 -59.1689 9.66797 -81.502 29.001s-33.5 50.666 -33.5 93.999s11.167 74.666 33.5 93.999s49.5 29 81.5 29c34.667 0 62.334 -10.5 83.001 -31.5s31 -51.5 31 -91.5c0 -39.333 -10.167 -69.666 -30.5 -90.999s-48.166 -32 -83.499 -32zM961.996 -900.995
c-35.333 0 -63.333 10.667 -84 32s-31 51.666 -31 90.999s10.167 69.666 30.5 90.999s48.5 32 84.5 32c36.667 0 65 -11.167 85 -33.5s30 -52.166 30 -89.499s-10 -67.166 -30 -89.499s-48.333 -33.5 -85 -33.5z" />
    <glyph glyph-name="uni066E.init" unicode="&#x66e;" horiz-adv-x="616" 
d="M-10 0c-6.66699 0 -10 3.33301 -10 10v142c0 5.33301 3.33301 8 10 8h270v833h182v-993h-452z" />
    <glyph glyph-name="uni066E.medi" unicode="&#x66e;" horiz-adv-x="698" 
d="M-10 0c-6.66699 0 -10 3.33301 -10 10v142c0 5.33301 3.33301 8 10 8h270v833h182v-833h267c6.66699 0 10 -2.66699 10 -8v-142c0 -6.66699 -3.33301 -10 -10 -10h-719z" />
    <glyph glyph-name="uni066E.fina" unicode="&#x66e;" horiz-adv-x="1681" 
d="M516 0c-118 0 -211.334 35.5039 -280.001 106.504s-103 167.833 -103 290.5c0 45.333 4.83301 97.666 14.5 156.999s21.834 109.666 36.501 150.999h164c-20.667 -98.667 -31 -196.334 -31 -293.001c0 -74.667 17.667 -135.334 53 -182.001s82 -70 140 -70h735v833h174
v-833h273c6.66699 0 10 -2.66699 10 -8v-142c0 -6.66699 -3.33301 -10 -10 -10h-1176z" />
    <glyph glyph-name="uni066F.init" unicode="&#x66f;" horiz-adv-x="1198" 
d="M850 160v673.999h-88c-121.333 0 -215.833 -31.667 -283.5 -95s-101.5 -152.666 -101.5 -267.999c0 -207.333 93.333 -311 280 -311h193zM-10 -0.000976562c-6.66699 0 -9.99902 3.33301 -9.99902 10v142c0 5.33301 3.33301 8 10 8h311c-34.667 39.333 -61 87 -79 143
s-27 111.333 -27 166c0 160 50.167 287.333 150.5 382s237.166 142 410.499 142h268v-993h-1034z" />
    <glyph glyph-name="uni066F.medi" unicode="&#x66f;" horiz-adv-x="1231" 
d="M850 160v674h-88c-122 0 -216.667 -32.167 -284 -96.5s-101 -153.833 -101 -268.5c0 -206 93.333 -309 280 -309h193zM-10 0c-6.66699 0 -10 3.33301 -10 10v142c0 5.33301 3.33301 8 10 8h311c-34.667 39.333 -61 87 -79 143s-27 111.333 -27 166
c0 162.667 50.5 290.667 151.5 384s237.5 140 409.5 140h268v-833h217c4 0 7 -1.66699 9 -5l1 -5v-142c0 -5.33301 -3.33301 -8 -10 -8h-1251z" />
    <glyph glyph-name="uni066F.fina" unicode="&#x66f;" horiz-adv-x="1835" 
d="M1446 160v674.001h-88c-121.333 0 -215.833 -32 -283.5 -96s-101.5 -153.667 -101.5 -269c0 -106.667 23.167 -184.834 69.5 -234.501s116.5 -74.5 210.5 -74.5h193zM1845 160.001c6.66699 0 10 -2.66797 10 -8.00098v-142c0 -6.66699 -3.33301 -10 -10 -10h-225v-12
c0 -320 -172.667 -480 -518 -480h-484c-150 0 -268.333 44.333 -355 133s-130 209 -130 361c0 174 28 335 84 483h170c-46.667 -130.667 -70 -287.667 -70 -471c0 -110.667 29.5 -196 88.5 -256s142.167 -90 249.5 -90h414c133.333 0 229.5 25.833 288.5 77.5
s88.5 131.834 88.5 240.501v14h-189c-151.333 0 -266.833 40 -346.5 120s-119.5 195.667 -119.5 347c0 162 51 290.167 153 384.5s238 141.5 408 141.5h268v-833h225z" />
    <glyph glyph-name="uni0671" unicode="&#x671;" horiz-adv-x="592" arabic-form="isolated" 
d="M205 1434h182v-1434h-182v1434zM27 1671h94c48 139.333 124.333 209 229 209c56.667 0 100.167 -18.333 130.5 -55s45.5 -88 45.5 -154v-94h-499v94zM422 1671c0 40 -5.83203 68.833 -17.499 86.5s-29.834 26.5 -54.501 26.5c-24 0 -46.833 -10.667 -68.5 -32
s-37.5 -48.333 -47.5 -81h188z" />
    <glyph glyph-name="uni0672.fina" unicode="&#x672;" horiz-adv-x="647" 
d="M205 1434h182v-1274h270c7.33301 0 11 -2.66699 11 -8v-142c0 -6.66699 -3.66699 -10 -11 -10h-452v1434zM217 1552c-18 0 -33.833 1.66699 -47.5 5s-26.334 6.83301 -38.001 10.5l-32.5 10.5c-10 3.33301 -20.333 5 -31 5c-30 0 -62.333 -15 -97 -45l-47 43
c29.333 36.667 54 61.167 74 73.5s39 18.5 57 18.5c13.333 0 33 -5 59 -15c26 -10.667 52.333 -16 79 -16c-48 31.333 -72 74.666 -72 129.999c0 58.667 19.167 104 57.5 136s88.833 48 151.5 48c53.333 0 98.333 -10.333 135 -31l-31 -92
c-27.333 16.667 -61.333 25 -102 25c-30 0 -55.333 -8.5 -76 -25.5s-31 -43.5 -31 -79.5c0 -23.333 6 -43.166 18 -59.499s26.667 -28.5 44 -36.5c14.667 1.33301 46.834 5.83301 96.501 13.5s85.834 14.167 108.501 19.5v-101c-20.667 -4.66699 -66.334 -12 -137.001 -22
s-116.667 -15 -138 -15z" />
    <glyph glyph-name="uni0673.fina" unicode="&#x673;" horiz-adv-x="647" 
d="M205 1556h182v-1396h270c7.33301 0 11 -2.66699 11 -8v-142c0 -6.66699 -3.66699 -10 -11 -10h-452v1556zM225 -522c-28 0 -56.3369 5 -85.0039 15c-29.333 10 -50.666 15 -63.999 15c-30 0 -62.333 -15 -97 -45l-47 43c30 38 54.833 63 74.5 75s38.5 18 56.5 18
c13.333 0 33 -5 59 -15c26 -10.667 52.333 -16 79 -16c-19.333 12 -36.166 29 -50.499 51s-21.5 48 -21.5 78c0 57.333 18.5 102.333 55.5 135s88.167 49 153.5 49c53.333 0 98.333 -10.333 135 -31l-31 -92c-27.333 16.667 -61.333 25 -102 25
c-30 0 -55.333 -8.5 -76 -25.5s-31 -43.5 -31 -79.5c0 -43.333 20.667 -75.333 62 -96c14.667 1.33301 46.834 5.83301 96.501 13.5s85.834 14.167 108.501 19.5v-100c-36 -8 -87.5 -16.167 -154.5 -24.5s-107.167 -12.5 -120.5 -12.5z" />
    <glyph glyph-name="uni0675.fina" unicode="&#x675;" horiz-adv-x="647" 
d="M205 1434h182v-1274h270c7.33301 0 11 -2.66699 11 -8v-142c0 -6.66699 -3.66699 -10 -11 -10h-452v1434zM489 1107l97.001 14c-48 31.333 -72 74.666 -72 129.999c0 58.667 19.167 104 57.5 136s88.833 48 151.5 48c53.333 0 98.333 -10.333 135 -31l-31 -92
c-27.333 16.667 -61.333 25 -102 25c-30 0 -55.333 -8.5 -76 -25.5s-31 -43.5 -31 -79.5c0 -23.333 6 -43.166 18 -59.499s26.667 -28.5 44 -36.5c13.333 3.33301 46 8.5 98 15.5s87.667 10.5 107 10.5v-100c-10.667 0 -34.834 -1.83301 -72.501 -5.5
s-107.167 -12.167 -208.5 -25.5l-115 -18v94z" />
    <glyph glyph-name="uni0676.fina" unicode="&#x676;" horiz-adv-x="1133" 
d="M801 160v674.001h-88c-121.333 0 -215.833 -32 -283.5 -96s-101.5 -153.667 -101.5 -269c0 -106.667 23.167 -184.834 69.5 -234.501s116.5 -74.5 210.5 -74.5h193zM975 -48.999c0 -139.333 -41.1689 -248.001 -123.502 -326.001s-198.833 -117 -349.5 -117
c-139.333 0 -262.333 35 -369 105l82 137c44 -23.333 89.333 -42.833 136 -58.5s98.334 -23.5 155.001 -23.5c92.667 0 165.334 24.833 218.001 74.5s79 115.834 79 198.501v59h-201c-145.333 0 -257.833 40 -337.5 120s-119.5 195.667 -119.5 347
c0 160.667 51 288.5 153 383.5s238.333 142.5 409 142.5h268v-833h168c6.66699 0 10 -2.66699 10 -8v-142c0 -6.66699 -3.33301 -10 -10 -10h-168v-49zM781.998 1267l97.001 14c-48 31.333 -72 74.666 -72 129.999c0 58.667 19.167 104 57.5 136s88.833 48 151.5 48
c53.333 0 98.333 -10.333 135 -31l-31 -92c-27.333 16.667 -61.333 25 -102 25c-30 0 -55.333 -8.5 -76 -25.5s-31 -43.5 -31 -79.5c0 -23.333 6 -43.166 18 -59.499s26.667 -28.5 44 -36.5c13.333 3.33301 46 8.5 98 15.5s87.667 10.5 107 10.5v-100
c-10.667 0 -34.834 -1.83301 -72.501 -5.5s-107.167 -12.167 -208.5 -25.5l-115 -18v94z" />
    <glyph glyph-name="uni0677.fina" unicode="&#x677;" horiz-adv-x="1133" 
d="M801 160v674.001h-88c-121.333 0 -215.833 -32 -283.5 -96s-101.5 -153.667 -101.5 -269c0 -106.667 23.167 -184.834 69.5 -234.501s116.5 -74.5 210.5 -74.5h193zM975 -48.999c0 -139.333 -41.1689 -248.001 -123.502 -326.001s-198.833 -117 -349.5 -117
c-139.333 0 -262.333 35 -369 105l82 137c44 -23.333 89.333 -42.833 136 -58.5s98.334 -23.5 155.001 -23.5c92.667 0 165.334 24.833 218.001 74.5s79 115.834 79 198.501v59h-201c-145.333 0 -257.833 40 -337.5 120s-119.5 195.667 -119.5 347
c0 160.667 51 288.5 153 383.5s238.333 142.5 409 142.5h268v-833h168c6.66699 0 10 -2.66699 10 -8v-142c0 -6.66699 -3.33301 -10 -10 -10h-168v-49zM781.998 1267l97.001 14c-48 31.333 -72 74.666 -72 129.999c0 58.667 19.167 104 57.5 136s88.833 48 151.5 48
c53.333 0 98.333 -10.333 135 -31l-31 -92c-27.333 16.667 -61.333 25 -102 25c-30 0 -55.333 -8.5 -76 -25.5s-31 -43.5 -31 -79.5c0 -23.333 6 -43.166 18 -59.499s26.667 -28.5 44 -36.5c13.333 3.33301 46 8.5 98 15.5s87.667 10.5 107 10.5v-100
c-10.667 0 -34.834 -1.83301 -72.501 -5.5s-107.167 -12.167 -208.5 -25.5l-115 -18v94zM196.999 1119c-76 0 -145.669 22.667 -209.002 68l59 86c50.667 -34 99.334 -51 146.001 -51c40 0 74 4.66699 102 14c-43.333 55.333 -65 113.333 -65 174c0 52 17 93.333 51 124
s78.333 46 133 46s97.667 -15.5 129 -46.5s47 -69.5 47 -115.5c0 -48.667 -18.167 -96.5 -54.5 -143.5s-85.166 -84.667 -146.499 -113s-125.333 -42.5 -192 -42.5zM384.997 1271c36 19.333 61.5 41.501 76.5 66.501s22.5 49.167 22.5 72.5c0 21.333 -7 38.666 -21 51.999
s-31.667 20 -53 20c-20.667 0 -38.5 -6.66699 -53.5 -20s-22.5 -34 -22.5 -62c0 -42 17 -85 51 -129z" />
    <glyph glyph-name="uni0678.fina" unicode="&#x678;" horiz-adv-x="1974" 
d="M545 -492c-128 0 -228.673 44.3369 -302.006 133.004s-110 209 -110 361c0 71.333 5.83301 135.666 17.5 192.999s29.834 116 54.501 176h170c-15.333 -38 -27.166 -74.5 -35.499 -109.5s-14.166 -68.833 -17.499 -101.5s-5 -81.334 -5 -146.001
c0 -110.667 23 -196 69 -256s112 -90 198 -90h381c97.333 0 178 18.167 242 54.5s96 79.833 96 130.5c0 28 -12.667 52 -38 72s-63.666 37.333 -114.999 52c-103.333 29.333 -174.166 55 -212.499 77s-67.666 49.333 -87.999 82s-30.5 71.334 -30.5 116.001
c0 78.667 23.5 154.667 70.5 228s107.833 132.833 182.5 178.5s149.334 68.5 224.001 68.5c46 0 86.833 -8.33301 122.5 -25s69.167 -40.834 100.5 -72.501s70.333 -84.167 117 -157.5c58.667 -94.667 102.167 -158.334 130.5 -191.001s52.5 -56.834 72.5 -72.501
s41 -27.667 63 -36s46 -12.5 72 -12.5h11c6.66699 0 10 -2.66699 10 -8v-142c0 -6.66699 -3.33301 -10 -10 -10h-11c-57.333 -0 -112.5 12.833 -165.5 38.5s-107.5 68.167 -163.5 127.5c-16 16.667 -51 63.667 -105 141c-66 93.333 -118.333 156 -157 188s-75 48 -109 48
c-37.333 0 -77.333 -14.333 -120 -43s-78.334 -64.5 -107.001 -107.5s-43 -81.833 -43 -116.5c0 -22.667 12.167 -43 36.5 -61s63.5 -35 117.5 -51c98 -28.667 167.5 -53.667 208.5 -75s72 -46.5 93 -75.5s31.5 -62.167 31.5 -99.5c0 -270.667 -175.333 -406 -526 -406h-420
zM1043.99 980.004l97.001 14c-48 31.333 -72 74.666 -72 129.999c0 58.667 19.167 104 57.5 136s88.833 48 151.5 48c53.333 0 98.333 -10.333 135 -31l-31 -92c-27.333 16.667 -61.333 25 -102 25c-30 0 -55.333 -8.5 -76 -25.5s-31 -43.5 -31 -79.5
c0 -23.333 6 -43.166 18 -59.499s26.667 -28.5 44 -36.5c13.333 3.33301 46 8.5 98 15.5s87.667 10.5 107 10.5v-100c-10.667 0 -34.834 -1.83301 -72.501 -5.5s-107.167 -12.167 -208.5 -25.5l-115 -18v94z" />
    <glyph glyph-name="uni0679" unicode="&#x679;" horiz-adv-x="1593" arabic-form="isolated" 
d="M516 0c-118 0 -211.334 35.5039 -280.001 106.504s-103 167.833 -103 290.5c0 45.333 4.83301 97.666 14.5 156.999s21.834 109.666 36.501 150.999h164c-20.667 -98.667 -31 -196.334 -31 -293.001c0 -74.667 17.667 -135.334 53 -182.001s82 -70 140 -70h735v833h174
v-993h-903zM580.999 1082h31v373h82v-260c16.667 40 37.5 72.167 62.5 96.5s57.5 36.5 97.5 36.5c100.667 0 151 -59.333 151 -178v-156h-424v88zM922.999 1082l-0.000976562 51c0 36 -6 62.833 -18 80.5s-32.333 26.5 -61 26.5c-32 0 -60.167 -10.833 -84.5 -32.5
s-46.166 -56.5 -65.499 -104.5v-21h229z" />
    <glyph glyph-name="uni067A.init" unicode="&#x67a;" horiz-adv-x="616" arabic-form="initial" 
d="M-10 0c-6.66699 0 -10 3.33301 -10 10v142c0 5.33301 3.33301 8 10 8h270v833h182v-993h-452zM340 1188c-35.333 0 -63.333 10.667 -84 32s-31 51.666 -31 90.999s10.167 69.666 30.5 90.999s48.5 32 84.5 32c36.667 0 65 -11.167 85 -33.5s30 -52.166 30 -89.499
s-10 -67.166 -30 -89.499s-48.333 -33.5 -85 -33.5zM340 1559c-35.333 0 -63.333 10.667 -84 32s-31 51.333 -31 90c0 39.333 10.167 69.666 30.5 90.999s48.5 32 84.5 32c36.667 0 65 -11.167 85 -33.5s30 -52.166 30 -89.499c0 -36.667 -10 -66.167 -30 -88.5
s-48.333 -33.5 -85 -33.5z" />
    <glyph glyph-name="uni067A.medi" unicode="&#x67a;" horiz-adv-x="801" arabic-form="medial" 
d="M-10 0c-6.66699 0 -10 3.33301 -10 10v142c0 5.33301 3.33301 8 10 8h332v833h182v-833h307c6.66699 0 10 -2.66699 10 -8v-142c0 -6.66699 -3.33301 -10 -10 -10h-821zM412 1188c-35.333 0 -63.333 10.667 -84 32s-31 51.666 -31 90.999s10.167 69.666 30.5 90.999
s48.5 32 84.5 32c36.667 0 65 -11.167 85 -33.5s30 -52.166 30 -89.499s-10 -67.166 -30 -89.499s-48.333 -33.5 -85 -33.5zM412 1559c-35.333 0 -63.333 10.667 -84 32s-31 51.333 -31 90c0 39.333 10.167 69.666 30.5 90.999s48.5 32 84.5 32
c36.667 0 65 -11.167 85 -33.5s30 -52.166 30 -89.499c0 -36.667 -10 -66.167 -30 -88.5s-48.333 -33.5 -85 -33.5z" />
    <glyph glyph-name="uni067A.fina" unicode="&#x67a;" horiz-adv-x="1681" arabic-form="final" 
d="M516 0c-118 0 -211.334 35.5039 -280.001 106.504s-103 167.833 -103 290.5c0 45.333 4.83301 97.666 14.5 156.999s21.834 109.666 36.501 150.999h164c-20.667 -98.667 -31 -196.334 -31 -293.001c0 -74.667 17.667 -135.334 53 -182.001s82 -70 140 -70h735v833h174
v-833h273c6.66699 0 10 -2.66699 10 -8v-142c0 -6.66699 -3.33301 -10 -10 -10h-1176zM771.999 749.004c-35.333 0 -63.333 10.667 -84 32s-31 51.666 -31 90.999s10.167 69.666 30.5 90.999s48.5 32 84.5 32c36.667 0 65 -11.167 85 -33.5s30 -52.166 30 -89.499
s-10 -67.166 -30 -89.499s-48.333 -33.5 -85 -33.5zM771.999 1120c-35.333 0 -63.333 10.667 -84 32s-31 51.333 -31 90c0 39.333 10.167 69.666 30.5 90.999s48.5 32 84.5 32c36.667 0 65 -11.167 85 -33.5s30 -52.166 30 -89.499c0 -36.667 -10 -66.167 -30 -88.5
s-48.333 -33.5 -85 -33.5z" />
    <glyph glyph-name="uni067B.init" unicode="&#x67b;" horiz-adv-x="616" arabic-form="initial" 
d="M-10 0c-6.66699 0 -10 3.33301 -10 10v142c0 5.33301 3.33301 8 10 8h270v833h182v-993h-452zM340 -780c-35.333 0 -63.333 10.667 -84 32s-31 51.666 -31 90.999c0 38.667 10.333 68.667 31 90s48.667 32 84 32c36 0 64.167 -11 84.5 -33s30.5 -51.667 30.5 -89
s-10 -67.166 -30 -89.499s-48.333 -33.5 -85 -33.5zM340 -410c-35.333 0 -63.333 10.667 -84 32s-31 51.666 -31 90.999s10.167 69.666 30.5 90.999s48.5 32 84.5 32c36.667 0 65 -11.167 85 -33.5s30 -52.166 30 -89.499s-10 -67.166 -30 -89.499s-48.333 -33.5 -85 -33.5z
" />
    <glyph glyph-name="uni067B.medi" unicode="&#x67b;" horiz-adv-x="698" arabic-form="medial" 
d="M-10 0c-6.66699 0 -10 3.33301 -10 10v142c0 5.33301 3.33301 8 10 8h270v833h182v-833h267c6.66699 0 10 -2.66699 10 -8v-142c0 -6.66699 -3.33301 -10 -10 -10h-719zM340 -780c-35.333 0 -63.333 10.667 -84 32s-31 51.666 -31 90.999c0 38.667 10.333 68.667 31 90
s48.667 32 84 32c36 0 64.167 -11 84.5 -33s30.5 -51.667 30.5 -89s-10 -67.166 -30 -89.499s-48.333 -33.5 -85 -33.5zM340 -410c-35.333 0 -63.333 10.667 -84 32s-31 51.666 -31 90.999s10.167 69.666 30.5 90.999s48.5 32 84.5 32c36.667 0 65 -11.167 85 -33.5
s30 -52.166 30 -89.499s-10 -67.166 -30 -89.499s-48.333 -33.5 -85 -33.5z" />
    <glyph glyph-name="uni067B.fina" unicode="&#x67b;" horiz-adv-x="1681" arabic-form="final" 
d="M516 0c-118 0 -211.334 35.5039 -280.001 106.504s-103 167.833 -103 290.5c0 45.333 4.83301 97.666 14.5 156.999s21.834 109.666 36.501 150.999h164c-20.667 -98.667 -31 -196.334 -31 -293.001c0 -74.667 17.667 -135.334 53 -182.001s82 -70 140 -70h735v833h174
v-833h273c6.66699 0 10 -2.66699 10 -8v-142c0 -6.66699 -3.33301 -10 -10 -10h-1176zM853.999 -779.996c-35.333 0 -63.333 10.667 -84 32s-31 51.666 -31 90.999c0 38.667 10.333 68.667 31 90s48.667 32 84 32c36 0 64.167 -11 84.5 -33s30.5 -51.667 30.5 -89
s-10 -67.166 -30 -89.499s-48.333 -33.5 -85 -33.5zM853.999 -409.996c-35.333 0 -63.333 10.667 -84 32s-31 51.666 -31 90.999s10.167 69.666 30.5 90.999s48.5 32 84.5 32c36.667 0 65 -11.167 85 -33.5s30 -52.166 30 -89.499s-10 -67.166 -30 -89.499
s-48.333 -33.5 -85 -33.5z" />
    <glyph glyph-name="uni067C.init" unicode="&#x67c;" horiz-adv-x="766" 
d="M-10 0c-6.66699 0 -10 3.33301 -10 10v142c0 5.33301 3.33301 8 10 8h393v833h182v-993h-575zM285 1188c-32 0 -59.1689 9.66797 -81.502 29.001s-33.5 50.666 -33.5 93.999s11.167 74.666 33.5 93.999s49.5 29 81.5 29c34.667 0 62.334 -10.5 83.001 -31.5
s31 -51.5 31 -91.5c0 -39.333 -10.167 -69.666 -30.5 -90.999s-48.166 -32 -83.499 -32zM638.998 1188c-35.333 0 -63.333 10.667 -84 32s-31 51.666 -31 90.999s10.167 69.666 30.5 90.999s48.5 32 84.5 32c36.667 0 65 -11.167 85 -33.5s30 -52.166 30 -89.499
s-10 -67.166 -30 -89.499s-48.333 -33.5 -85 -33.5zM298.998 -326.999c-68 0 -122.167 19.167 -162.5 57.5s-60.5 90.833 -60.5 157.5c0 67.333 20.333 120 61 158s94.667 57 162 57c68.667 0 124 -19.5 166 -58.5s63 -90.5 63 -154.5c0 -66 -21 -118.667 -63 -158
s-97.333 -59 -166 -59zM298.998 -223.999c32.667 0 59.667 9.66699 81 29s32 47 32 83s-10.667 63.833 -32 83.5s-48.333 29.5 -81 29.5c-33.333 0 -60.5 -9.83301 -81.5 -29.5s-31.5 -47.5 -31.5 -83.5c0 -74.667 37.667 -112 113 -112z" />
    <glyph glyph-name="uni067C.medi" unicode="&#x67c;" horiz-adv-x="801" 
d="M-10 0c-6.66699 0 -10 3.33301 -10 10v142c0 5.33301 3.33301 8 10 8h332v833h182v-833h307c6.66699 0 10 -2.66699 10 -8v-142c0 -6.66699 -3.33301 -10 -10 -10h-821zM234 1188c-32 0 -59.1689 9.66797 -81.502 29.001s-33.5 50.666 -33.5 93.999
s11.167 74.666 33.5 93.999s49.5 29 81.5 29c34.667 0 62.334 -10.5 83.001 -31.5s31 -51.5 31 -91.5c0 -39.333 -10.167 -69.666 -30.5 -90.999s-48.166 -32 -83.499 -32zM587.998 1188c-35.333 0 -63.333 10.667 -84 32s-31 51.666 -31 90.999s10.167 69.666 30.5 90.999
s48.5 32 84.5 32c36.667 0 65 -11.167 85 -33.5s30 -52.166 30 -89.499s-10 -67.166 -30 -89.499s-48.333 -33.5 -85 -33.5zM423.998 -326.999c-68 0 -122.167 19.167 -162.5 57.5s-60.5 90.833 -60.5 157.5c0 67.333 20.333 120 61 158s94.667 57 162 57
c68.667 0 124 -19.5 166 -58.5s63 -90.5 63 -154.5c0 -66 -21 -118.667 -63 -158s-97.333 -59 -166 -59zM423.998 -223.999c32.667 0 59.667 9.66699 81 29s32 47 32 83s-10.667 63.833 -32 83.5s-48.333 29.5 -81 29.5c-33.333 0 -60.5 -9.83301 -81.5 -29.5
s-31.5 -47.5 -31.5 -83.5c0 -74.667 37.667 -112 113 -112z" />
    <glyph glyph-name="uni067C.fina" unicode="&#x67c;" horiz-adv-x="1681" 
d="M516 0c-118 0 -211.334 35.5039 -280.001 106.504s-103 167.833 -103 290.5c0 45.333 4.83301 97.666 14.5 156.999s21.834 109.666 36.501 150.999h164c-20.667 -98.667 -31 -196.334 -31 -293.001c0 -74.667 17.667 -135.334 53 -182.001s82 -70 140 -70h735v833h174
v-833h273c6.66699 0 10 -2.66699 10 -8v-142c0 -6.66699 -3.33301 -10 -10 -10h-1176zM826.999 -326.996c-68 0 -122.167 19.167 -162.5 57.5s-60.5 90.833 -60.5 157.5c0 67.333 20.333 120 61 158s94.667 57 162 57c68.667 0 124 -19.5 166 -58.5s63 -90.5 63 -154.5
c0 -66 -21 -118.667 -63 -158s-97.333 -59 -166 -59zM826.999 -223.996c32.667 0 59.667 9.66699 81 29s32 47 32 83s-10.667 63.833 -32 83.5s-48.333 29.5 -81 29.5c-33.333 0 -60.5 -9.83301 -81.5 -29.5s-31.5 -47.5 -31.5 -83.5c0 -74.667 37.667 -112 113 -112z
M597.999 994.004c-32 0 -59.1689 9.66797 -81.502 29.001s-33.5 50.666 -33.5 93.999s11.167 74.666 33.5 93.999s49.5 29 81.5 29c34.667 0 62.334 -10.5 83.001 -31.5s31 -51.5 31 -91.5c0 -39.333 -10.167 -69.666 -30.5 -90.999s-48.166 -32 -83.499 -32z
M951.997 994.005c-35.333 0 -63.333 10.667 -84 32s-31 51.666 -31 90.999s10.167 69.666 30.5 90.999s48.5 32 84.5 32c36.667 0 65 -11.167 85 -33.5s30 -52.166 30 -89.499s-10 -67.166 -30 -89.499s-48.333 -33.5 -85 -33.5z" />
    <glyph glyph-name="uni067D.init" unicode="&#x67d;" horiz-adv-x="766" 
d="M-10 0c-6.66699 0 -10 3.33301 -10 10v142c0 5.33301 3.33301 8 10 8h393v833h182v-993h-575zM463 1411c30.667 0 56 -8.83301 76 -26.5s30 -46.5 30 -86.5c0 -38.667 -10 -67 -30 -85s-45.333 -27 -76 -27c-28.667 0 -53.5 9 -74.5 27s-31.5 46.333 -31.5 85
c0 40 10.5 68.833 31.5 86.5s45.833 26.5 74.5 26.5zM639 1688c32 0 59.167 -9.66699 81.5 -29s33.5 -50.666 33.5 -93.999s-11.167 -74.666 -33.5 -93.999s-49.5 -29 -81.5 -29c-36.667 0 -65 11.167 -85 33.5s-30 52.166 -30 89.499s10 67.166 30 89.499
s48.333 33.5 85 33.5zM285 1688c35.333 0 63.333 -10.667 84 -32s31 -51.666 31 -90.999s-10.167 -69.666 -30.5 -90.999s-48.5 -32 -84.5 -32c-35.333 0 -63.333 10.667 -84 32s-31 51.666 -31 90.999s10.167 69.666 30.5 90.999s48.5 32 84.5 32z" />
    <glyph glyph-name="uni067D.medi" unicode="&#x67d;" horiz-adv-x="801" 
d="M-10 0c-6.66699 0 -10 3.33301 -10 10v142c0 5.33301 3.33301 8 10 8h332v833h182v-833h307c6.66699 0 10 -2.66699 10 -8v-142c0 -6.66699 -3.33301 -10 -10 -10h-821zM414 1411c30.667 0 56 -8.83301 76 -26.5s30 -46.5 30 -86.5c0 -38.667 -10 -67 -30 -85
s-45.333 -27 -76 -27c-28.667 0 -53.5 9 -74.5 27s-31.5 46.333 -31.5 85c0 40 10.5 68.833 31.5 86.5s45.833 26.5 74.5 26.5zM590 1688c32 0 59.167 -9.66699 81.5 -29s33.5 -50.666 33.5 -93.999s-11.167 -74.666 -33.5 -93.999s-49.5 -29 -81.5 -29
c-36.667 0 -65 11.167 -85 33.5s-30 52.166 -30 89.499s10 67.166 30 89.499s48.333 33.5 85 33.5zM236 1688c35.333 0 63.333 -10.667 84 -32s31 -51.666 31 -90.999s-10.167 -69.666 -30.5 -90.999s-48.5 -32 -84.5 -32c-35.333 0 -63.333 10.667 -84 32
s-31 51.666 -31 90.999s10.167 69.666 30.5 90.999s48.5 32 84.5 32z" />
    <glyph glyph-name="uni067D.fina" unicode="&#x67d;" horiz-adv-x="1681" 
d="M516 0c-118 0 -211.334 35.5039 -280.001 106.504s-103 167.833 -103 290.5c0 45.333 4.83301 97.666 14.5 156.999s21.834 109.666 36.501 150.999h164c-20.667 -98.667 -31 -196.334 -31 -293.001c0 -74.667 17.667 -135.334 53 -182.001s82 -70 140 -70h735v833h174
v-833h273c6.66699 0 10 -2.66699 10 -8v-142c0 -6.66699 -3.33301 -10 -10 -10h-1176zM785.999 963.004c30.667 0 56 -8.83301 76 -26.5s30 -46.5 30 -86.5c0 -38.667 -10 -67 -30 -85s-45.333 -27 -76 -27c-28.667 0 -53.5 9 -74.5 27s-31.5 46.333 -31.5 85
c0 40 10.5 68.833 31.5 86.5s45.833 26.5 74.5 26.5zM961.999 1240c32 0 59.167 -9.66699 81.5 -29s33.5 -50.666 33.5 -93.999s-11.167 -74.666 -33.5 -93.999s-49.5 -29 -81.5 -29c-36.667 0 -65 11.167 -85 33.5s-30 52.166 -30 89.499s10 67.166 30 89.499
s48.333 33.5 85 33.5zM607.999 1240c35.333 0 63.333 -10.667 84 -32s31 -51.666 31 -90.999s-10.167 -69.666 -30.5 -90.999s-48.5 -32 -84.5 -32c-35.333 0 -63.333 10.667 -84 32s-31 51.666 -31 90.999s10.167 69.666 30.5 90.999s48.5 32 84.5 32z" />
    <glyph glyph-name="uni067E" unicode="&#x67e;" horiz-adv-x="1593" arabic-form="isolated" 
d="M516 0c-118 0 -211.334 35.5039 -280.001 106.504s-103 167.833 -103 290.5c0 45.333 4.83301 97.666 14.5 156.999s21.834 109.666 36.501 150.999h164c-20.667 -98.667 -31 -196.334 -31 -293.001c0 -74.667 17.667 -135.334 53 -182.001s82 -70 140 -70h735v833h174
v-993h-903zM841.999 -687.996c-30.667 0 -56 8.83301 -76 26.5s-30 46.5 -30 86.5c0 38.667 10 67 30 85s45.333 27 76 27c28.667 0 53.5 -9 74.5 -27s31.5 -46.333 31.5 -85c0 -40 -10.5 -68.833 -31.5 -86.5s-45.833 -26.5 -74.5 -26.5zM665.999 -437.996
c-32 0 -59.167 9.66699 -81.5 29s-33.5 50.666 -33.5 93.999c0 42.667 11.167 73.667 33.5 93s49.5 29 81.5 29c36 0 64.167 -11 84.5 -33s30.5 -51.667 30.5 -89s-10 -67.166 -30 -89.499s-48.333 -33.5 -85 -33.5zM1020 -437.996c-35.333 0 -63.333 10.667 -84 32
s-31 51.666 -31 90.999c0 38.667 10.333 68.667 31 90s48.667 32 84 32c36 0 64.167 -11 84.5 -33s30.5 -51.667 30.5 -89s-10 -67.166 -30 -89.499s-48.333 -33.5 -85 -33.5z" />
    <glyph glyph-name="uni067F.init" unicode="&#x67f;" horiz-adv-x="766" arabic-form="initial" 
d="M-10 0c-6.66699 0 -10 3.33301 -10 10v142c0 5.33301 3.33301 8 10 8h393v833h182v-993h-575zM297 1219c-32.667 0 -58.167 9.33105 -76.5 27.998s-27.5 46 -27.5 82c0 38.667 10.167 66.834 30.5 84.501s44.833 26.5 73.5 26.5c28 0 52.167 -8.66699 72.5 -26
s30.5 -45.666 30.5 -84.999c0 -35.333 -9.16699 -62.5 -27.5 -81.5s-43.5 -28.5 -75.5 -28.5zM615 1219c-29.333 0 -53.833 8.50195 -73.5 25.502s-29.5 45.167 -29.5 84.5s9.83301 67.666 29.5 84.999s44.167 26 73.5 26c31.333 0 56.5 -9.83301 75.5 -29.5
s28.5 -46.834 28.5 -81.501s-9.33301 -61.667 -28 -81s-44 -29 -76 -29zM297 1561c-32.667 0 -58.167 9.33105 -76.5 27.998s-27.5 46 -27.5 82c0 38.667 10.167 66.834 30.5 84.501s44.833 26.5 73.5 26.5c28 0 52.167 -8.66699 72.5 -26s30.5 -45.666 30.5 -84.999
c0 -35.333 -9.16699 -62.5 -27.5 -81.5s-43.5 -28.5 -75.5 -28.5zM615 1561c-29.333 0 -53.833 8.50195 -73.5 25.502s-29.5 45.167 -29.5 84.5s9.83301 67.666 29.5 84.999s44.167 26 73.5 26c31.333 0 56.5 -9.83301 75.5 -29.5s28.5 -46.834 28.5 -81.501
s-9.33301 -61.667 -28 -81s-44 -29 -76 -29z" />
    <glyph glyph-name="uni067F.medi" unicode="&#x67f;" horiz-adv-x="801" arabic-form="medial" 
d="M-10 0c-6.66699 0 -10 3.33301 -10 10v142c0 5.33301 3.33301 8 10 8h332v833h182v-833h307c6.66699 0 10 -2.66699 10 -8v-142c0 -6.66699 -3.33301 -10 -10 -10h-821zM246 1219c-32.667 0 -58.167 9.33105 -76.5 27.998s-27.5 46 -27.5 82
c0 38.667 10.167 66.834 30.5 84.501s44.833 26.5 73.5 26.5c28 0 52.167 -8.66699 72.5 -26s30.5 -45.666 30.5 -84.999c0 -35.333 -9.16699 -62.5 -27.5 -81.5s-43.5 -28.5 -75.5 -28.5zM564 1219c-29.333 0 -53.833 8.50195 -73.5 25.502s-29.5 45.167 -29.5 84.5
s9.83301 67.666 29.5 84.999s44.167 26 73.5 26c31.333 0 56.5 -9.83301 75.5 -29.5s28.5 -46.834 28.5 -81.501s-9.33301 -61.667 -28 -81s-44 -29 -76 -29zM246 1561c-32.667 0 -58.167 9.33105 -76.5 27.998s-27.5 46 -27.5 82c0 38.667 10.167 66.834 30.5 84.501
s44.833 26.5 73.5 26.5c28 0 52.167 -8.66699 72.5 -26s30.5 -45.666 30.5 -84.999c0 -35.333 -9.16699 -62.5 -27.5 -81.5s-43.5 -28.5 -75.5 -28.5zM564 1561c-29.333 0 -53.833 8.50195 -73.5 25.502s-29.5 45.167 -29.5 84.5s9.83301 67.666 29.5 84.999
s44.167 26 73.5 26c31.333 0 56.5 -9.83301 75.5 -29.5s28.5 -46.834 28.5 -81.501s-9.33301 -61.667 -28 -81s-44 -29 -76 -29z" />
    <glyph glyph-name="uni067F.fina" unicode="&#x67f;" horiz-adv-x="1681" arabic-form="final" 
d="M516 0c-118 0 -211.334 35.5039 -280.001 106.504s-103 167.833 -103 290.5c0 45.333 4.83301 97.666 14.5 156.999s21.834 109.666 36.501 150.999h164c-20.667 -98.667 -31 -196.334 -31 -293.001c0 -74.667 17.667 -135.334 53 -182.001s82 -70 140 -70h735v833h174
v-833h273c6.66699 0 10 -2.66699 10 -8v-142c0 -6.66699 -3.33301 -10 -10 -10h-1176zM625.999 792.004c-32.667 0 -58.167 9.33105 -76.5 27.998s-27.5 46 -27.5 82c0 38.667 10.167 66.834 30.5 84.501s44.833 26.5 73.5 26.5c28 0 52.167 -8.66699 72.5 -26
s30.5 -45.666 30.5 -84.999c0 -35.333 -9.16699 -62.5 -27.5 -81.5s-43.5 -28.5 -75.5 -28.5zM943.999 792.002c-29.333 0 -53.833 8.50195 -73.5 25.502s-29.5 45.167 -29.5 84.5s9.83301 67.666 29.5 84.999s44.167 26 73.5 26c31.333 0 56.5 -9.83301 75.5 -29.5
s28.5 -46.834 28.5 -81.501s-9.33301 -61.667 -28 -81s-44 -29 -76 -29zM625.999 1134c-32.667 0 -58.167 9.33105 -76.5 27.998s-27.5 46 -27.5 82c0 38.667 10.167 66.834 30.5 84.501s44.833 26.5 73.5 26.5c28 0 52.167 -8.66699 72.5 -26s30.5 -45.666 30.5 -84.999
c0 -35.333 -9.16699 -62.5 -27.5 -81.5s-43.5 -28.5 -75.5 -28.5zM943.999 1134c-29.333 0 -53.833 8.50195 -73.5 25.502s-29.5 45.167 -29.5 84.5s9.83301 67.666 29.5 84.999s44.167 26 73.5 26c31.333 0 56.5 -9.83301 75.5 -29.5s28.5 -46.834 28.5 -81.501
s-9.33301 -61.667 -28 -81s-44 -29 -76 -29z" />
    <glyph glyph-name="uni0680.init" unicode="&#x680;" horiz-adv-x="766" arabic-form="initial" 
d="M-10 0c-6.66699 0 -10 3.33301 -10 10v142c0 5.33301 3.33301 8 10 8h393v833h182v-993h-575zM125 -762c-31.333 0 -56.5 9.49902 -75.5 28.499s-28.5 46.5 -28.5 82.5c0 38.667 10.167 66.667 30.5 84s44.833 26 73.5 26c28 0 52.167 -8.66699 72.5 -26
s30.5 -45.333 30.5 -84c0 -39.333 -10.167 -67.666 -30.5 -84.999s-44.5 -26 -72.5 -26zM443 -762.001c-29.333 0 -53.833 8.66895 -73.5 26.002s-29.5 45.666 -29.5 84.999s9.83301 67.5 29.5 84.5s44.167 25.5 73.5 25.5c32.667 0 58.167 -9.83301 76.5 -29.5
s27.5 -46.5 27.5 -80.5c0 -34.667 -9.5 -61.834 -28.5 -81.501s-44.167 -29.5 -75.5 -29.5zM125 -419.999c-31.333 0 -56.5 9.49902 -75.5 28.499s-28.5 46.5 -28.5 82.5c0 38.667 10.167 66.667 30.5 84s44.833 26 73.5 26c28 0 52.167 -8.66699 72.5 -26
s30.5 -45.333 30.5 -84c0 -39.333 -10.167 -67.666 -30.5 -84.999s-44.5 -26 -72.5 -26zM443 -420c-29.333 0 -53.833 8.66895 -73.5 26.002s-29.5 45.666 -29.5 84.999s9.83301 67.5 29.5 84.5s44.167 25.5 73.5 25.5c32.667 0 58.167 -9.83301 76.5 -29.5
s27.5 -46.5 27.5 -80.5c0 -34.667 -9.5 -61.834 -28.5 -81.501s-44.167 -29.5 -75.5 -29.5z" />
    <glyph glyph-name="uni0680.medi" unicode="&#x680;" horiz-adv-x="801" arabic-form="medial" 
d="M-10 0c-6.66699 0 -10 3.33301 -10 10v142c0 5.33301 3.33301 8 10 8h332v833h182v-833h307c6.66699 0 10 -2.66699 10 -8v-142c0 -6.66699 -3.33301 -10 -10 -10h-821zM258 -762c-31.333 0 -56.5 9.49902 -75.5 28.499s-28.5 46.5 -28.5 82.5
c0 38.667 10.167 66.667 30.5 84s44.833 26 73.5 26c28 0 52.167 -8.66699 72.5 -26s30.5 -45.333 30.5 -84c0 -39.333 -10.167 -67.666 -30.5 -84.999s-44.5 -26 -72.5 -26zM576 -762.001c-29.333 0 -53.833 8.66895 -73.5 26.002s-29.5 45.666 -29.5 84.999
s9.83301 67.5 29.5 84.5s44.167 25.5 73.5 25.5c32.667 0 58.167 -9.83301 76.5 -29.5s27.5 -46.5 27.5 -80.5c0 -34.667 -9.5 -61.834 -28.5 -81.501s-44.167 -29.5 -75.5 -29.5zM258 -419.999c-31.333 0 -56.5 9.49902 -75.5 28.499s-28.5 46.5 -28.5 82.5
c0 38.667 10.167 66.667 30.5 84s44.833 26 73.5 26c28 0 52.167 -8.66699 72.5 -26s30.5 -45.333 30.5 -84c0 -39.333 -10.167 -67.666 -30.5 -84.999s-44.5 -26 -72.5 -26zM576 -420c-29.333 0 -53.833 8.66895 -73.5 26.002s-29.5 45.666 -29.5 84.999
s9.83301 67.5 29.5 84.5s44.167 25.5 73.5 25.5c32.667 0 58.167 -9.83301 76.5 -29.5s27.5 -46.5 27.5 -80.5c0 -34.667 -9.5 -61.834 -28.5 -81.501s-44.167 -29.5 -75.5 -29.5z" />
    <glyph glyph-name="uni0680.fina" unicode="&#x680;" horiz-adv-x="1681" arabic-form="final" 
d="M516 0c-118 0 -211.334 35.5039 -280.001 106.504s-103 167.833 -103 290.5c0 45.333 4.83301 97.666 14.5 156.999s21.834 109.666 36.501 150.999h164c-20.667 -98.667 -31 -196.334 -31 -293.001c0 -74.667 17.667 -135.334 53 -182.001s82 -70 140 -70h735v833h174
v-833h273c6.66699 0 10 -2.66699 10 -8v-142c0 -6.66699 -3.33301 -10 -10 -10h-1176zM628.999 -761.996c-31.333 0 -56.5 9.49902 -75.5 28.499s-28.5 46.5 -28.5 82.5c0 38.667 10.167 66.667 30.5 84s44.833 26 73.5 26c28 0 52.167 -8.66699 72.5 -26
s30.5 -45.333 30.5 -84c0 -39.333 -10.167 -67.666 -30.5 -84.999s-44.5 -26 -72.5 -26zM946.999 -761.997c-29.333 0 -53.833 8.66895 -73.5 26.002s-29.5 45.666 -29.5 84.999s9.83301 67.5 29.5 84.5s44.167 25.5 73.5 25.5c32.667 0 58.167 -9.83301 76.5 -29.5
s27.5 -46.5 27.5 -80.5c0 -34.667 -9.5 -61.834 -28.5 -81.501s-44.167 -29.5 -75.5 -29.5zM628.999 -419.995c-31.333 0 -56.5 9.49902 -75.5 28.499s-28.5 46.5 -28.5 82.5c0 38.667 10.167 66.667 30.5 84s44.833 26 73.5 26c28 0 52.167 -8.66699 72.5 -26
s30.5 -45.333 30.5 -84c0 -39.333 -10.167 -67.666 -30.5 -84.999s-44.5 -26 -72.5 -26zM946.999 -419.996c-29.333 0 -53.833 8.66895 -73.5 26.002s-29.5 45.666 -29.5 84.999s9.83301 67.5 29.5 84.5s44.167 25.5 73.5 25.5c32.667 0 58.167 -9.83301 76.5 -29.5
s27.5 -46.5 27.5 -80.5c0 -34.667 -9.5 -61.834 -28.5 -81.501s-44.167 -29.5 -75.5 -29.5z" />
    <glyph glyph-name="uni0681.init" unicode="&#x681;" horiz-adv-x="1188" 
d="M-10 0c-6.66699 0 -10.002 3.33203 -10.002 9.99902v142c0 5.33301 3.33301 8 10 8h878c-50 50 -93 175 -129 375c-20 118 -49 200.667 -87 248s-95 71 -171 71c-94.667 0 -193.667 -27.333 -297 -82l-71 141c58.667 38 117.834 64.333 177.501 79s123.834 22 192.501 22
c83.333 0 153 -15 209 -45s100.5 -74.5 133.5 -133.5s58.167 -143.5 75.5 -253.5c20 -122 42.5 -216.167 67.5 -282.5s53.833 -114.166 86.5 -143.499v-156h-1065zM247.998 1275l97.001 14c-48 31.333 -72 74.666 -72 129.999c0 58.667 19.167 104 57.5 136
s88.833 48 151.5 48c53.333 0 98.333 -10.333 135 -31l-31 -92c-27.333 16.667 -61.333 25 -102 25c-30 0 -55.333 -8.5 -76 -25.5s-31 -43.5 -31 -79.5c0 -23.333 6 -43.166 18 -59.499s26.667 -28.5 44 -36.5c13.333 3.33301 46 8.5 98 15.5s87.667 10.5 107 10.5v-100
c-10.667 0 -34.834 -1.83301 -72.501 -5.5s-107.167 -12.167 -208.5 -25.5l-115 -18v94z" />
    <glyph glyph-name="uni0681.medi" unicode="&#x681;" horiz-adv-x="1176" 
d="M-10 0c-6.66699 0 -10.001 3.33301 -10.001 10v142c0 5.33301 3.33301 8 10 8h878c-52.667 52.667 -95.667 177.667 -129 375c-19.333 116 -48.333 198.167 -87 246.5s-95.667 72.5 -171 72.5c-94.667 0 -193.667 -27.333 -297 -82l-71 141
c58.667 38 117.834 64.333 177.501 79s123.834 22 192.501 22c83.333 0 153 -15 209 -45s100.5 -74.5 133.5 -133.5s58.167 -143.5 75.5 -253.5c31.333 -214 80.666 -354.667 147.999 -422h137c6.66699 0 10 -2.66699 10 -8v-142c0 -6.66699 -3.33301 -10 -10 -10h-1196z
M247.999 1275l97.001 14c-48 31.333 -72 74.666 -72 129.999c0 58.667 19.167 104 57.5 136s88.833 48 151.5 48c53.333 0 98.333 -10.333 135 -31l-31 -92c-27.333 16.667 -61.333 25 -102 25c-30 0 -55.333 -8.5 -76 -25.5s-31 -43.5 -31 -79.5
c0 -23.333 6 -43.166 18 -59.499s26.667 -28.5 44 -36.5c13.333 3.33301 46 8.5 98 15.5s87.667 10.5 107 10.5v-100c-10.667 0 -34.834 -1.83301 -72.501 -5.5s-107.167 -12.167 -208.5 -25.5l-115 -18v94z" />
    <glyph glyph-name="uni0681.fina" unicode="&#x681;" horiz-adv-x="1257" 
d="M518 -657c-132 0 -235.991 34.499 -311.991 103.499s-114 166.167 -114 291.5c0 86.667 25.667 166.334 77 239.001s131.666 139 240.999 199s260 118 452 174c-14.667 46.667 -28.334 108.334 -41.001 185.001c-18 108 -51.5 188.167 -100.5 240.5
s-115.167 78.5 -198.5 78.5c-48.667 0 -107.334 -9.83301 -176.001 -29.5s-129.334 -43.834 -182.001 -72.501l-72 141c52.667 34 118.667 62.667 198 86s157.333 35 234 35c261.333 0 414.333 -144 459 -432c21.333 -130.667 42.333 -221 63 -271s47.667 -87.667 81 -113
s76.666 -38 129.999 -38h11c6.66699 0 10 -2.66699 10 -8v-142c0 -6.66699 -3.33301 -10 -10 -10h-11c-74.667 0 -139.834 16.167 -195.501 48.5s-102.834 84.5 -141.501 156.5c-163.333 -44.667 -290 -89.167 -380 -133.5s-156 -92.833 -198 -145.5s-63 -110 -63 -172
c0 -87.333 25.333 -151.5 76 -192.5s129.667 -61.5 237 -61.5c68.667 0 169 11 301 33l22 -141c-96.667 -20.667 -173.334 -34 -230.001 -40s-112.334 -9 -167.001 -9zM248.009 1275l97.001 14c-48 31.333 -72 74.666 -72 129.999c0 58.667 19.167 104 57.5 136
s88.833 48 151.5 48c53.333 0 98.333 -10.333 135 -31l-31 -92c-27.333 16.667 -61.333 25 -102 25c-30 0 -55.333 -8.5 -76 -25.5s-31 -43.5 -31 -79.5c0 -23.333 6 -43.166 18 -59.499s26.667 -28.5 44 -36.5c13.333 3.33301 46 8.5 98 15.5s87.667 10.5 107 10.5v-100
c-10.667 0 -34.834 -1.83301 -72.501 -5.5s-107.167 -12.167 -208.5 -25.5l-115 -18v94z" />
    <glyph glyph-name="uni0682.init" unicode="&#x682;" horiz-adv-x="1188" 
d="M-10 0c-6.66699 0 -10.002 3.33203 -10.002 9.99902v142c0 5.33301 3.33301 8 10 8h878c-50 50 -93 175 -129 375c-20 118 -49 200.667 -87 248s-95 71 -171 71c-94.667 0 -193.667 -27.333 -297 -82l-71 141c58.667 38 117.834 64.333 177.501 79s123.834 22 192.501 22
c83.333 0 153 -15 209 -45s100.5 -74.5 133.5 -133.5s58.167 -143.5 75.5 -253.5c20 -122 42.5 -216.167 67.5 -282.5s53.833 -114.166 86.5 -143.499v-156h-1065zM441.998 1188c-35.333 0 -63.333 10.667 -84 32s-31 51.666 -31 90.999s10.167 69.666 30.5 90.999
s48.5 32 84.5 32c36.667 0 65 -11.167 85 -33.5s30 -52.166 30 -89.499s-10 -67.166 -30 -89.499s-48.333 -33.5 -85 -33.5zM441.998 1559c-35.333 0 -63.333 10.667 -84 32s-31 51.333 -31 90c0 39.333 10.167 69.666 30.5 90.999s48.5 32 84.5 32
c36.667 0 65 -11.167 85 -33.5s30 -52.166 30 -89.499c0 -36.667 -10 -66.167 -30 -88.5s-48.333 -33.5 -85 -33.5z" />
    <glyph glyph-name="uni0682.medi" unicode="&#x682;" horiz-adv-x="1176" 
d="M-10 0c-6.66699 0 -10.001 3.33301 -10.001 10v142c0 5.33301 3.33301 8 10 8h878c-52.667 52.667 -95.667 177.667 -129 375c-19.333 116 -48.333 198.167 -87 246.5s-95.667 72.5 -171 72.5c-94.667 0 -193.667 -27.333 -297 -82l-71 141
c58.667 38 117.834 64.333 177.501 79s123.834 22 192.501 22c83.333 0 153 -15 209 -45s100.5 -74.5 133.5 -133.5s58.167 -143.5 75.5 -253.5c31.333 -214 80.666 -354.667 147.999 -422h137c6.66699 0 10 -2.66699 10 -8v-142c0 -6.66699 -3.33301 -10 -10 -10h-1196z
M441.999 1188c-35.333 0 -63.333 10.667 -84 32s-31 51.666 -31 90.999s10.167 69.666 30.5 90.999s48.5 32 84.5 32c36.667 0 65 -11.167 85 -33.5s30 -52.166 30 -89.499s-10 -67.166 -30 -89.499s-48.333 -33.5 -85 -33.5zM441.999 1559c-35.333 0 -63.333 10.667 -84 32
s-31 51.333 -31 90c0 39.333 10.167 69.666 30.5 90.999s48.5 32 84.5 32c36.667 0 65 -11.167 85 -33.5s30 -52.166 30 -89.499c0 -36.667 -10 -66.167 -30 -88.5s-48.333 -33.5 -85 -33.5z" />
    <glyph glyph-name="uni0682.fina" unicode="&#x682;" horiz-adv-x="1257" 
d="M518 -657c-132 0 -235.991 34.499 -311.991 103.499s-114 166.167 -114 291.5c0 86.667 25.667 166.334 77 239.001s131.666 139 240.999 199s260 118 452 174c-14.667 46.667 -28.334 108.334 -41.001 185.001c-18 108 -51.5 188.167 -100.5 240.5
s-115.167 78.5 -198.5 78.5c-48.667 0 -107.334 -9.83301 -176.001 -29.5s-129.334 -43.834 -182.001 -72.501l-72 141c52.667 34 118.667 62.667 198 86s157.333 35 234 35c261.333 0 414.333 -144 459 -432c21.333 -130.667 42.333 -221 63 -271s47.667 -87.667 81 -113
s76.666 -38 129.999 -38h11c6.66699 0 10 -2.66699 10 -8v-142c0 -6.66699 -3.33301 -10 -10 -10h-11c-74.667 0 -139.834 16.167 -195.501 48.5s-102.834 84.5 -141.501 156.5c-163.333 -44.667 -290 -89.167 -380 -133.5s-156 -92.833 -198 -145.5s-63 -110 -63 -172
c0 -87.333 25.333 -151.5 76 -192.5s129.667 -61.5 237 -61.5c68.667 0 169 11 301 33l22 -141c-96.667 -20.667 -173.334 -34 -230.001 -40s-112.334 -9 -167.001 -9zM442.009 1188c-35.333 0 -63.333 10.667 -84 32s-31 51.666 -31 90.999s10.167 69.666 30.5 90.999
s48.5 32 84.5 32c36.667 0 65 -11.167 85 -33.5s30 -52.166 30 -89.499s-10 -67.166 -30 -89.499s-48.333 -33.5 -85 -33.5zM442.009 1559c-35.333 0 -63.333 10.667 -84 32s-31 51.333 -31 90c0 39.333 10.167 69.666 30.5 90.999s48.5 32 84.5 32
c36.667 0 65 -11.167 85 -33.5s30 -52.166 30 -89.499c0 -36.667 -10 -66.167 -30 -88.5s-48.333 -33.5 -85 -33.5z" />
    <glyph glyph-name="uni0683.init" unicode="&#x683;" horiz-adv-x="1188" arabic-form="initial" 
d="M-10 0c-6.66699 0 -10.002 3.33203 -10.002 9.99902v142c0 5.33301 3.33301 8 10 8h878c-50 50 -93 175 -129 375c-20 118 -49 200.667 -87 248s-95 71 -171 71c-94.667 0 -193.667 -27.333 -297 -82l-71 141c58.667 38 117.834 64.333 177.501 79s123.834 22 192.501 22
c83.333 0 153 -15 209 -45s100.5 -74.5 133.5 -133.5s58.167 -143.5 75.5 -253.5c20 -122 42.5 -216.167 67.5 -282.5s53.833 -114.166 86.5 -143.499v-156h-1065zM319.998 -410.001c-32 0 -59.1689 9.66797 -81.502 29.001s-33.5 50.666 -33.5 93.999
s11.167 74.666 33.5 93.999s49.5 29 81.5 29c34.667 0 62.334 -10.5 83.001 -31.5s31 -51.5 31 -91.5c0 -39.333 -10.167 -69.666 -30.5 -90.999s-48.166 -32 -83.499 -32zM673.996 -410c-35.333 0 -63.333 10.667 -84 32s-31 51.666 -31 90.999s10.167 69.666 30.5 90.999
s48.5 32 84.5 32c36.667 0 65 -11.167 85 -33.5s30 -52.166 30 -89.499s-10 -67.166 -30 -89.499s-48.333 -33.5 -85 -33.5z" />
    <glyph glyph-name="uni0683.medi" unicode="&#x683;" horiz-adv-x="1176" arabic-form="medial" 
d="M-10 0c-6.66699 0 -10.001 3.33301 -10.001 10v142c0 5.33301 3.33301 8 10 8h878c-52.667 52.667 -95.667 177.667 -129 375c-19.333 116 -48.333 198.167 -87 246.5s-95.667 72.5 -171 72.5c-94.667 0 -193.667 -27.333 -297 -82l-71 141
c58.667 38 117.834 64.333 177.501 79s123.834 22 192.501 22c83.333 0 153 -15 209 -45s100.5 -74.5 133.5 -133.5s58.167 -143.5 75.5 -253.5c31.333 -214 80.666 -354.667 147.999 -422h137c6.66699 0 10 -2.66699 10 -8v-142c0 -6.66699 -3.33301 -10 -10 -10h-1196z
M319.999 -410c-32 0 -59.1689 9.66797 -81.502 29.001s-33.5 50.666 -33.5 93.999s11.167 74.666 33.5 93.999s49.5 29 81.5 29c34.667 0 62.334 -10.5 83.001 -31.5s31 -51.5 31 -91.5c0 -39.333 -10.167 -69.666 -30.5 -90.999s-48.166 -32 -83.499 -32zM673.997 -409.999
c-35.333 0 -63.333 10.667 -84 32s-31 51.666 -31 90.999s10.167 69.666 30.5 90.999s48.5 32 84.5 32c36.667 0 65 -11.167 85 -33.5s30 -52.166 30 -89.499s-10 -67.166 -30 -89.499s-48.333 -33.5 -85 -33.5z" />
    <glyph glyph-name="uni0683.fina" unicode="&#x683;" horiz-adv-x="1257" arabic-form="final" 
d="M518 -657c-132 0 -235.991 34.499 -311.991 103.499s-114 166.167 -114 291.5c0 86.667 25.667 166.334 77 239.001s131.666 139 240.999 199s260 118 452 174c-14.667 46.667 -28.334 108.334 -41.001 185.001c-18 108 -51.5 188.167 -100.5 240.5
s-115.167 78.5 -198.5 78.5c-48.667 0 -107.334 -9.83301 -176.001 -29.5s-129.334 -43.834 -182.001 -72.501l-72 141c52.667 34 118.667 62.667 198 86s157.333 35 234 35c261.333 0 414.333 -144 459 -432c21.333 -130.667 42.333 -221 63 -271s47.667 -87.667 81 -113
s76.666 -38 129.999 -38h11c6.66699 0 10 -2.66699 10 -8v-142c0 -6.66699 -3.33301 -10 -10 -10h-11c-74.667 0 -139.834 16.167 -195.501 48.5s-102.834 84.5 -141.501 156.5c-163.333 -44.667 -290 -89.167 -380 -133.5s-156 -92.833 -198 -145.5s-63 -110 -63 -172
c0 -87.333 25.333 -151.5 76 -192.5s129.667 -61.5 237 -61.5c68.667 0 169 11 301 33l22 -141c-96.667 -20.667 -173.334 -34 -230.001 -40s-112.334 -9 -167.001 -9zM608.009 -340.001c-32 0 -59.1689 9.66797 -81.502 29.001s-33.5 50.666 -33.5 93.999
s11.167 74.666 33.5 93.999s49.5 29 81.5 29c34.667 0 62.334 -10.5 83.001 -31.5s31 -51.5 31 -91.5c0 -39.333 -10.167 -69.666 -30.5 -90.999s-48.166 -32 -83.499 -32zM962.007 -340c-35.333 0 -63.333 10.667 -84 32s-31 51.666 -31 90.999s10.167 69.666 30.5 90.999
s48.5 32 84.5 32c36.667 0 65 -11.167 85 -33.5s30 -52.166 30 -89.499s-10 -67.166 -30 -89.499s-48.333 -33.5 -85 -33.5z" />
    <glyph glyph-name="uni0684.init" unicode="&#x684;" horiz-adv-x="1188" arabic-form="initial" 
d="M-10 0c-6.66699 0 -10.002 3.33203 -10.002 9.99902v142c0 5.33301 3.33301 8 10 8h878c-50 50 -93 175 -129 375c-20 118 -49 200.667 -87 248s-95 71 -171 71c-94.667 0 -193.667 -27.333 -297 -82l-71 141c58.667 38 117.834 64.333 177.501 79s123.834 22 192.501 22
c83.333 0 153 -15 209 -45s100.5 -74.5 133.5 -133.5s58.167 -143.5 75.5 -253.5c20 -122 42.5 -216.167 67.5 -282.5s53.833 -114.166 86.5 -143.499v-156h-1065zM478.998 -780.001c-35.333 0 -63.333 10.667 -84 32s-31 51.666 -31 90.999c0 38.667 10.333 68.667 31 90
s48.667 32 84 32c36 0 64.167 -11 84.5 -33s30.5 -51.667 30.5 -89s-10 -67.166 -30 -89.499s-48.333 -33.5 -85 -33.5zM478.998 -410.001c-35.333 0 -63.333 10.667 -84 32s-31 51.666 -31 90.999s10.167 69.666 30.5 90.999s48.5 32 84.5 32c36.667 0 65 -11.167 85 -33.5
s30 -52.166 30 -89.499s-10 -67.166 -30 -89.499s-48.333 -33.5 -85 -33.5z" />
    <glyph glyph-name="uni0684.medi" unicode="&#x684;" horiz-adv-x="1176" arabic-form="medial" 
d="M-10 0c-6.66699 0 -10.001 3.33301 -10.001 10v142c0 5.33301 3.33301 8 10 8h878c-52.667 52.667 -95.667 177.667 -129 375c-19.333 116 -48.333 198.167 -87 246.5s-95.667 72.5 -171 72.5c-94.667 0 -193.667 -27.333 -297 -82l-71 141
c58.667 38 117.834 64.333 177.501 79s123.834 22 192.501 22c83.333 0 153 -15 209 -45s100.5 -74.5 133.5 -133.5s58.167 -143.5 75.5 -253.5c31.333 -214 80.666 -354.667 147.999 -422h137c6.66699 0 10 -2.66699 10 -8v-142c0 -6.66699 -3.33301 -10 -10 -10h-1196z
M478.999 -780c-35.333 0 -63.333 10.667 -84 32s-31 51.666 -31 90.999c0 38.667 10.333 68.667 31 90s48.667 32 84 32c36 0 64.167 -11 84.5 -33s30.5 -51.667 30.5 -89s-10 -67.166 -30 -89.499s-48.333 -33.5 -85 -33.5zM478.999 -410c-35.333 0 -63.333 10.667 -84 32
s-31 51.666 -31 90.999s10.167 69.666 30.5 90.999s48.5 32 84.5 32c36.667 0 65 -11.167 85 -33.5s30 -52.166 30 -89.499s-10 -67.166 -30 -89.499s-48.333 -33.5 -85 -33.5z" />
    <glyph glyph-name="uni0684.fina" unicode="&#x684;" horiz-adv-x="1257" arabic-form="final" 
d="M518 -657c-132 0 -235.993 34.499 -311.993 103.499s-114 166.167 -114 291.5c0 86.667 25.667 166.334 77 239.001s131.666 139 240.999 199s260 118 452 174c-14.667 46.667 -28.334 108.334 -41.001 185.001c-18 108 -51.5 188.167 -100.5 240.5
s-115.167 78.5 -198.5 78.5c-48.667 0 -107.334 -9.83301 -176.001 -29.5s-129.334 -43.834 -182.001 -72.501l-72 141c52.667 34 118.667 62.667 198 86s157.333 35 234 35c261.333 0 414.333 -144 459 -432c21.333 -130.667 42.333 -221 63 -271s47.667 -87.667 81 -113
s76.666 -38 129.999 -38h11c6.66699 0 10 -2.66699 10 -8v-142c0 -6.66699 -3.33301 -10 -10 -10h-11c-74.667 0 -139.834 16.167 -195.501 48.5s-102.834 84.5 -141.501 156.5c-163.333 -44.667 -290 -89.167 -380 -133.5s-156 -92.833 -198 -145.5s-63 -110 -63 -172
c0 -169.333 92.667 -254 278 -254zM803.007 -655.001c-35.333 0 -63.333 10.667 -84 32s-31 51.666 -31 90.999c0 38.667 10.333 68.667 31 90s48.667 32 84 32c36 0 64.167 -11 84.5 -33s30.5 -51.667 30.5 -89s-10 -67.166 -30 -89.499s-48.333 -33.5 -85 -33.5z
M803.007 -285.001c-35.333 0 -63.333 10.667 -84 32s-31 51.666 -31 90.999s10.167 69.666 30.5 90.999s48.5 32 84.5 32c36.667 0 65 -11.167 85 -33.5s30 -52.166 30 -89.499s-10 -67.166 -30 -89.499s-48.333 -33.5 -85 -33.5z" />
    <glyph glyph-name="uni0685.init" unicode="&#x685;" horiz-adv-x="1188" 
d="M-10 0c-6.66699 0 -10.002 3.33203 -10.002 9.99902v142c0 5.33301 3.33301 8 10 8h878c-50 50 -93 175 -129 375c-20 118 -49 200.667 -87 248s-95 71 -171 71c-94.667 0 -193.667 -27.333 -297 -82l-71 141c58.667 38 117.834 64.333 177.501 79s123.834 22 192.501 22
c83.333 0 153 -15 209 -45s100.5 -74.5 133.5 -133.5s58.167 -143.5 75.5 -253.5c20 -122 42.5 -216.167 67.5 -282.5s53.833 -114.166 86.5 -143.499v-156h-1065zM468.998 1464c-30.667 0 -56 8.83301 -76 26.5s-30 46.5 -30 86.5c0 39.333 10 68 30 86s45.333 27 76 27
c28.667 0 53.5 -9.16699 74.5 -27.5s31.5 -46.833 31.5 -85.5c0 -40 -10.5 -68.833 -31.5 -86.5s-45.833 -26.5 -74.5 -26.5zM292.998 1188c-32 0 -59.167 9.66699 -81.5 29s-33.5 50.666 -33.5 93.999s11.167 74.666 33.5 93.999s49.5 29 81.5 29
c36.667 0 65 -11.167 85 -33.5s30 -52.166 30 -89.499s-10 -67.166 -30 -89.499s-48.333 -33.5 -85 -33.5zM646.998 1188c-35.333 0 -63.333 10.667 -84 32s-31 51.666 -31 90.999s10.167 69.666 30.5 90.999s48.5 32 84.5 32c36.667 0 65 -11.167 85 -33.5
s30 -52.166 30 -89.499s-10 -67.166 -30 -89.499s-48.333 -33.5 -85 -33.5z" />
    <glyph glyph-name="uni0685.medi" unicode="&#x685;" horiz-adv-x="1176" 
d="M-10 0c-6.66699 0 -10.001 3.33301 -10.001 10v142c0 5.33301 3.33301 8 10 8h878c-52.667 52.667 -95.667 177.667 -129 375c-19.333 116 -48.333 198.167 -87 246.5s-95.667 72.5 -171 72.5c-94.667 0 -193.667 -27.333 -297 -82l-71 141
c58.667 38 117.834 64.333 177.501 79s123.834 22 192.501 22c83.333 0 153 -15 209 -45s100.5 -74.5 133.5 -133.5s58.167 -143.5 75.5 -253.5c31.333 -214 80.666 -354.667 147.999 -422h137c6.66699 0 10 -2.66699 10 -8v-142c0 -6.66699 -3.33301 -10 -10 -10h-1196z
M468.999 1464c-30.667 0 -56 8.83301 -76 26.5s-30 46.5 -30 86.5c0 39.333 10 68 30 86s45.333 27 76 27c28.667 0 53.5 -9.16699 74.5 -27.5s31.5 -46.833 31.5 -85.5c0 -40 -10.5 -68.833 -31.5 -86.5s-45.833 -26.5 -74.5 -26.5zM292.999 1188
c-32 0 -59.167 9.66699 -81.5 29s-33.5 50.666 -33.5 93.999s11.167 74.666 33.5 93.999s49.5 29 81.5 29c36.667 0 65 -11.167 85 -33.5s30 -52.166 30 -89.499s-10 -67.166 -30 -89.499s-48.333 -33.5 -85 -33.5zM646.999 1188c-35.333 0 -63.333 10.667 -84 32
s-31 51.666 -31 90.999s10.167 69.666 30.5 90.999s48.5 32 84.5 32c36.667 0 65 -11.167 85 -33.5s30 -52.166 30 -89.499s-10 -67.166 -30 -89.499s-48.333 -33.5 -85 -33.5z" />
    <glyph glyph-name="uni0685.fina" unicode="&#x685;" horiz-adv-x="1257" 
d="M518 -657c-132 0 -235.991 34.499 -311.991 103.499s-114 166.167 -114 291.5c0 86.667 25.667 166.334 77 239.001s131.666 139 240.999 199s260 118 452 174c-14.667 46.667 -28.334 108.334 -41.001 185.001c-18 108 -51.5 188.167 -100.5 240.5
s-115.167 78.5 -198.5 78.5c-48.667 0 -107.334 -9.83301 -176.001 -29.5s-129.334 -43.834 -182.001 -72.501l-72 141c52.667 34 118.667 62.667 198 86s157.333 35 234 35c261.333 0 414.333 -144 459 -432c21.333 -130.667 42.333 -221 63 -271s47.667 -87.667 81 -113
s76.666 -38 129.999 -38h11c6.66699 0 10 -2.66699 10 -8v-142c0 -6.66699 -3.33301 -10 -10 -10h-11c-74.667 0 -139.834 16.167 -195.501 48.5s-102.834 84.5 -141.501 156.5c-163.333 -44.667 -290 -89.167 -380 -133.5s-156 -92.833 -198 -145.5s-63 -110 -63 -172
c0 -87.333 25.333 -151.5 76 -192.5s129.667 -61.5 237 -61.5c68.667 0 169 11 301 33l22 -141c-96.667 -20.667 -173.334 -34 -230.001 -40s-112.334 -9 -167.001 -9zM469.009 1464c-30.667 0 -56 8.83301 -76 26.5s-30 46.5 -30 86.5c0 39.333 10 68 30 86
s45.333 27 76 27c28.667 0 53.5 -9.16699 74.5 -27.5s31.5 -46.833 31.5 -85.5c0 -40 -10.5 -68.833 -31.5 -86.5s-45.833 -26.5 -74.5 -26.5zM293.009 1188c-32 0 -59.167 9.66699 -81.5 29s-33.5 50.666 -33.5 93.999s11.167 74.666 33.5 93.999s49.5 29 81.5 29
c36.667 0 65 -11.167 85 -33.5s30 -52.166 30 -89.499s-10 -67.166 -30 -89.499s-48.333 -33.5 -85 -33.5zM647.009 1188c-35.333 0 -63.333 10.667 -84 32s-31 51.666 -31 90.999s10.167 69.666 30.5 90.999s48.5 32 84.5 32c36.667 0 65 -11.167 85 -33.5
s30 -52.166 30 -89.499s-10 -67.166 -30 -89.499s-48.333 -33.5 -85 -33.5z" />
    <glyph glyph-name="uni0686" unicode="&#x686;" horiz-adv-x="1319" arabic-form="isolated" 
d="M1077 25c-36.667 29.333 -67.9961 57.667 -93.9961 85s-48.667 59 -68 95c-228.667 -62 -391.834 -129 -489.501 -201s-146.5 -155.333 -146.5 -250c0 -169.333 92.667 -254 278 -254l-39 -157c-132 0 -236 34.5 -312 103.5s-114 166.167 -114 291.5c0 86 25 165 75 237
s128.667 137.833 236 197.5s259.666 118.834 456.999 177.501c-10.667 36 -23.667 97.667 -39 185c-18 108 -51.5 188.167 -100.5 240.5s-115.167 78.5 -198.5 78.5c-48.667 0 -107.334 -9.83301 -176.001 -29.5s-129.334 -43.834 -182.001 -72.501l-72 141
c52.667 34 118.667 62.667 198 86s157.333 35 234 35c261.333 0 414.333 -144 459 -432c16.667 -106.667 41 -193.5 73 -260.5s75.333 -118.833 130 -155.5zM801.004 -587.999c-30.667 0 -56 8.83301 -76 26.5s-30 46.5 -30 86.5c0 38.667 10 67 30 85s45.333 27 76 27
c28.667 0 53.5 -9 74.5 -27s31.5 -46.333 31.5 -85c0 -40 -10.5 -68.833 -31.5 -86.5s-45.833 -26.5 -74.5 -26.5zM625.004 -337.999c-32 0 -59.167 9.66699 -81.5 29s-33.5 50.666 -33.5 93.999c0 42.667 11.167 73.667 33.5 93s49.5 29 81.5 29c36 0 64.167 -11 84.5 -33
s30.5 -51.667 30.5 -89s-10 -67.166 -30 -89.499s-48.333 -33.5 -85 -33.5zM979.004 -337.999c-35.333 0 -63.333 10.667 -84 32s-31 51.666 -31 90.999c0 38.667 10.333 68.667 31 90s48.667 32 84 32c36 0 64.167 -11 84.5 -33s30.5 -51.667 30.5 -89
s-10 -67.166 -30 -89.499s-48.333 -33.5 -85 -33.5z" />
    <glyph glyph-name="uni0687.init" unicode="&#x687;" horiz-adv-x="1188" arabic-form="initial" 
d="M-10 0c-6.66699 0 -10.002 3.33203 -10.002 9.99902v142c0 5.33301 3.33301 8 10 8h878c-50 50 -93 175 -129 375c-20 118 -49 200.667 -87 248s-95 71 -171 71c-94.667 0 -193.667 -27.333 -297 -82l-71 141c58.667 38 117.834 64.333 177.501 79s123.834 22 192.501 22
c83.333 0 153 -15 209 -45s100.5 -74.5 133.5 -133.5s58.167 -143.5 75.5 -253.5c20 -122 42.5 -216.167 67.5 -282.5s53.833 -114.166 86.5 -143.499v-156h-1065zM324.998 -762.001c-31.333 0 -56.5 9.49902 -75.5 28.499s-28.5 46.5 -28.5 82.5
c0 38.667 10.167 66.667 30.5 84s44.833 26 73.5 26c28 0 52.167 -8.66699 72.5 -26s30.5 -45.333 30.5 -84c0 -39.333 -10.167 -67.666 -30.5 -84.999s-44.5 -26 -72.5 -26zM642.998 -762.002c-29.333 0 -53.833 8.66895 -73.5 26.002s-29.5 45.666 -29.5 84.999
s9.83301 67.5 29.5 84.5s44.167 25.5 73.5 25.5c32.667 0 58.167 -9.83301 76.5 -29.5s27.5 -46.5 27.5 -80.5c0 -34.667 -9.5 -61.834 -28.5 -81.501s-44.167 -29.5 -75.5 -29.5zM324.998 -420c-31.333 0 -56.5 9.49902 -75.5 28.499s-28.5 46.5 -28.5 82.5
c0 38.667 10.167 66.667 30.5 84s44.833 26 73.5 26c28 0 52.167 -8.66699 72.5 -26s30.5 -45.333 30.5 -84c0 -39.333 -10.167 -67.666 -30.5 -84.999s-44.5 -26 -72.5 -26zM642.998 -420.001c-29.333 0 -53.833 8.66895 -73.5 26.002s-29.5 45.666 -29.5 84.999
s9.83301 67.5 29.5 84.5s44.167 25.5 73.5 25.5c32.667 0 58.167 -9.83301 76.5 -29.5s27.5 -46.5 27.5 -80.5c0 -34.667 -9.5 -61.834 -28.5 -81.501s-44.167 -29.5 -75.5 -29.5z" />
    <glyph glyph-name="uni0687.medi" unicode="&#x687;" horiz-adv-x="1176" arabic-form="medial" 
d="M-10 0c-6.66699 0 -10.001 3.33301 -10.001 10v142c0 5.33301 3.33301 8 10 8h878c-52.667 52.667 -95.667 177.667 -129 375c-19.333 116 -48.333 198.167 -87 246.5s-95.667 72.5 -171 72.5c-94.667 0 -193.667 -27.333 -297 -82l-71 141
c58.667 38 117.834 64.333 177.501 79s123.834 22 192.501 22c83.333 0 153 -15 209 -45s100.5 -74.5 133.5 -133.5s58.167 -143.5 75.5 -253.5c31.333 -214 80.666 -354.667 147.999 -422h137c6.66699 0 10 -2.66699 10 -8v-142c0 -6.66699 -3.33301 -10 -10 -10h-1196z
M324.999 -762c-31.333 0 -56.5 9.49902 -75.5 28.499s-28.5 46.5 -28.5 82.5c0 38.667 10.167 66.667 30.5 84s44.833 26 73.5 26c28 0 52.167 -8.66699 72.5 -26s30.5 -45.333 30.5 -84c0 -39.333 -10.167 -67.666 -30.5 -84.999s-44.5 -26 -72.5 -26zM642.999 -762.001
c-29.333 0 -53.833 8.66895 -73.5 26.002s-29.5 45.666 -29.5 84.999s9.83301 67.5 29.5 84.5s44.167 25.5 73.5 25.5c32.667 0 58.167 -9.83301 76.5 -29.5s27.5 -46.5 27.5 -80.5c0 -34.667 -9.5 -61.834 -28.5 -81.501s-44.167 -29.5 -75.5 -29.5zM324.999 -419.999
c-31.333 0 -56.5 9.49902 -75.5 28.499s-28.5 46.5 -28.5 82.5c0 38.667 10.167 66.667 30.5 84s44.833 26 73.5 26c28 0 52.167 -8.66699 72.5 -26s30.5 -45.333 30.5 -84c0 -39.333 -10.167 -67.666 -30.5 -84.999s-44.5 -26 -72.5 -26zM642.999 -420
c-29.333 0 -53.833 8.66895 -73.5 26.002s-29.5 45.666 -29.5 84.999s9.83301 67.5 29.5 84.5s44.167 25.5 73.5 25.5c32.667 0 58.167 -9.83301 76.5 -29.5s27.5 -46.5 27.5 -80.5c0 -34.667 -9.5 -61.834 -28.5 -81.501s-44.167 -29.5 -75.5 -29.5z" />
    <glyph glyph-name="uni0687.fina" unicode="&#x687;" horiz-adv-x="1257" arabic-form="final" 
d="M518 -657c-132 0 -235.993 34.499 -311.993 103.499s-114 166.167 -114 291.5c0 86.667 25.667 166.334 77 239.001s131.666 139 240.999 199s260 118 452 174c-14.667 46.667 -28.334 108.334 -41.001 185.001c-18 108 -51.5 188.167 -100.5 240.5
s-115.167 78.5 -198.5 78.5c-48.667 0 -107.334 -9.83301 -176.001 -29.5s-129.334 -43.834 -182.001 -72.501l-72 141c52.667 34 118.667 62.667 198 86s157.333 35 234 35c261.333 0 414.333 -144 459 -432c21.333 -130.667 42.333 -221 63 -271s47.667 -87.667 81 -113
s76.666 -38 129.999 -38h11c6.66699 0 10 -2.66699 10 -8v-142c0 -6.66699 -3.33301 -10 -10 -10h-11c-74.667 0 -139.834 16.167 -195.501 48.5s-102.834 84.5 -141.501 156.5c-163.333 -44.667 -290 -89.167 -380 -133.5s-156 -92.833 -198 -145.5s-63 -110 -63 -172
c0 -169.333 92.667 -254 278 -254zM733.007 -651.001c-31.333 0 -56.5 9.49902 -75.5 28.499s-28.5 46.5 -28.5 82.5c0 38.667 10.167 66.667 30.5 84s44.833 26 73.5 26c28 0 52.167 -8.66699 72.5 -26s30.5 -45.333 30.5 -84c0 -39.333 -10.167 -67.666 -30.5 -84.999
s-44.5 -26 -72.5 -26zM1051.01 -651.002c-29.333 0 -53.833 8.66895 -73.5 26.002s-29.5 45.666 -29.5 84.999s9.83301 67.5 29.5 84.5s44.167 25.5 73.5 25.5c32.667 0 58.167 -9.83301 76.5 -29.5s27.5 -46.5 27.5 -80.5c0 -34.667 -9.5 -61.834 -28.5 -81.501
s-44.167 -29.5 -75.5 -29.5zM733.007 -309c-31.333 0 -56.5 9.49902 -75.5 28.499s-28.5 46.5 -28.5 82.5c0 38.667 10.167 66.667 30.5 84s44.833 26 73.5 26c28 0 52.167 -8.66699 72.5 -26s30.5 -45.333 30.5 -84c0 -39.333 -10.167 -67.666 -30.5 -84.999
s-44.5 -26 -72.5 -26zM1051.01 -309.001c-29.333 0 -53.833 8.66895 -73.5 26.002s-29.5 45.666 -29.5 84.999s9.83301 67.5 29.5 84.5s44.167 25.5 73.5 25.5c32.667 0 58.167 -9.83301 76.5 -29.5s27.5 -46.5 27.5 -80.5c0 -34.667 -9.5 -61.834 -28.5 -81.501
s-44.167 -29.5 -75.5 -29.5z" />
    <glyph glyph-name="uni0688" unicode="&#x688;" horiz-adv-x="1042" arabic-form="isolated" 
d="M92 160h681.999c-26.667 183.333 -77.667 339.5 -153 468.5s-182.666 240.5 -321.999 334.5l66 155c157.333 -82 285.5 -203.667 384.5 -365s165.833 -360.333 200.5 -597v-156h-858v160zM177.999 1386h31v373h82v-260c16.667 40 37.5 72.167 62.5 96.5
s57.5 36.5 97.5 36.5c100.667 0 151 -59.333 151 -178v-156h-424v88zM519.999 1386l-0.000976562 51c0 36 -6 62.833 -18 80.5s-32.333 26.5 -61 26.5c-32 0 -60.167 -10.833 -84.5 -32.5s-46.166 -56.5 -65.499 -104.5v-21h229z" />
    <glyph glyph-name="uni0689.fina" unicode="&#x689;" horiz-adv-x="1165" 
d="M92 160l681.999 -0.000976562c-26.667 183.333 -77.667 339.5 -153 468.5s-182.666 240.5 -321.999 334.5l66 155c157.333 -83.333 285.5 -205.666 384.5 -366.999s165.167 -358.333 198.5 -591h228c6.66699 0 10 -2.66699 10 -8v-142c0 -6.66699 -3.33301 -10 -10 -10
h-1084v160zM515.999 -327.001c-68 0 -122.167 19.167 -162.5 57.5s-60.5 90.833 -60.5 157.5c0 67.333 20.333 120 61 158s94.667 57 162 57c68.667 0 124 -19.5 166 -58.5s63 -90.5 63 -154.5c0 -66 -21 -118.667 -63 -158s-97.333 -59 -166 -59zM515.999 -224.001
c32.667 0 59.667 9.66699 81 29s32 47 32 83s-10.667 63.833 -32 83.5s-48.333 29.5 -81 29.5c-33.333 0 -60.5 -9.83301 -81.5 -29.5s-31.5 -47.5 -31.5 -83.5c0 -74.667 37.667 -112 113 -112z" />
    <glyph glyph-name="uni068A.fina" unicode="&#x68a;" horiz-adv-x="1165" 
d="M92 160l681.999 -0.000976562c-26.667 183.333 -77.667 339.5 -153 468.5s-182.666 240.5 -321.999 334.5l66 155c157.333 -83.333 285.5 -205.666 384.5 -366.999s165.167 -358.333 198.5 -591h228c6.66699 0 10 -2.66699 10 -8v-142c0 -6.66699 -3.33301 -10 -10 -10
h-1084v160zM529.999 -410.001c-35.333 0 -63.333 10.667 -84 32s-31 51.666 -31 90.999s10.167 69.666 30.5 90.999s48.5 32 84.5 32c36.667 0 65 -11.167 85 -33.5s30 -52.166 30 -89.499s-10 -67.166 -30 -89.499s-48.333 -33.5 -85 -33.5z" />
    <glyph glyph-name="uni068B.fina" unicode="&#x68b;" horiz-adv-x="1165" 
d="M92 160l681.999 -0.000976562c-26.667 183.333 -77.667 339.5 -153 468.5s-182.666 240.5 -321.999 334.5l66 155c157.333 -83.333 285.5 -205.666 384.5 -366.999s165.167 -358.333 198.5 -591h228c6.66699 0 10 -2.66699 10 -8v-142c0 -6.66699 -3.33301 -10 -10 -10
h-1084v160zM177.999 1386h31v373h82v-260c16.667 40 37.5 72.167 62.5 96.5s57.5 36.5 97.5 36.5c100.667 0 151 -59.333 151 -178v-156h-424v88zM519.999 1386l-0.000976562 51c0 36 -6 62.833 -18 80.5s-32.333 26.5 -61 26.5c-32 0 -60.167 -10.833 -84.5 -32.5
s-46.166 -56.5 -65.499 -104.5v-21h229zM529.998 -410.001c-35.333 0 -63.333 10.667 -84 32s-31 51.666 -31 90.999s10.167 69.666 30.5 90.999s48.5 32 84.5 32c36.667 0 65 -11.167 85 -33.5s30 -52.166 30 -89.499s-10 -67.166 -30 -89.499s-48.333 -33.5 -85 -33.5z
" />
    <glyph glyph-name="uni068C.fina" unicode="&#x68c;" horiz-adv-x="1165" arabic-form="final" 
d="M92 160l681.999 -0.000976562c-26.667 183.333 -77.667 339.5 -153 468.5s-182.666 240.5 -321.999 334.5l66 155c157.333 -83.333 285.5 -205.666 384.5 -366.999s165.167 -358.333 198.5 -591h228c6.66699 0 10 -2.66699 10 -8v-142c0 -6.66699 -3.33301 -10 -10 -10
h-1084v160zM186.999 1311c-32 0 -59.1689 9.66797 -81.502 29.001s-33.5 50.666 -33.5 93.999s11.167 74.666 33.5 93.999s49.5 29 81.5 29c34.667 0 62.334 -10.5 83.001 -31.5s31 -51.5 31 -91.5c0 -39.333 -10.167 -69.666 -30.5 -90.999s-48.166 -32 -83.499 -32z
M540.997 1311c-35.333 0 -63.333 10.667 -84 32s-31 51.666 -31 90.999s10.167 69.666 30.5 90.999s48.5 32 84.5 32c36.667 0 65 -11.167 85 -33.5s30 -52.166 30 -89.499s-10 -67.166 -30 -89.499s-48.333 -33.5 -85 -33.5z" />
    <glyph glyph-name="uni068D.fina" unicode="&#x68d;" horiz-adv-x="1165" arabic-form="final" 
d="M92 160l681.999 -0.000976562c-26.667 183.333 -77.667 339.5 -153 468.5s-182.666 240.5 -321.999 334.5l66 155c157.333 -83.333 285.5 -205.666 384.5 -366.999s165.167 -358.333 198.5 -591h228c6.66699 0 10 -2.66699 10 -8v-142c0 -6.66699 -3.33301 -10 -10 -10
h-1084v160zM354.999 -410.001c-32 0 -59.1689 9.66797 -81.502 29.001s-33.5 50.666 -33.5 93.999s11.167 74.666 33.5 93.999s49.5 29 81.5 29c34.667 0 62.334 -10.5 83.001 -31.5s31 -51.5 31 -91.5c0 -39.333 -10.167 -69.666 -30.5 -90.999s-48.166 -32 -83.499 -32z
M708.997 -410c-35.333 0 -63.333 10.667 -84 32s-31 51.666 -31 90.999s10.167 69.666 30.5 90.999s48.5 32 84.5 32c36.667 0 65 -11.167 85 -33.5s30 -52.166 30 -89.499s-10 -67.166 -30 -89.499s-48.333 -33.5 -85 -33.5z" />
    <glyph glyph-name="uni068E.fina" unicode="&#x68e;" horiz-adv-x="1165" arabic-form="final" 
d="M92 160l681.999 -0.000976562c-26.667 183.333 -77.667 339.5 -153 468.5s-182.666 240.5 -321.999 334.5l66 155c157.333 -83.333 285.5 -205.666 384.5 -366.999s165.167 -358.333 198.5 -591h228c6.66699 0 10 -2.66699 10 -8v-142c0 -6.66699 -3.33301 -10 -10 -10
h-1084v160zM361.999 1587c-30.667 0 -56 8.83301 -76 26.5s-30 46.5 -30 86.5c0 39.333 10 68 30 86s45.333 27 76 27c28.667 0 53.5 -9.16699 74.5 -27.5s31.5 -46.833 31.5 -85.5c0 -40 -10.5 -68.833 -31.5 -86.5s-45.833 -26.5 -74.5 -26.5zM185.999 1311
c-32 0 -59.167 9.66699 -81.5 29s-33.5 50.666 -33.5 93.999s11.167 74.666 33.5 93.999s49.5 29 81.5 29c36.667 0 65 -11.167 85 -33.5s30 -52.166 30 -89.499s-10 -67.166 -30 -89.499s-48.333 -33.5 -85 -33.5zM539.999 1311c-35.333 0 -63.333 10.667 -84 32
s-31 51.666 -31 90.999s10.167 69.666 30.5 90.999s48.5 32 84.5 32c36.667 0 65 -11.167 85 -33.5s30 -52.166 30 -89.499s-10 -67.166 -30 -89.499s-48.333 -33.5 -85 -33.5z" />
    <glyph glyph-name="uni068F.fina" unicode="&#x68f;" horiz-adv-x="1165" 
d="M92 160l681.999 -0.000976562c-26.667 183.333 -77.667 339.5 -153 468.5s-182.666 240.5 -321.999 334.5l66 155c157.333 -83.333 285.5 -205.666 384.5 -366.999s165.167 -358.333 198.5 -591h228c6.66699 0 10 -2.66699 10 -8v-142c0 -6.66699 -3.33301 -10 -10 -10
h-1084v160zM368.999 1526c30.667 0 56 -8.83301 76 -26.5s30 -46.5 30 -86.5c0 -38.667 -10 -67 -30 -85s-45.333 -27 -76 -27c-28.667 0 -53.5 9 -74.5 27s-31.5 46.333 -31.5 85c0 40 10.5 68.833 31.5 86.5s45.833 26.5 74.5 26.5zM544.999 1803
c32 0 59.167 -9.66699 81.5 -29s33.5 -50.666 33.5 -93.999s-11.167 -74.666 -33.5 -93.999s-49.5 -29 -81.5 -29c-36.667 0 -65 11.167 -85 33.5s-30 52.166 -30 89.499s10 67.166 30 89.499s48.333 33.5 85 33.5zM190.999 1803c35.333 0 63.333 -10.667 84 -32
s31 -51.666 31 -90.999s-10.167 -69.666 -30.5 -90.999s-48.5 -32 -84.5 -32c-35.333 0 -63.333 10.667 -84 32s-31 51.666 -31 90.999s10.167 69.666 30.5 90.999s48.5 32 84.5 32z" />
    <glyph glyph-name="uni0690.fina" unicode="&#x690;" horiz-adv-x="1165" 
d="M92 160l681.999 -0.000976562c-26.667 183.333 -77.667 339.5 -153 468.5s-182.666 240.5 -321.999 334.5l66 155c157.333 -83.333 285.5 -205.666 384.5 -366.999s165.167 -358.333 198.5 -591h228c6.66699 0 10 -2.66699 10 -8v-142c0 -6.66699 -3.33301 -10 -10 -10
h-1084v160zM204.999 1219c-32.667 0 -58.167 9.33105 -76.5 27.998s-27.5 46 -27.5 82c0 38.667 10.167 66.834 30.5 84.501s44.833 26.5 73.5 26.5c28 0 52.167 -8.66699 72.5 -26s30.5 -45.666 30.5 -84.999c0 -35.333 -9.16699 -62.5 -27.5 -81.5
s-43.5 -28.5 -75.5 -28.5zM522.999 1219c-29.333 0 -53.833 8.50195 -73.5 25.502s-29.5 45.167 -29.5 84.5s9.83301 67.666 29.5 84.999s44.167 26 73.5 26c31.333 0 56.5 -9.83301 75.5 -29.5s28.5 -46.834 28.5 -81.501s-9.33301 -61.667 -28 -81s-44 -29 -76 -29z
M204.999 1561c-32.667 0 -58.167 9.33105 -76.5 27.998s-27.5 46 -27.5 82c0 38.667 10.167 66.834 30.5 84.501s44.833 26.5 73.5 26.5c28 0 52.167 -8.66699 72.5 -26s30.5 -45.666 30.5 -84.999c0 -35.333 -9.16699 -62.5 -27.5 -81.5s-43.5 -28.5 -75.5 -28.5z
M522.999 1561c-29.333 0 -53.833 8.50195 -73.5 25.502s-29.5 45.167 -29.5 84.5s9.83301 67.666 29.5 84.999s44.167 26 73.5 26c31.333 0 56.5 -9.83301 75.5 -29.5s28.5 -46.834 28.5 -81.501s-9.33301 -61.667 -28 -81s-44 -29 -76 -29z" />
    <glyph glyph-name="uni0691" unicode="&#x691;" horiz-adv-x="666" arabic-form="isolated" 
d="M127 -492c-65.333 0 -134.998 19.333 -208.998 58l53 137c33.333 -14.667 60.666 -24.167 81.999 -28.5s44.666 -6.5 69.999 -6.5c61.333 0 109.333 25 144 75s52 116 52 198v1052h173v-1042c0 -138 -31.333 -246.333 -94 -325s-153 -118 -271 -118zM186.002 1292h31v373
h82v-260c16.667 40 37.5 72.167 62.5 96.5s57.5 36.5 97.5 36.5c100.667 0 151 -59.333 151 -178v-156h-424v88zM528.002 1292l-0.000976562 51c0 36 -6 62.833 -18 80.5s-32.333 26.5 -61 26.5c-32 0 -60.167 -10.833 -84.5 -32.5s-46.166 -56.5 -65.499 -104.5v-21h229z
" />
    <glyph glyph-name="uni0692.fina" unicode="&#x692;" horiz-adv-x="735" 
d="M492 0l0.00195312 -49c0 -138 -31.333 -246.333 -94 -325s-153 -118 -271 -118c-65.333 0 -135 19.333 -209 58l53 137c33.333 -14.667 60.666 -24.167 81.999 -28.5s44.666 -6.5 69.999 -6.5c61.333 0 109.333 25 144 75s52 116 52 198v1052h173v-833h253
c7.33301 0 11 -2.66699 11 -8v-142c0 -6.66699 -3.66699 -10 -11 -10h-253zM729.002 1601l-225 -408h-127l-228 408h160l129 -264l133 264h158z" />
    <glyph glyph-name="uni0693.fina" unicode="&#x693;" horiz-adv-x="735" 
d="M492 0l0.00195312 -49c0 -138 -31.333 -246.333 -94 -325s-153 -118 -271 -118c-65.333 0 -135 19.333 -209 58l53 137c33.333 -14.667 60.666 -24.167 81.999 -28.5s44.666 -6.5 69.999 -6.5c61.333 0 109.333 25 144 75s52 116 52 198v1052h173v-833h253
c7.33301 0 11 -2.66699 11 -8v-142c0 -6.66699 -3.66699 -10 -11 -10h-253zM442.002 -741c-68 0 -122.167 19.167 -162.5 57.5s-60.5 90.833 -60.5 157.5c0 67.333 20.333 120 61 158s94.667 57 162 57c68.667 0 124 -19.5 166 -58.5s63 -90.5 63 -154.5
c0 -66 -21 -118.667 -63 -158s-97.333 -59 -166 -59zM442.002 -638c32.667 0 59.667 9.66699 81 29s32 47 32 83s-10.667 63.833 -32 83.5s-48.333 29.5 -81 29.5c-33.333 0 -60.5 -9.83301 -81.5 -29.5s-31.5 -47.5 -31.5 -83.5c0 -74.667 37.667 -112 113 -112z" />
    <glyph glyph-name="uni0694.fina" unicode="&#x694;" horiz-adv-x="735" 
d="M492 0l0.00195312 -49c0 -138 -31.333 -246.333 -94 -325s-153 -118 -271 -118c-65.333 0 -135 19.333 -209 58l53 137c33.333 -14.667 60.666 -24.167 81.999 -28.5s44.666 -6.5 69.999 -6.5c61.333 0 109.333 25 144 75s52 116 52 198v1052h173v-833h253
c7.33301 0 11 -2.66699 11 -8v-142c0 -6.66699 -3.66699 -10 -11 -10h-253zM313.002 -845c-35.333 0 -63.333 10.667 -84 32s-31 51.666 -31 90.999s10.167 69.666 30.5 90.999s48.5 32 84.5 32c36.667 0 65 -11.167 85 -33.5s30 -52.166 30 -89.499
s-10 -67.166 -30 -89.499s-48.333 -33.5 -85 -33.5z" />
    <glyph glyph-name="uni0695.fina" unicode="&#x695;" horiz-adv-x="735" 
d="M492 0l0.00195312 -49c0 -138 -31.333 -246.333 -94 -325s-153 -118 -271 -118c-65.333 0 -135 19.333 -209 58l53 137c33.333 -14.667 60.666 -24.167 81.999 -28.5s44.666 -6.5 69.999 -6.5c61.333 0 109.333 25 144 75s52 116 52 198v1052h173v-833h253
c7.33301 0 11 -2.66699 11 -8v-142c0 -6.66699 -3.66699 -10 -11 -10h-253zM580.002 -652l-225 -408h-127l-228 408h160l129 -264l133 264h158z" />
    </font>
</defs>
</svg>
