<?xml version="1.0" standalone="no"?>
<!DOCTYPE svg PUBLIC "-//W3C//DTD SVG 1.1//EN" "http://www.w3.org/Graphics/SVG/1.1/DTD/svg11.dtd" >
<svg>
<metadata>
Created by FontForge 20090914 at Thu Jan  3 18:19:30 2013
 By www-data
Generated by Fontographer 3.5
</metadata>
<defs>
<font id="HASOOB" horiz-adv-x="2154" >
  <font-face 
    font-family="HASOOB"
    font-weight="400"
    font-stretch="normal"
    units-per-em="3061"
    panose-1="0 0 0 0 0 0 0 0 0 0"
    ascent="2448"
    descent="-613"
    bbox="-258 -1025 2581 2036"
    underline-thickness="100"
    underline-position="-700"
    unicode-range="U+F200-U+F2FF"
  />
<missing-glyph horiz-adv-x="2036" 
d="M127 0v2036h1782v-2036h-1782zM1782 127v1782h-1528v-1782h1528z" />
    <glyph glyph-name=".notdef" horiz-adv-x="2036" 
d="M127 0v2036h1782v-2036h-1782zM1782 127v1782h-1528v-1782h1528z" />
    <glyph glyph-name="space" unicode="&#xf200;" horiz-adv-x="500" 
 />
    <glyph glyph-name="SOH" unicode="&#xf201;" horiz-adv-x="1602" 
d="M338 434l-101.999 -25c-16.667 -4 -31.5 -10.167 -44.5 -18.5s-25.833 -18.833 -38.5 -31.5c10.667 -7.33301 25 -14.5 43 -21.5s40.5 -14.333 67.5 -22s52 -14 75 -19s43.833 -7.5 62.5 -7.5c10.667 0 19 -0.666992 25 -2h22c9.33301 0 15.666 0.666992 18.999 2
c6.66699 0 12 0.666992 16 2c-3.33301 14.667 -6.83301 31.167 -10.5 49.5s-7.16699 37.833 -10.5 58.5c-2.66699 24.667 -5.66699 47.667 -9 69s-7 41 -11 59c-14 -2 -28.333 -9.66699 -43 -23c-2 -1.33301 -10.667 -11 -26 -29zM1180 234l248.996 -0.00292969
c0 22.667 -2 51.667 -6 87s-11 82.666 -21 141.999c-5.33301 43.333 -14.666 103.333 -27.999 180l-20 115c-22 102 -34.333 154.333 -37 157l-17 35c0 4.66699 -3.33301 13.667 -10 27c5.33301 6.66699 14.666 21 27.999 43l17 26l51 78
c18.667 30.667 34.334 53.334 47.001 68.001c7.33301 -28.667 17.833 -56.834 31.5 -84.501s29.834 -54.167 48.501 -79.5c31.333 -46 60.666 -76.667 87.999 -92c-5.33301 -8.66699 -12 -17.667 -20 -27s-14.333 -16 -19 -20l-45 -51v-6c0 -2 1.33301 -18.667 4 -50
s4 -62.666 4 -93.999c5.33301 -47.333 8.66602 -78 9.99902 -92s7 -57 17 -129l6 -69.5c2 -22.333 4.66699 -46.166 8 -71.499c0 -26 -4 -63.667 -12 -113c-2.66699 -14 -6.5 -31.333 -11.5 -52s-10.833 -42.334 -17.5 -65.001c-3.33301 -14 -5.66602 -24.333 -6.99902 -31
s-5 -20 -11 -40c-2 -13.333 -10.667 -23 -26 -29c-6.66699 -3.33301 -14.334 -5.83301 -23.001 -7.5s-18.334 -3.16699 -29.001 -4.5l-14 2h-299c-26 0 -50 6 -72 18c-25.333 14.667 -38 34 -38 58c-19.333 -34 -45.666 -56 -78.999 -66c-22 -6.66699 -55.333 -10 -100 -10
h-161c-37.333 0 -73.166 24.333 -107.499 73s-54.5 104 -60.5 166c-18 -7.33301 -37.333 -25.666 -58 -54.999l-55 -80c-24.667 -25.333 -48.667 -38 -72 -38h-6l-21 4c-13.333 4 -27 8.33301 -41 13c-3.33301 1.33301 -15.333 5.66602 -36 12.999
c-9.33301 3.33301 -30 9.33301 -62 18c-8 2 -26.333 7.33301 -55 16c-23.333 6 -46 11.333 -68 16s-42.333 8.33398 -61 11.001c2 14 4.66699 29.667 8 47c0.666992 4 4 17.5 10 40.5l18.5 70c6.33301 23.667 12.5 43.167 18.5 58.5c12 29.333 21 50 27 62
c9.33301 18.667 18.333 33.334 27 44.001c28.667 36 78.334 72.667 149.001 110c40 20 78.167 36.333 114.5 49s70.5 20.334 102.5 23.001l-16 72l163 190l27 -215c6 -68 11.167 -121.333 15.5 -160l7.5 -67c10 -78.667 20.333 -139.667 31 -183
c3.33301 -18 15.666 -32 36.999 -42c4.66699 -4 10.334 -6.83301 17.001 -8.5s15.667 -3.16699 27 -4.5c10.667 0 18.334 0.666992 23.001 2c6.66699 2 11.334 3 14.001 3h152c0 63.333 -4.66699 136.5 -14 219.5s-20.333 169.5 -33 259.5l-41 243l170 230
c4.66699 -28.667 11 -82.334 19 -161.001c4.66699 -46.667 9.66699 -93.334 15 -140.001l37 -348c0 -55.333 3 -104.666 9 -147.999l12 -67c0 -29.333 4.66699 -50.666 14 -63.999c9.33301 -16 28 -24 56 -24h67h-67zM970.997 1380c0 -26 -2.33203 -47.833 -6.99902 -65.5
s-12 -34.5 -22 -50.5c-17.333 -29.333 -41.333 -44 -72 -44c-8 0 -14 0.666992 -18 2l-14 2l-17 7l-12 10c-4 -20.667 -15.667 -39.667 -35 -57c-11.333 -8 -22.333 -14.167 -33 -18.5s-21.334 -6.5 -32.001 -6.5c-21.333 0 -39.333 9 -54 27c-16.667 20.667 -25 46 -25 76
c0 12 1 22.167 3 30.5l4 16.5c0.666992 2.66699 2.66699 8 6 16l10 33l21 4c0 -34.667 3.33301 -61.334 10 -80.001c4 -16.667 13 -25 27 -25c18.667 0 37 12.667 55 38c6.66699 10.667 12 25.334 16 44.001c0.666992 2 2.83398 11.5 6.50098 28.5s6.16699 31.5 7.5 43.5
l19 6c1.33301 -4.66699 3 -12.334 5 -23.001s3.83301 -18.5 5.5 -23.5s4.16699 -10.5 7.5 -16.5s5.66602 -10.333 6.99902 -13c8 -10 18 -16 30 -18c44 0 66 46.667 66 140l20 10l4 -25c4 -12 6 -21.667 6 -29c2 -1.33301 3 -6.66602 3 -15.999
c0 -11.333 0.666992 -19 2 -23z" />
    <glyph glyph-name="STX" unicode="&#xf202;" horiz-adv-x="2005" 
d="M1560 -495c-7.33301 -7.33301 -17.001 -10 -29.001 -8c-10.667 0 -18.667 2.66699 -24 8l-104 98c-16 10.667 -23 21 -21 31c0 6.66699 3.33301 15 10 25l109 102c3.33301 5.33301 8.33301 9.33301 15 12s13.334 4 20.001 4c12 -2.66699 18.667 -4.66699 20 -6l119 -112
c5.33301 -8 8 -15.667 8 -23c0 -12 -8 -23 -24 -33zM931.999 -82c-30 26.667 -82.6689 64.3291 -158.002 112.996s-151 93.667 -227 135c-88.667 48 -161 82 -217 102c6.66699 28.667 17.334 58.334 32.001 89.001c22.667 48 52.667 94.333 90 139
c-88 -29.333 -161 -60.666 -219 -93.999c-49.333 -28.667 -89.666 -60.334 -120.999 -95.001l38 -238l48 -320c18.667 -130 30.667 -219 36 -267l-109 -201c0 70 -8.66699 172 -26 306c-13.333 103.333 -31.666 222.666 -54.999 357.999
c-19.333 112.667 -34.666 192.334 -45.999 239.001c26 74.667 56.333 144.334 91 209.001c32 59.333 66 112 102 158c35.333 56 113.333 107.333 234 154c111.333 43.333 257.666 82 438.999 116c16 3.33301 29.167 5.66602 39.5 6.99902s18.5 2 24.5 2
c8 0 12 -3.66699 12 -11l-2 -16c0 -75.333 11 -157.166 33 -245.499s45.667 -151.166 71 -188.499c48.667 -70 108.667 -105 180 -105h615c-10.667 68.667 -29.334 128 -56.001 178c-22.667 43.333 -58 91 -106 143l174 245c42 -91.333 72.333 -170.666 91 -237.999
c21.333 -76.667 32 -151.667 32 -225c0 -100 -1.66699 -176.5 -5 -229.5s-11.666 -98.833 -24.999 -137.5h-748c-45.333 0 -82.833 6 -112.5 18s-52.834 32.667 -69.501 62c-2 -5.33301 -15 -31.333 -39 -78c-21.333 -42.667 -35 -70.667 -41 -84zM558.997 526.995
c62.667 -64 111.667 -109.333 147 -136c75.333 -58 158 -100.333 248 -127c-50.667 41.333 -89 98 -115 170c-20 56 -30 110.667 -30 164c-40.667 0 -85.667 -7.66699 -135 -23c-38.667 -12 -77 -28 -115 -48z" />
    <glyph glyph-name="ETX" unicode="&#xf203;" horiz-adv-x="2027" 
d="M1444 1030c-6.66699 -6.66699 -16.333 -9.99902 -29 -9.99902c-10 0 -19 3.33301 -27 10l-108 107c-15.333 8.66699 -23 19.667 -23 33c0 3.33301 1 7 3 11s4.66699 8.33301 8 13l124 119c8 4.66699 15.667 6 23 4c11.333 0 19.5 -1.33301 24.5 -4
s9.83301 -7.33398 14.5 -14.001l74 -75c9.33301 -9.33301 16 -14 20 -14l23 14l90 89c10.667 5.33301 18.667 7.33301 24 6c14 0 26.333 -5.33301 37 -16l111 -109c8 -12 12 -22.333 12 -31c0 -9.33301 -6.66699 -17.333 -20 -24l-111 -109c-10 -7.33301 -21 -10 -33 -8
c-10.667 0 -18.667 2.66699 -24 8l-80 86c-10 11.333 -17.667 17 -23 17c-6 -2 -12.667 -7 -20 -15zM1012 80.001c-2 -5.33301 -15.002 -31.3379 -39.002 -78.0049c-21.333 -42.667 -35 -70.667 -41 -84c-30 26.667 -82.667 64.334 -158 113.001s-151 93.667 -227 135
c-88.667 48 -161 82 -217 102c6.66699 28.667 17.334 58.334 32.001 89.001c22.667 48 52.667 94.333 90 139c-88 -29.333 -161 -60.666 -219 -93.999c-49.333 -28.667 -89.666 -60.334 -120.999 -95.001l38 -238l48 -320c18.667 -130 30.667 -219 36 -267l-109 -201
c0 70 -8.66699 172 -26 306c-13.333 103.333 -31.666 222.666 -54.999 357.999c-19.333 112.667 -34.666 192.334 -45.999 239.001c26 74.667 56.333 144.334 91 209.001c32 59.333 66 112 102 158c35.333 56 113.333 107.333 234 154
c111.333 43.333 257.666 82 438.999 116c16 3.33301 29.167 5.66602 39.5 6.99902s18.5 2 24.5 2c8 0 12 -3.66699 12 -11l-2 -16c0 -75.333 11 -157.166 33 -245.499s45.667 -151.166 71 -188.499c48.667 -70 108.667 -105 180 -105h615
c-10.667 68.667 -29.334 128 -56.001 178c-22.667 43.333 -58 91 -106 143l174 245c42 -91.333 72.333 -170.666 91 -237.999c21.333 -76.667 32 -151.667 32 -225c0 -100 -1.66699 -176.5 -5 -229.5s-11.666 -98.833 -24.999 -137.5h-748c-45.333 0 -82.833 6 -112.5 18
s-52.834 32.667 -69.501 62zM808.999 597.996c-40.667 0 -85.667 -7.66699 -135 -23c-38.667 -12 -77 -28 -115 -48c62.667 -64 111.667 -109.333 147 -136c75.333 -58 158 -100.333 248 -127c-50.667 41.333 -89 98 -115 170c-20 56 -30 110.667 -30 164z" />
    <glyph glyph-name="EOT" unicode="&#xf204;" horiz-adv-x="1962" 
d="M1343 921c-4.66699 0 -9.66602 1 -14.999 3s-9.66602 4.66699 -12.999 8l-109 104c-14.667 12.667 -22 24.334 -22 35.001c0 6.66699 3.33301 15 10 25l125 116c8 5.33301 15.333 8 22 8c16.667 0 29.667 -6.66699 39 -20l76 -73c9.33301 -9.33301 15.666 -14 18.999 -14
c4.66699 0 12 4.66699 22 14l90 85c8 5.33301 17 8 27 8c8 0 14.833 -1.16699 20.5 -3.5s10.5 -6.5 14.5 -12.5l110 -108c8.66699 -10.667 13 -20.334 13 -29.001c0 -9.33301 -7 -18.333 -21 -27l-112 -108c-2.66699 -2.66699 -6.83398 -4.66699 -12.501 -6
s-11.167 -2 -16.5 -2c-10 0 -19 2.66699 -27 8l-80 86c-10.667 8.66699 -18 13 -22 13c-3.33301 0 -10.333 -4.33301 -21 -13l-90 -86c-5.33301 -7.33301 -14.333 -11 -27 -11zM330.001 172c-32 -78.667 -71.001 -129.664 -117.001 -152.997
c-24.667 -12.667 -65 -19 -121 -19h-119v264h267c32.667 0 60.667 17.333 84 52c15.333 22.667 37.666 69.667 66.999 141c43.333 98 99.333 173.333 168 226c60.667 46.667 122.667 70 186 70c40.667 0 70.334 -7.66699 89.001 -23c16.667 -13.333 32.667 -41 48 -83
l105 -303c10 -18.667 18.833 -31.667 26.5 -39s19.167 -15 34.5 -23c16.667 -10 35 -15.5 55 -16.5s45.667 -1.5 77 -1.5h586c-10 68 -28.667 127.333 -56 178c-22.667 41.333 -58.667 89 -108 143l176 245c40 -88.667 70.167 -170 90.5 -244s30.5 -147 30.5 -219
c0 -126.667 -2 -211.834 -6 -255.501s-11 -80.834 -21 -111.501h-785l-124 43c-2 -2.66699 -18 -35.334 -48 -98.001c-13.333 -27.333 -24.333 -46.333 -33 -57c-59.333 20 -148.666 61 -267.999 123c-107.333 56 -202 109.667 -284 161zM682 531.003
c-38 0 -71.667 -10.168 -101 -30.501s-50.333 -48.833 -63 -85.5c38 -23.333 80.667 -47 128 -71c62 -31.333 115 -52.666 159 -63.999c0 46.667 -12.667 98.667 -38 156c-28 63.333 -56.333 95 -85 95zM1515 1228c-7.33301 -7.33301 -16.667 -10.001 -28 -8.00098
c-10.667 0 -18.667 2.66699 -24 8l-105 99c-16 10.667 -23 21 -21 31c0 7.33301 3.33301 15.333 10 24l110 103c3.33301 5.33301 8.33301 9.33301 15 12s13 4 19 4c12 -2.66699 18.667 -4.66699 20 -6l120 -113c5.33301 -7.33301 8 -14.666 8 -21.999
c0 -12 -8.33301 -23 -25 -33z" />
    <glyph glyph-name="ENQ" unicode="&#xf205;" horiz-adv-x="1687" 
d="M559 527c62.667 -64 111.667 -109.333 147 -136c75.333 -58 158 -100.333 248 -127c-49.333 40 -87 93.333 -113 160c-21.333 54.667 -32 107.667 -32 159v15c-40.667 0 -85.667 -7.66699 -135 -23c-38.667 -12 -77 -28 -115 -48zM1522 264
c0 50 -7.66797 130.667 -23.001 242c-12.667 91.333 -31 208.666 -55 351.999c-20.667 136 -36.667 229.333 -48 280c-8 36 -15.333 60 -22 72l-29 58l75 112c30.667 46.667 53 82.334 67 107.001c12.667 -46 34 -92.667 64 -140c35.333 -55.333 76 -100.333 122 -135
c-7.33301 -10.667 -27 -31.334 -59 -62.001c-22 -21.333 -34.333 -40.666 -37 -57.999c0 -5.33301 5.66699 -55.666 17 -150.999c16.667 -138.667 27.667 -234.667 33 -288c12 -116.667 18 -194.334 18 -233.001v-11c0 -45.333 -4.66699 -101 -14 -167
c-11.333 -80.667 -25.666 -140.667 -42.999 -180c-12.667 -28 -29 -46 -49 -54c-12.667 -5.33301 -34 -8 -64 -8h-281zM1194 0c-45.333 0 -82.834 5.99609 -112.501 17.9961s-52.834 32.667 -69.501 62c-2 -5.33301 -15 -31.333 -39 -78
c-21.333 -42.667 -35 -70.667 -41 -84c-30 26.667 -82.667 64.334 -158 113.001s-151 93.667 -227 135c-88.667 48 -161 82 -217 102c6.66699 28.667 17.334 58.334 32.001 89.001c22.667 48 52.667 94.333 90 139c-88 -29.333 -161 -60.666 -219 -93.999
c-49.333 -28.667 -89.666 -60.334 -120.999 -95.001l38 -238l48 -320c18.667 -130 30.667 -219 36 -267l-109 -201c0 70 -8.66699 172 -26 306c-13.333 103.333 -31.666 222.666 -54.999 357.999c-19.333 112.667 -34.666 192.334 -45.999 239.001
c26 74.667 56.333 144.334 91 209.001c32 59.333 66 112 102 158c35.333 56 113.333 107.333 234 154c111.333 43.333 257.666 82 438.999 116c16 3.33301 29.167 5.66602 39.5 6.99902s18.5 2 24.5 2c8 0 12 -3.66699 12 -11l-2 -16l-2 -35
c0 -71.333 12 -148.666 36 -231.999c21.333 -74 44.666 -129.667 69.999 -167c23.333 -33.333 50.833 -59.166 82.5 -77.499s64.167 -27.5 97.5 -27.5h300z" />
    <glyph glyph-name="ACK" unicode="&#xf206;" horiz-adv-x="2005" 
d="M1753 1139l-98.001 -99.001c-7.33301 -7.33301 -17 -10 -29 -8c-10.667 0 -18.667 2.66699 -24 8l-105 99c-15.333 10.667 -22 21 -20 31c0 7.33301 3.33301 15.333 10 24l109 103c3.33301 5.33301 8.33301 9.33301 15 12s13.334 4 20.001 4
c12 -2.66699 18.667 -4.66699 20 -6l119 -113c5.33301 -7.33301 8 -14.666 8 -21.999c0 -12 -8.33301 -23 -25 -33zM1012 79.999c-2 -5.33301 -15.002 -31.3379 -39.002 -78.0049c-21.333 -42.667 -35 -70.667 -41 -84c-30 26.667 -82.667 64.334 -158 113.001
s-151 93.667 -227 135c-88.667 48 -161 82 -217 102c6.66699 28.667 17.334 58.334 32.001 89.001c22.667 48 52.667 94.333 90 139c-88 -29.333 -161 -60.666 -219 -93.999c-49.333 -28.667 -89.666 -60.334 -120.999 -95.001l38 -238l48 -320
c18.667 -130 30.667 -219 36 -267l-109 -201c0 70 -8.66699 172 -26 306c-13.333 103.333 -31.666 222.666 -54.999 357.999c-19.333 112.667 -34.666 192.334 -45.999 239.001c26 74.667 56.333 144.334 91 209.001c32 59.333 66 112 102 158
c35.333 56 113.333 107.333 234 154c111.333 43.333 257.666 82 438.999 116c16 3.33301 29.167 5.66602 39.5 6.99902s18.5 2 24.5 2c8 0 12 -3.66699 12 -11l-2 -16c0 -75.333 11 -157.166 33 -245.499s45.667 -151.166 71 -188.499c48.667 -70 108.667 -105 180 -105h615
c-10.667 68.667 -29.334 128 -56.001 178c-22.667 43.333 -58 91 -106 143l174 245c42 -91.333 72.333 -170.666 91 -237.999c21.333 -76.667 32 -151.667 32 -225c0 -100 -1.66699 -176.5 -5 -229.5s-11.666 -98.833 -24.999 -137.5h-748c-45.333 0 -82.833 6 -112.5 18
s-52.834 32.667 -69.501 62zM808.997 597.994c-40.667 0 -85.667 -7.66699 -135 -23c-38.667 -12 -77 -28 -115 -48c62.667 -64 111.667 -109.333 147 -136c75.333 -58 158 -100.333 248 -127c-50.667 41.333 -89 98 -115 170c-20 56 -30 110.667 -30 164z" />
    <glyph glyph-name="parenleft" unicode="&#xf209;" horiz-adv-x="500" 
 />
    <glyph glyph-name="CR" unicode="&#xf20c;" horiz-adv-x="45" 
d="M45 0h-45v1628h45v-1628z" />
    <glyph glyph-name="FF" unicode="&#xf20d;" horiz-adv-x="45" 
d="M160 1496l-30 -30l-85 85v-1551h-45v1550l-84 -84l-30 30l107 107l-107 107l30 30l107 -107l107 107l30 -30l-107 -107z" />
    <glyph glyph-name="SO" unicode="&#xf20e;" horiz-adv-x="45" 
d="M303 1604l-137 -138l-31 31l86 86h-176v-1583h-45v1628h217l-82 82l31 31z" />
    <glyph glyph-name="SI" unicode="&#xf20f;" horiz-adv-x="45" 
d="M45 0h-45v1583h-176l86 -86l-31 -31l-137 138l137 137l31 -31l-82 -82h217v-1628z" />
    <glyph glyph-name="DLE" unicode="&#xf210;" horiz-adv-x="2175" 
d="M836 264c-40.667 -15.333 -82.0029 -42.999 -124.003 -82.999l-108 -107c-31.333 -29.333 -69.666 -50.333 -114.999 -63c-34 -9.33301 -72 -14 -114 -14c-17.333 0 -32.833 0.333008 -46.5 1l-39.5 2h-371v264h451c74 0 142.667 13.333 206 40
c90.667 38 163.334 63 218.001 75c-70.667 41.333 -152.167 77.333 -244.5 108s-164.5 46 -216.5 46c-58.667 0 -109 -8.33301 -151 -25c-36 -14 -71 -36.667 -105 -68c21.333 110.667 58.333 191 111 241c37.333 35.333 94 62.333 170 81c18 4 37.333 6 58 6
c55.333 0 125.333 -13 210 -39c74 -22.667 162.667 -56.667 266 -102c68.667 -30 138.667 -50.333 210 -61c50 -7.33301 114.667 -11 194 -11h87c-14.667 -22.667 -34.334 -60.334 -59.001 -113.001l-55 -116c-41.333 8 -82.333 12 -123 12c-42 0 -81 -3.16699 -117 -9.5
s-69.333 -15.5 -100 -27.5c10 -24.667 31.333 -37 64 -37h734c0 46.667 -11 147.334 -33 302.001c-19.333 134 -41.666 271.833 -66.999 413.5s-42.333 219.167 -51 232.5c-5.33301 14 -11 26.5 -17 37.5l-18 34.5l91 133l58 80c0 -56 19 -110.333 57 -163
c32 -44.667 76 -85.334 132 -122.001c-2 -2.66699 -21.333 -24.667 -58 -66c-18 -20.667 -32 -37.334 -42 -50.001c0 -37.333 7.66699 -135.166 23 -293.499s30 -289.5 44 -393.5c2.66699 -26.667 13.334 -49 32.001 -67s52.334 -38 101.001 -60
c44 -15.333 72.833 -30 86.5 -44s20.5 -33.333 20.5 -58c0 -45.333 -8.66699 -90.333 -26 -135s-40.333 -86.334 -69 -125.001c-23.333 28.667 -52.833 49.167 -88.5 61.5s-80.834 18.5 -135.501 18.5h-793c-38 0 -70.333 27.833 -97 83.5s-40 115.834 -40 180.501z" />
    <glyph glyph-name="DC1" unicode="&#xf211;" horiz-adv-x="2175" 
d="M836 264c-40.667 -15.333 -82.0029 -42.999 -124.003 -82.999l-108 -107c-31.333 -29.333 -69.666 -50.333 -114.999 -63c-34 -9.33301 -72 -14 -114 -14c-17.333 0 -32.833 0.333008 -46.5 1l-39.5 2h-371v264h451c74 0 142.667 13.333 206 40
c90.667 38 163.334 63 218.001 75c-70.667 41.333 -152.167 77.333 -244.5 108s-164.5 46 -216.5 46c-58.667 0 -109 -8.33301 -151 -25c-36 -14 -71 -36.667 -105 -68c21.333 110.667 58.333 191 111 241c37.333 35.333 94 62.333 170 81c18 4 37.333 6 58 6
c55.333 0 125.333 -13 210 -39c74 -22.667 162.667 -56.667 266 -102c68.667 -30 138.667 -50.333 210 -61c50 -7.33301 114.667 -11 194 -11h87c-14.667 -22.667 -34.334 -60.334 -59.001 -113.001l-55 -116c-41.333 8 -82.333 12 -123 12c-42 0 -81 -3.16699 -117 -9.5
s-69.333 -15.5 -100 -27.5c10 -24.667 31.333 -37 64 -37h734c0 46.667 -11 147.334 -33 302.001c-19.333 134 -41.666 271.833 -66.999 413.5s-42.333 219.167 -51 232.5c-5.33301 14 -11 26.5 -17 37.5l-18 34.5l91 133l58 80c0 -56 19 -110.333 57 -163
c32 -44.667 76 -85.334 132 -122.001c-2 -2.66699 -21.333 -24.667 -58 -66c-18 -20.667 -32 -37.334 -42 -50.001c0 -37.333 7.66699 -135.166 23 -293.499s30 -289.5 44 -393.5c2.66699 -26.667 13.334 -49 32.001 -67s52.334 -38 101.001 -60
c44 -15.333 72.833 -30 86.5 -44s20.5 -33.333 20.5 -58c0 -45.333 -8.66699 -90.333 -26 -135s-40.333 -86.334 -69 -125.001c-23.333 28.667 -52.833 49.167 -88.5 61.5s-80.834 18.5 -135.501 18.5h-793c-38 0 -70.333 27.833 -97 83.5s-40 115.834 -40 180.501z
M480.997 -306.999l-102 -100c-7.33301 -7.33301 -16.333 -10 -27 -8c-10 0 -18.667 2.66699 -26 8l-101 100c-14.667 8.66699 -22 19 -22 31c0 7.33301 3.33301 15.333 10 24l107 103c11.333 11.333 23 16 35 14c10 0 18 -2 24 -6l117 -111
c6.66699 -8.66699 10 -16.667 10 -24c0 -10.667 -8.33301 -21 -25 -31z" />
    <glyph glyph-name="DC2" unicode="&#xf212;" horiz-adv-x="1806" 
d="M555 -82c-6 -6 -14.667 -9 -26 -9c-12 0 -21 3 -27 9l-105 96c-14.667 10.667 -22 20.667 -22 30c0 6 3.33301 14.667 10 26l111 102c9.33301 12 20.333 17 33 15c3.33301 0 7 -0.5 11 -1.5s7.66699 -2.83301 11 -5.5l119 -110c5.33301 -7.33301 8 -15 8 -23
c0 -11.333 -8.33301 -22.333 -25 -33zM1149 264h404.999c0 50 -7.66699 130.667 -23 242c-12.667 91.333 -31 208.666 -55 351.999c-20.667 136 -36.667 229.333 -48 280c-8 36 -15.333 60 -22 72l-28 58l74 112c30.667 46.667 53 82.334 67 107.001
c12.667 -45.333 34.334 -92 65.001 -140c36 -56 76.333 -101 121 -135c-7.33301 -10.667 -27 -31.334 -59 -62.001c-22 -21.333 -34.333 -40.666 -37 -57.999c0 -5.33301 5.66699 -55.666 17 -150.999c16.667 -138.667 27.667 -234.667 33 -288
c12 -116.667 18 -194.334 18 -233.001v-11c0 -49.333 -4.33301 -105 -13 -167c-11.333 -79.333 -26 -139.333 -44 -180c-12.667 -28 -29 -46 -49 -54c-12.667 -5.33301 -34 -8 -64 -8h-362zM1176 0c-80 0 -132.169 1 -156.502 3s-48.166 8 -71.499 18
c-44 20 -81 57.667 -111 113c-38 70.667 -57 160.334 -57 269.001c0 68.667 8.33301 146 25 232c-62 -12.667 -111.833 -26 -149.5 -40s-75.167 -33.333 -112.5 -58c-121.333 -75.333 -216.5 -162.666 -285.5 -261.999s-103.5 -195 -103.5 -287
c0 -108.667 43.333 -202.334 130 -281.001c80 -72.667 176.333 -115.667 289 -129c20 -3.33301 46.333 -6.16602 79 -8.49902s74.667 -3.5 126 -3.5c32 0 57.333 0.333008 76 1c92.667 3.33301 147.334 5 164.001 5c30 0 75.667 3.5 137 10.5l178 20.5
c-34 -25.333 -61.333 -46.666 -82 -63.999c-18 -14.667 -37.667 -32.334 -59 -53.001c-80 -74.667 -158.667 -125.667 -236 -153c-65.333 -22.667 -150.333 -34 -255 -34c-218.667 0 -378.334 46.667 -479.001 140c-102.667 95.333 -154 247.666 -154 456.999
c0 175.333 41.333 334 124 476s194.334 247.333 335.001 316c-42.667 9.33301 -92.167 17.166 -148.5 23.499s-102.5 9.5 -138.5 9.5c-62.667 0 -113.167 -8.83301 -151.5 -26.5s-63.166 -46.5 -74.499 -86.5v33c0 122.667 34 211.667 102 267
c45.333 36.667 98.666 55 159.999 55c41.333 0 91 -3.66699 149 -11c26 -3.33301 69.5 -10 130.5 -20s116.167 -18 165.5 -24c74 -8.66699 143.667 -13 209 -13c77.333 0 148.333 6.66699 213 20l-97 -264c-42 0 -75.5 -1.5 -100.5 -4.5s-43.167 -6.83301 -54.5 -11.5
c-4 -15.333 -6.83301 -30.333 -8.5 -45s-2.5 -31 -2.5 -49c0 -82 26 -148.667 78 -200s119.667 -77 203 -77h231z" />
    <glyph glyph-name="DC3" unicode="&#xf213;" horiz-adv-x="1806" 
d="M1149 264h404.999c0 50 -7.66699 130.667 -23 242c-12.667 91.333 -31 208.666 -55 351.999c-20.667 136 -36.667 229.333 -48 280c-8 36 -15.333 60 -22 72l-28 58l74 112c30.667 46.667 53 82.334 67 107.001c12.667 -45.333 34.334 -92 65.001 -140
c36 -56 76.333 -101 121 -135c-7.33301 -10.667 -27 -31.334 -59 -62.001c-22 -21.333 -34.333 -40.666 -37 -57.999c0 -5.33301 5.66699 -55.666 17 -150.999c16.667 -138.667 27.667 -234.667 33 -288c12 -116.667 18 -194.334 18 -233.001v-11
c0 -49.333 -4.33301 -105 -13 -167c-11.333 -79.333 -26 -139.333 -44 -180c-12.667 -28 -29 -46 -49 -54c-12.667 -5.33301 -34 -8 -64 -8h-362zM1176 0c-80 0 -132.169 1 -156.502 3s-48.166 8 -71.499 18c-44 20 -81 57.667 -111 113c-38 70.667 -57 160.334 -57 269.001
c0 68.667 8.33301 146 25 232c-62 -12.667 -111.833 -26 -149.5 -40s-75.167 -33.333 -112.5 -58c-121.333 -75.333 -216.5 -162.666 -285.5 -261.999s-103.5 -195 -103.5 -287c0 -108.667 43.333 -202.334 130 -281.001c80 -72.667 176.333 -115.667 289 -129
c20 -3.33301 46.333 -6.16602 79 -8.49902s74.667 -3.5 126 -3.5c32 0 57.333 0.333008 76 1c92.667 3.33301 147.334 5 164.001 5c30 0 75.667 3.5 137 10.5l178 20.5c-34 -25.333 -61.333 -46.666 -82 -63.999c-18 -14.667 -37.667 -32.334 -59 -53.001
c-80 -74.667 -158.667 -125.667 -236 -153c-65.333 -22.667 -150.333 -34 -255 -34c-218.667 0 -378.334 46.667 -479.001 140c-102.667 95.333 -154 247.666 -154 456.999c0 175.333 41.333 334 124 476s194.334 247.333 335.001 316
c-42.667 9.33301 -92.167 17.166 -148.5 23.499s-102.5 9.5 -138.5 9.5c-62.667 0 -113.167 -8.83301 -151.5 -26.5s-63.166 -46.5 -74.499 -86.5v33c0 122.667 34 211.667 102 267c45.333 36.667 98.666 55 159.999 55c41.333 0 91 -3.66699 149 -11
c26 -3.33301 69.5 -10 130.5 -20s116.167 -18 165.5 -24c74 -8.66699 143.667 -13 209 -13c77.333 0 148.333 6.66699 213 20l-97 -264c-42 0 -75.5 -1.5 -100.5 -4.5s-43.167 -6.83301 -54.5 -11.5c-4 -15.333 -6.83301 -30.333 -8.5 -45s-2.5 -31 -2.5 -49
c0 -82 26 -148.667 78 -200s119.667 -77 203 -77h231z" />
    <glyph glyph-name="DC4" unicode="&#xf214;" horiz-adv-x="1806" 
d="M1149 264h404.999c0 50 -7.66699 130.667 -23 242c-12.667 91.333 -31 208.666 -55 351.999c-20.667 136 -36.667 229.333 -48 280c-8 36 -15.333 60 -22 72l-28 58l74 112c30.667 46.667 53 82.334 67 107.001c12.667 -45.333 34.334 -92 65.001 -140
c36 -56 76.333 -101 121 -135c-7.33301 -10.667 -27 -31.334 -59 -62.001c-22 -21.333 -34.333 -40.666 -37 -57.999c0 -5.33301 5.66699 -55.666 17 -150.999c16.667 -138.667 27.667 -234.667 33 -288c12 -116.667 18 -194.334 18 -233.001v-11
c0 -49.333 -4.33301 -105 -13 -167c-11.333 -79.333 -26 -139.333 -44 -180c-12.667 -28 -29 -46 -49 -54c-12.667 -5.33301 -34 -8 -64 -8h-362zM665.999 1073c-6 -6.66699 -15 -10 -27 -10s-21 3.33301 -27 10l-104 95c-15.333 10 -23 20 -23 30c0 6 3.33301 14.667 10 26
l111 102c9.33301 12 20.333 17 33 15c3.33301 0 7 -0.5 11 -1.5s7.66699 -2.83301 11 -5.5l119 -110c5.33301 -7.33301 8 -15 8 -23c0 -11.333 -8.33301 -22.333 -25 -33zM1176 0c-80 0 -132.169 1 -156.502 3s-48.166 8 -71.499 18c-44 20 -81 57.667 -111 113
c-38 70.667 -57 160.334 -57 269.001c0 68.667 8.33301 146 25 232c-62 -12.667 -111.833 -26 -149.5 -40s-75.167 -33.333 -112.5 -58c-121.333 -75.333 -216.5 -162.666 -285.5 -261.999s-103.5 -195 -103.5 -287c0 -108.667 43.333 -202.334 130 -281.001
c80 -72.667 176.333 -115.667 289 -129c20 -3.33301 46.333 -6.16602 79 -8.49902s74.667 -3.5 126 -3.5c32 0 57.333 0.333008 76 1c92.667 3.33301 147.334 5 164.001 5c30 0 75.667 3.5 137 10.5l178 20.5c-34 -25.333 -61.333 -46.666 -82 -63.999
c-18 -14.667 -37.667 -32.334 -59 -53.001c-80 -74.667 -158.667 -125.667 -236 -153c-65.333 -22.667 -150.333 -34 -255 -34c-218.667 0 -378.334 46.667 -479.001 140c-102.667 95.333 -154 247.666 -154 456.999c0 175.333 41.333 334 124 476
s194.334 247.333 335.001 316c-42.667 9.33301 -92.167 17.166 -148.5 23.499s-102.5 9.5 -138.5 9.5c-62.667 0 -113.167 -8.83301 -151.5 -26.5s-63.166 -46.5 -74.499 -86.5v33c0 122.667 34 211.667 102 267c45.333 36.667 98.666 55 159.999 55
c41.333 0 91 -3.66699 149 -11c26 -3.33301 69.5 -10 130.5 -20s116.167 -18 165.5 -24c74 -8.66699 143.667 -13 209 -13c77.333 0 148.333 6.66699 213 20l-97 -264c-42 0 -75.5 -1.5 -100.5 -4.5s-43.167 -6.83301 -54.5 -11.5c-4 -15.333 -6.83301 -30.333 -8.5 -45
s-2.5 -31 -2.5 -49c0 -82 26 -148.667 78 -200s119.667 -77 203 -77h231z" />
    <glyph glyph-name="NAK" unicode="&#xf215;" horiz-adv-x="1315" 
d="M766 195c0 -64 -18.3398 -145.33 -55.0068 -243.997s-75.334 -175.834 -116.001 -231.501s-83.5 -98.167 -128.5 -127.5s-88.5 -44 -130.5 -44c-71.333 0 -150.666 7.5 -237.999 22.5s-168.333 33.833 -243 56.5c-13.333 2.66699 -27.333 6.66699 -42 12
s-22 9.66602 -22 12.999c0 4 10.333 6 31 6c10 0 24.333 -0.333008 43 -1s32.334 -1 41.001 -1c46.667 0 89 3.16699 127 9.5s81.333 19.166 130 38.499s96.667 43.166 144 71.499s88.333 58.166 123 89.499c63.333 54 116.166 113.667 158.499 179
s73.5 134.666 93.5 207.999c-13.333 -4.66699 -28.666 -11 -45.999 -19l-34 -16c-26 -11.333 -50.333 -25 -73 -41l32 229c13.333 13.333 30.833 26.333 52.5 39s48.5 25.667 80.5 39c21.333 10 49.333 20.667 84 32c23.333 8 55.333 18 96 30
c54.667 14 109.334 26 164.001 36c6.66699 1.33301 15.834 2.33301 27.501 3s18.834 1 21.501 1c10.667 0 18.334 -0.5 23.001 -1.5s8.5 -3.5 11.5 -7.5s5.5 -15.667 7.5 -35l-2 -33v-37c0 -23.333 0.5 -41.666 1.5 -54.999s3.16699 -29 6.5 -47c8 -36 23.667 -62 47 -78
c28 -20.667 66.333 -31 115 -31h81v-260h-194c-33.333 0 -62.166 5.83301 -86.499 17.5s-45.5 29.834 -63.5 54.501c-26.667 38.667 -40 90.334 -40 155.001v22c0 7.33301 0.833008 17 2.5 29s2.66699 20 3 24s1.83301 11.333 4.5 22c-13.333 0 -23.666 -0.5 -30.999 -1.5
s-22.333 -3.5 -45 -7.5l-82 -18l-80 -23v-79zM984.993 -392.997c-6 -6 -14.668 -9 -26.001 -9c-10 0 -18.667 3 -26 9l-102 96c-14.667 10 -22 20 -22 30c0 7.33301 3.33301 15.666 10 24.999l108 103c3.33301 5.33301 8.33301 9.5 15 12.5s13.334 4.5 20.001 4.5
c13.333 -3.33301 21 -5.66602 23 -6.99902l114 -113c4 -4 6.5 -8 7.5 -12l2.5 -10c0 -10.667 -7.33301 -21.667 -22 -33z" />
    <glyph glyph-name="SYN" unicode="&#xf216;" horiz-adv-x="1315" 
d="M651 751c-8.66699 -6.66699 -16.668 -9.99902 -24.001 -9.99902c-6 0 -11.667 1.33301 -17 4l-12 6l-102 101c-16.667 10 -25 20 -25 30c0 2 1.33301 5.66699 4 11l8 14l117 113c5.33301 2.66699 12 4 20 4c15.333 0 28 -5.33301 38 -16l73 -74
c8.66699 -8.66699 14.667 -13 18 -13c2.66699 1.33301 4.66699 2.66602 6 3.99902l15 13l86 82c4 4 12 6 24 6c6 0 12 -1.33301 18 -4s11 -6 15 -10l107 -105c6.66699 -8.66699 10 -17 10 -25c0 -9.33301 -6 -18 -18 -26l-107 -105c-5.33301 -5.33301 -13.666 -8 -24.999 -8
c-10.667 0 -20 2.66699 -28 8l-78 81c-10.667 10.667 -17.667 16 -21 16c-4 0 -10 -4 -18 -12zM765.999 195.001c0 -64 -18.3398 -145.33 -55.0068 -243.997s-75.334 -175.834 -116.001 -231.501s-83.5 -98.167 -128.5 -127.5s-88.5 -44 -130.5 -44
c-71.333 0 -150.666 7.5 -237.999 22.5s-168.333 33.833 -243 56.5c-13.333 2.66699 -27.333 6.66699 -42 12s-22 9.66602 -22 12.999c0 4 10.333 6 31 6c10 0 24.333 -0.333008 43 -1s32.334 -1 41.001 -1c46.667 0 89 3.16699 127 9.5s81.333 19.166 130 38.499
s96.667 43.166 144 71.499s88.333 58.166 123 89.499c63.333 54 116.166 113.667 158.499 179s73.5 134.666 93.5 207.999c-13.333 -4.66699 -28.666 -11 -45.999 -19l-34 -16c-26 -11.333 -50.333 -25 -73 -41l32 229c13.333 13.333 30.833 26.333 52.5 39
s48.5 25.667 80.5 39c21.333 10 49.333 20.667 84 32c23.333 8 55.333 18 96 30c54.667 14 109.334 26 164.001 36c6.66699 1.33301 15.834 2.33301 27.501 3s18.834 1 21.501 1c10.667 0 18.334 -0.5 23.001 -1.5s8.5 -3.5 11.5 -7.5s5.5 -15.667 7.5 -35l-2 -33v-37
c0 -23.333 0.5 -41.666 1.5 -54.999s3.16699 -29 6.5 -47c8 -36 23.667 -62 47 -78c28 -20.667 66.333 -31 115 -31h81v-260h-194c-33.333 0 -62.166 5.83301 -86.499 17.5s-45.5 29.834 -63.5 54.501c-26.667 38.667 -40 90.334 -40 155.001v22
c0 7.33301 0.833008 17 2.5 29s2.66699 20 3 24s1.83301 11.333 4.5 22c-13.333 0 -23.666 -0.5 -30.999 -1.5s-22.333 -3.5 -45 -7.5l-82 -18l-80 -23v-79z" />
    <glyph glyph-name="ETB" unicode="&#xf217;" horiz-adv-x="1315" 
d="M917 -428c-8.66699 -6.66699 -16.666 -10.001 -23.999 -10.001c-6 0 -11.667 1.33301 -17 4l-12 6l-102 100c-16.667 10.667 -25 21 -25 31v4c2 2.66699 3.33301 5 4 7l8 14l117 112c6.66699 3.33301 13.667 5 21 5c14 0 26.333 -5.66699 37 -17l74 -74
c8 -8 14 -12 18 -12c2 2 3.66699 3.33301 5 4c4.66699 3.33301 9.66699 7.33301 15 12l86 82c4.66699 4.66699 13 7 25 7c6 0 11.667 -1.16699 17 -3.5s10.666 -6.16602 15.999 -11.499l106 -104c7.33301 -8 11 -16.333 11 -25c0 -9.33301 -6.33301 -18.333 -19 -27
l-106 -104c-5.33301 -5.33301 -13.666 -8 -24.999 -8c-10 0 -19.667 2.66699 -29 8l-78 80c-10.667 10.667 -17.334 16 -20.001 16c-4 0 -10 -4 -18 -12zM766.001 194.999c0 -64 -18.3398 -145.33 -55.0068 -243.997s-75.334 -175.834 -116.001 -231.501
s-83.5 -98.167 -128.5 -127.5s-88.5 -44 -130.5 -44c-71.333 0 -150.666 7.5 -237.999 22.5s-168.333 33.833 -243 56.5c-13.333 2.66699 -27.333 6.66699 -42 12s-22 9.66602 -22 12.999c0 4 10.333 6 31 6c10 0 24.333 -0.333008 43 -1s32.334 -1 41.001 -1
c46.667 0 89 3.16699 127 9.5s81.333 19.166 130 38.499s96.667 43.166 144 71.499s88.333 58.166 123 89.499c63.333 54 116.166 113.667 158.499 179s73.5 134.666 93.5 207.999c-13.333 -4.66699 -28.666 -11 -45.999 -19l-34 -16c-26 -11.333 -50.333 -25 -73 -41
l32 229c13.333 13.333 30.833 26.333 52.5 39s48.5 25.667 80.5 39c21.333 10 49.333 20.667 84 32c23.333 8 55.333 18 96 30c54.667 14 109.334 26 164.001 36c6.66699 1.33301 15.834 2.33301 27.501 3s18.834 1 21.501 1c10.667 0 18.334 -0.5 23.001 -1.5
s8.5 -3.5 11.5 -7.5s5.5 -15.667 7.5 -35l-2 -33v-37c0 -23.333 0.5 -41.666 1.5 -54.999s3.16699 -29 6.5 -47c8 -36 23.667 -62 47 -78c28 -20.667 66.333 -31 115 -31h81v-260h-194c-33.333 0 -62.166 5.83301 -86.499 17.5s-45.5 29.834 -63.5 54.501
c-26.667 38.667 -40 90.334 -40 155.001v22c0 7.33301 0.833008 17 2.5 29s2.66699 20 3 24s1.83301 11.333 4.5 22c-13.333 0 -23.666 -0.5 -30.999 -1.5s-22.333 -3.5 -45 -7.5l-82 -18l-80 -23v-79z" />
    <glyph glyph-name="CAN" unicode="&#xf218;" horiz-adv-x="2411" 
d="M682 531c-38 0 -71.667 -10.168 -101 -30.501s-50.333 -48.833 -63 -85.5c38 -23.333 80.667 -47 128 -71c62 -31.333 115 -52.666 159 -63.999c0 46.667 -12.667 98.667 -38 156c-28 63.333 -56.333 95 -85 95zM963 -0.000976562l-36.9971 -54
c-16 -23.333 -30.667 -42.666 -44 -57.999c-59.333 20 -148.666 61 -267.999 123c-107.333 56 -202 109.667 -284 161c-32 -78.667 -71 -129.667 -117 -153c-24.667 -12.667 -65 -19 -121 -19h-119v264h267c32.667 0 60.667 17.333 84 52
c15.333 22.667 37.666 69.667 66.999 141c43.333 98 99.333 173.333 168 226c60.667 46.667 122.667 70 186 70c40.667 0 70.334 -7.66699 89.001 -23c16.667 -13.333 32.667 -41 48 -83l105 -303c10 -18.667 18.833 -31.667 26.5 -39s19.167 -15 34.5 -23
c16.667 -10 35 -15.5 55 -16.5s45.667 -1.5 77 -1.5h78c19.333 0 34.666 19.333 45.999 58s17 75.334 17 110.001c0 12.667 -1.33301 23 -4 31l172 190l2 -35c0 -53.333 -8.33301 -111.833 -25 -175.5s-35.334 -114.834 -56.001 -153.501
c10.667 -13.333 33.167 -23.166 67.5 -29.499s73.166 -9.5 116.499 -9.5c39.333 0 74.333 1.66699 105 5s53.667 8.33301 69 15c15.333 5.33301 26.666 24.333 33.999 57s11 69 11 109v21v16c-1.33301 8 -2 13.667 -2 17l188 180c0 -93.333 -7.66699 -175.5 -23 -246.5
s-35.333 -124.167 -60 -159.5h264c9.33301 2 14 17.667 14 47c0 25.333 -3 54.166 -9 86.499s-13.333 58.833 -22 79.5c15.333 17.333 36.666 38.666 63.999 63.999c72 67.333 117.667 111 137 131c2 -10.667 3.83301 -29 5.5 -55s2.5 -50.667 2.5 -74
c0 -97.333 -5.66699 -192.666 -17 -285.999c-14 -113.333 -33.667 -199 -59 -257h-485c-13.333 0 -21.666 14 -24.999 42l-6 10c-9.33301 -17.333 -19 -30.333 -29 -39s-22 -13 -36 -13h-359c-22 0 -41.667 17 -59 51l-22 43c-10 -22.667 -23 -42.334 -39 -59.001
c-22.667 -23.333 -42.667 -35 -60 -35h-213z" />
    <glyph glyph-name="EM" unicode="&#xf219;" horiz-adv-x="2411" 
d="M682 531c-38 0 -71.667 -10.168 -101 -30.501s-50.333 -48.833 -63 -85.5c38 -23.333 80.667 -47 128 -71c62 -31.333 115 -52.666 159 -63.999c0 46.667 -12.667 98.667 -38 156c-28 63.333 -56.333 95 -85 95zM1924 1176
c-5.33301 -5.33301 -12.333 -8.00293 -21 -8.00293c-6.66699 0 -12.667 2.66699 -18 8l-77 73c-12 6.66699 -18 14.334 -18 23.001c0 2.66699 2.66699 9.33398 8 20.001l81 76c8 8 17.333 12 28 12c6 0 11.667 -1.33301 17 -4l88 -84c4 -7.33301 6 -13.666 6 -18.999
c0 -8.66699 -6.33301 -16.667 -19 -24zM1788 906.996c-8 0 -14.668 2.66699 -20.001 8l-90 91c-14 7.33301 -21 15.333 -21 24c0 4 2.66699 11.333 8 22l103 97c6 4 12.667 6 20 6c11.333 0 22.333 -5.33301 33 -16l62 -62c7.33301 -8 12.333 -12 15 -12
c2 0 9.33301 4.66699 22 14l73 72c5.33301 4 11.333 6 18 6c13.333 0 23.666 -4.66699 30.999 -14l96 -91c6 -10 9 -18 9 -24c0 -8.66699 -7 -16 -21 -22l-90 -91c-5.33301 -5.33301 -12.666 -8 -21.999 -8c-10 0 -17.667 2.66699 -23 8l-67 70
c-8.66699 10.667 -15 16 -19 16c-3.33301 0 -8.66602 -4.66699 -15.999 -14l-74 -72c-8 -5.33301 -17 -8 -27 -8zM962.999 -0.00390625l-36.998 -54c-16 -23.333 -30.667 -42.666 -44 -57.999c-59.333 20 -148.666 61 -267.999 123c-107.333 56 -202 109.667 -284 161
c-32 -78.667 -71 -129.667 -117 -153c-24.667 -12.667 -65 -19 -121 -19h-119v264h267c32.667 0 60.667 17.333 84 52c15.333 22.667 37.666 69.667 66.999 141c43.333 98 99.333 173.333 168 226c60.667 46.667 122.667 70 186 70c40.667 0 70.334 -7.66699 89.001 -23
c16.667 -13.333 32.667 -41 48 -83l105 -303c10 -18.667 18.833 -31.667 26.5 -39s19.167 -15 34.5 -23c16.667 -10 35 -15.5 55 -16.5s45.667 -1.5 77 -1.5h78c19.333 0 34.666 19.333 45.999 58s17 75.334 17 110.001c0 12.667 -1.33301 23 -4 31l172 190l2 -35
c0 -53.333 -8.33301 -111.833 -25 -175.5s-35.334 -114.834 -56.001 -153.501c10.667 -13.333 33.167 -23.166 67.5 -29.499s73.166 -9.5 116.499 -9.5c39.333 0 74.333 1.66699 105 5s53.667 8.33301 69 15c15.333 5.33301 26.666 24.333 33.999 57s11 69 11 109v21v16
c-1.33301 8 -2 13.667 -2 17l188 180c0 -93.333 -7.66699 -175.5 -23 -246.5s-35.333 -124.167 -60 -159.5h264c9.33301 2 14 17.667 14 47c0 25.333 -3 54.166 -9 86.499s-13.333 58.833 -22 79.5c15.333 17.333 36.666 38.666 64 63.999c72 67.333 117.667 111 137 131
c2 -10.667 3.83301 -29 5.5 -55s2.5 -50.667 2.5 -74c0 -97.333 -5.66699 -192.666 -17 -285.999c-14 -113.333 -33.667 -199 -59 -257h-485c-13.333 0 -21.666 14 -24.999 42l-6 10c-9.33301 -17.333 -19 -30.333 -29 -39s-22 -13 -36 -13h-359c-22 0 -41.667 17 -59 51
l-22 43c-10 -22.667 -23 -42.334 -39 -59.001c-22.667 -23.333 -42.667 -35 -60 -35h-213z" />
    <glyph glyph-name="SUB" unicode="&#xf21a;" horiz-adv-x="1451" 
d="M668 557c0 28.667 -2.5 60.668 -7.5 96.001s-11.5 69.666 -19.5 102.999c-58.667 -30.667 -119.667 -95.667 -183 -195c-54 -85.333 -103 -184.333 -147 -297c35.333 0 91 18.667 167 56c83.333 40.667 137.666 80 162.999 118c8.66699 12 15.334 29 20.001 51
s7 44.667 7 68zM326 -7.99902c0 -40.667 18.6699 -84.667 56.0029 -132c46.667 -59.333 105 -89 175 -89c17.333 0 33.166 1.33301 47.499 4s32.166 8 53.499 16c-10.667 67.333 -50.334 121 -119.001 161c-58 33.333 -119.333 50 -184 50l-29 -2v-8zM915.003 0.000976562
l-178.001 0.00292969c20 -12.667 37 -32.667 51 -60c11.333 -22 19 -45 23 -69c0 -62.667 -13 -118.334 -39 -167.001c-17.333 -32.667 -44.666 -67.667 -81.999 -105c-25.333 -23.333 -57.333 -40.333 -96 -51c-31.333 -8.66699 -66 -13 -104 -13
c-38.667 0 -77.667 10.333 -117 31s-71.666 46.334 -96.999 77.001c-30 40 -55.167 90 -75.5 150s-30.5 115.333 -30.5 166v20.5c0 6.33301 0.666992 13.166 2 20.499h-221v264h223c41.333 137.333 99.666 260.333 174.999 369c64.667 92.667 138.334 171.667 221.001 237
c67.333 53.333 137.333 94.666 210 123.999c0 -28.667 3.33301 -63.667 10 -105c4.66699 -30.667 9.66699 -61.334 15 -92.001c5.33301 -15.333 9 -30.666 11 -45.999s3 -33.666 3 -54.999c0 -84.667 -21 -163.667 -63 -237c-18.667 -35.333 -38 -69.333 -58 -102
c-26.667 -42.667 -49.667 -73.667 -69 -93h286h295c0 37.333 -3.16699 84.166 -9.5 140.499s-15.833 126.166 -28.5 209.499c-10 66 -23.333 147.333 -40 244c-20.667 136 -36.667 229.333 -48 280c-8 36 -15.333 60 -22 72l-28 58l56 84c40 59.333 68.667 104.333 86 135
c12 -45.333 33.333 -92 64 -140c35.333 -56 76 -101 122 -135c-8 -11.333 -27.667 -32 -59 -62c-22.667 -22 -35.334 -41.333 -38.001 -58c0 -5.33301 5.66699 -55.666 17 -150.999c16.667 -138.667 27.667 -234.667 33 -288c12 -116.667 18 -194.334 18 -233.001v-11
c0 -49.333 -4.33301 -105 -13 -167c-11.333 -79.333 -26 -139.333 -44 -180c-12.667 -28 -29 -46 -49 -54c-12.667 -5.33301 -34 -8 -64 -8h-248z" />
    <glyph glyph-name="FS" unicode="&#xf21c;" horiz-adv-x="1685" 
d="M657 -745c-8 -4 -17.333 -6.00098 -28 -6.00098c-8.66699 0 -16 2 -22 6l-105 104c-15.333 8 -23 18.333 -23 31c0 4.66699 3.33301 11.334 10 20.001l118 115c6 4 13.333 6 22 6c12 0 24 -6.33301 36 -19l75 -73c8 -8 13.333 -12 16 -12
c4 1.33301 10.667 6.66602 20 15.999l84 82c8 4 17 6 27 6c14 0 25.667 -4.66699 35 -14l106 -107c8.66699 -8.66699 13 -16.667 13 -24c-2 -10 -9.66699 -19 -23 -27l-104 -102c-7.33301 -5.33301 -17 -8 -29 -8c-8.66699 0 -17 2.66699 -25 8l-77 79
c-10.667 12.667 -17.667 18.334 -21 17.001c-4 0 -10 -4.33301 -18 -13zM125 -203.001c-16 28 -28.166 60.667 -36.499 98s-12.5 75.666 -12.5 114.999c0 82.667 14.667 176 44 280c24 85.333 54.333 166.333 91 243c45.333 70.667 74.333 106 87 106c4.66699 0 7 -4 7 -12
c0 -18 -10 -57.667 -30 -119c-34.667 -98 -52 -197.667 -52 -299c0 -33.333 2 -67.666 6 -102.999c9.33301 -90 59 -157 149 -201c84 -40.667 200.333 -61 349 -61c142 0 260.667 10.5 356 31.5s176.666 52.167 243.999 93.5c-22 50 -55.667 89.333 -101 118
c-33.333 21.333 -79.666 40 -138.999 56c-90.667 24.667 -139.667 38.334 -147 41.001c15.333 32.667 33 74.334 53 125.001c22.667 57.333 36.334 90.666 41.001 99.999c23.333 -4 48.666 -6 75.999 -6c83.333 0 159.333 15 228 45
c76.667 33.333 119.334 76.333 128.001 129c0 58 -5.83301 128.833 -17.5 212.5s-25.167 165.5 -40.5 245.5c-6.66699 35.333 -21.334 104 -44.001 206l179 228c10.667 -75.333 20 -188.333 28 -339c2.66699 -52.667 8 -173.667 16 -363c5.33301 -126 10 -204 14 -234
c-6 -49.333 -50.833 -104.833 -134.5 -166.5s-154.5 -95.834 -212.5 -102.501c57.333 -18.667 102.666 -44 135.999 -76c31.333 -30 48.666 -61.333 51.999 -94c0 -61.333 -5.66699 -119.666 -17 -174.999s-26.666 -92 -45.999 -110
c-93.333 -58 -209.333 -105.833 -348 -143.5s-274 -56.5 -406 -56.5c-111.333 0 -208.333 14.333 -291 43c-91.333 31.333 -161 79.666 -209 144.999z" />
    <glyph glyph-name="GS" unicode="&#xf21d;" horiz-adv-x="1833" 
d="M267 -803c-15.333 10 -22.998 21 -22.998 33c0 6 3.33301 13 10 21l119 114c4 2.66699 10.667 4 20 4c8 0 14.5 -1 19.5 -3s10.833 -6.33301 17.5 -13l72 -74c11.333 -8 17.666 -12 18.999 -12c4 1.33301 11.333 7.33301 22 18l82 80c12 5.33301 20.333 7.33301 25 6
c14 0 25.333 -5.33301 34 -16l109 -104c8.66699 -8.66699 13 -17 13 -25c-1.33301 -5.33301 -4.33301 -10.333 -9 -15s-9.33398 -8 -14.001 -10l-105 -104c-5.33301 -5.33301 -14.666 -8 -27.999 -8c-8.66699 0 -17 2.66699 -25 8l-80 79
c-8.66699 11.333 -15.334 17 -20.001 17c-1.33301 0 -7 -3.33301 -17 -10c-34.667 -34 -63 -58.333 -85 -73c-17.333 -11.333 -31.333 -17 -42 -17c-2.66699 0 -6.66699 1.33301 -12 4zM864.002 264l531.999 -0.00195312c33.333 0 59.333 20 78 60
c16.667 35.333 25 80.333 25 135c0 37.333 -4.33301 71.333 -13 102l195 232c0 -10.667 0.666992 -27 2 -49s2 -39.333 2 -52c0 -57.333 -3.66699 -114.833 -11 -172.5s-17.333 -110.5 -30 -158.5c-1.33301 -2.66699 -2 -7.66699 -2 -15c0 -26.667 19 -47 57 -61
s82.667 -21 134 -21h32v-264h-141c-62 0 -109.333 16 -142 48c-22.667 22 -38.334 53 -47.001 93c-13.333 -45.333 -39.333 -81.333 -78 -108c-32 -22 -63.667 -33 -95 -33h-94c7.33301 -20 12.666 -41.167 15.999 -63.5s5 -44.833 5 -67.5c0 -38 -5 -72.167 -15 -102.5
s-26.333 -56.166 -49 -77.499c-35.333 -33.333 -93.666 -67 -174.999 -101c-88 -36.667 -183 -66 -285 -88c-114.667 -24.667 -227 -37 -337 -37c-142 0 -259 25.667 -351 77c-98.667 55.333 -153.667 133 -165 233c0 8.66699 -0.666992 23.5 -2 44.5s-2 32.833 -2 35.5
c0 93.333 15.333 185.333 46 276c27.333 81.333 68 164 122 248c8.66699 12.667 18.334 23.167 29.001 31.5s20.334 12.166 29.001 11.499c8 0 12 -5.66699 12 -17s-4.66699 -27.333 -14 -48c-28 -63.333 -48.667 -123.5 -62 -180.5s-20 -108.833 -20 -155.5
c0 -31.333 3.33301 -61 10 -89c16.667 -70 52 -123.333 106 -160c44 -30 102.667 -50.333 176 -61c46 -6.66699 107.667 -10 185 -10c147.333 0 277.833 14.167 391.5 42.5s193.834 65.5 240.501 111.5c-16 42.667 -81.333 81.334 -196 116.001c-99.333 30 -186 45 -260 45
c22 80.667 38.333 132.334 49 155.001c29.333 63.333 66.666 95 111.999 95h532h-532zM1570 -452.002c-6 -6.66699 -14.3301 -10.001 -24.9971 -10.001s-19.334 3.33301 -26.001 10l-103 95c-14.667 10.667 -22 20.667 -22 30c0 6 3.33301 14.667 10 26l109 102
c3.33301 6 8.16602 10.333 14.499 13s13.166 4 20.499 4c12.667 -3.33301 20 -5.66602 22 -6.99902l115 -112c4 -4 6.5 -8.16699 7.5 -12.5l2.5 -10.5c0 -10.667 -7.33301 -21.667 -22 -33z" />
    <glyph glyph-name="RS" unicode="&#xf21e;" horiz-adv-x="1833" 
d="M1250 928c-12.667 0 -21.333 3.33301 -26 10l-109 104c-16 10 -24 21 -24 33c0 10 4 19 12 27l123 116c9.33301 6 17.333 9 24 9c14.667 0 27 -7 37 -21l77 -73c8.66699 -9.33301 15 -14 19 -14s11.667 4.66699 23 14l89 85c8 6 16.667 9 26 9c6 0 12 -1.33301 18 -4
s11 -7 15 -13l115 -108c8 -10 12 -19 12 -27c-1.33301 -6 -3.66602 -11.333 -6.99902 -16s-8.66602 -9 -15.999 -13l-110 -108c-3.33301 -2.66699 -7.83301 -4.66699 -13.5 -6s-11.5 -2 -17.5 -2c-8 0 -16 2.66699 -24 8l-85 86c-8.66699 8.66699 -15 13 -19 13
c-4.66699 0 -12.334 -4.33301 -23.001 -13l-87 -86c-2.66699 -2.66699 -6.33398 -5 -11.001 -7s-10.667 -3 -18 -3zM267.001 -803c-15.333 10 -22.998 21 -22.998 33c0 6 3.33301 13 10 21l119 114c4 2.66699 10.667 4 20 4c8 0 14.5 -1 19.5 -3s10.833 -6.33301 17.5 -13
l72 -74c11.333 -8 17.666 -12 18.999 -12c4 1.33301 11.333 7.33301 22 18l82 80c12 5.33301 20.333 7.33301 25 6c14 0 25.333 -5.33301 34 -16l109 -104c8.66699 -8.66699 13 -17 13 -25c-1.33301 -5.33301 -4.33301 -10.333 -9 -15s-9.33398 -8 -14.001 -10l-105 -104
c-5.33301 -5.33301 -14.666 -8 -27.999 -8c-8.66699 0 -17 2.66699 -25 8l-80 79c-8.66699 11.333 -15.334 17 -20.001 17c-1.33301 0 -7 -3.33301 -17 -10c-34.667 -34 -63 -58.333 -85 -73c-17.333 -11.333 -31.333 -17 -42 -17c-2.66699 0 -6.66699 1.33301 -12 4z
M864.003 264h532.001c33.333 0 59.333 20 78 60c16.667 35.333 25 80.333 25 135c0 37.333 -4.33301 71.333 -13 102l195 232c0 -10.667 0.666992 -27 2 -49s2 -39.333 2 -52c0 -57.333 -3.66699 -114.833 -11 -172.5s-17.333 -110.5 -30 -158.5
c-1.33301 -2.66699 -2 -7.66699 -2 -15c0 -26.667 19 -47 57 -61s82.667 -21 134 -21h32v-264h-141c-62 0 -109.333 16 -142 48c-22.667 22 -38.334 53 -47.001 93c-13.333 -45.333 -39.333 -81.333 -78 -108c-32 -22 -63.667 -33 -95 -33zM1360 0l-92.002 -0.00195312
c7.33301 -20 12.666 -41.167 15.999 -63.5s5 -44.833 5 -67.5c0 -38 -5 -72.167 -15 -102.5s-26.333 -56.166 -49 -77.499c-35.333 -33.333 -93.666 -67 -174.999 -101c-88 -36.667 -183 -66 -285 -88c-114.667 -24.667 -227 -37 -337 -37c-142 0 -259 25.667 -351 77
c-98.667 55.333 -153.667 133 -165 233c0 8.66699 -0.666992 23.5 -2 44.5s-2 32.833 -2 35.5c0 93.333 15.333 185.333 46 276c27.333 81.333 68 164 122 248c8.66699 12.667 18.334 23.167 29.001 31.5s20.334 12.166 29.001 11.499c8 0 12 -5.66699 12 -17
s-4.66699 -27.333 -14 -48c-28 -63.333 -48.667 -123.5 -62 -180.5s-20 -108.833 -20 -155.5c0 -31.333 3.33301 -61 10 -89c16.667 -70 52 -123.333 106 -160c44 -30 102.667 -50.333 176 -61c46 -6.66699 107.667 -10 185 -10c147.333 0 277.833 14.167 391.5 42.5
s193.834 65.5 240.501 111.5c-16 42.667 -81.333 81.334 -196 116.001c-99.333 30 -186 45 -260 45c22 80.667 38.333 132.334 49 155.001c29.333 63.333 66.666 95 111.999 95h532z" />
    <glyph glyph-name="US" unicode="&#xf21f;" horiz-adv-x="1833" 
d="M267 -803c-15.333 10 -22.998 21 -22.998 33c0 6 3.33301 13 10 21l119 114c4 2.66699 10.667 4 20 4c8 0 14.5 -1 19.5 -3s10.833 -6.33301 17.5 -13l72 -74c11.333 -8 17.666 -12 18.999 -12c4 1.33301 11.333 7.33301 22 18l82 80c12 5.33301 20.333 7.33301 25 6
c14 0 25.333 -5.33301 34 -16l109 -104c8.66699 -8.66699 13 -17 13 -25c-1.33301 -5.33301 -4.33301 -10.333 -9 -15s-9.33398 -8 -14.001 -10l-105 -104c-5.33301 -5.33301 -14.666 -8 -27.999 -8c-8.66699 0 -17 2.66699 -25 8l-80 79
c-8.66699 11.333 -15.334 17 -20.001 17c-1.33301 0 -7 -3.33301 -17 -10c-34.667 -34 -63 -58.333 -85 -73c-17.333 -11.333 -31.333 -17 -42 -17c-2.66699 0 -6.66699 1.33301 -12 4zM864.002 264l531.999 -0.00195312c33.333 0 59.333 20 78 60
c16.667 35.333 25 80.333 25 135c0 37.333 -4.33301 71.333 -13 102l195 232c0 -10.667 0.666992 -27 2 -49s2 -39.333 2 -52c0 -57.333 -3.66699 -114.833 -11 -172.5s-17.333 -110.5 -30 -158.5c-1.33301 -2.66699 -2 -7.66699 -2 -15c0 -26.667 19 -47 57 -61
s82.667 -21 134 -21h32v-264h-141c-62 0 -109.333 16 -142 48c-22.667 22 -38.334 53 -47.001 93c-13.333 -45.333 -39.333 -81.333 -78 -108c-32 -22 -63.667 -33 -95 -33h-94c7.33301 -20 12.666 -41.167 15.999 -63.5s5 -44.833 5 -67.5c0 -38 -5 -72.167 -15 -102.5
s-26.333 -56.166 -49 -77.499c-35.333 -33.333 -93.666 -67 -174.999 -101c-88 -36.667 -183 -66 -285 -88c-114.667 -24.667 -227 -37 -337 -37c-142 0 -259 25.667 -351 77c-98.667 55.333 -153.667 133 -165 233c0 8.66699 -0.666992 23.5 -2 44.5s-2 32.833 -2 35.5
c0 93.333 15.333 185.333 46 276c27.333 81.333 68 164 122 248c8.66699 12.667 18.334 23.167 29.001 31.5s20.334 12.166 29.001 11.499c8 0 12 -5.66699 12 -17s-4.66699 -27.333 -14 -48c-28 -63.333 -48.667 -123.5 -62 -180.5s-20 -108.833 -20 -155.5
c0 -31.333 3.33301 -61 10 -89c16.667 -70 52 -123.333 106 -160c44 -30 102.667 -50.333 176 -61c46 -6.66699 107.667 -10 185 -10c147.333 0 277.833 14.167 391.5 42.5s193.834 65.5 240.501 111.5c-16 42.667 -81.333 81.334 -196 116.001c-99.333 30 -186 45 -260 45
c22 80.667 38.333 132.334 49 155.001c29.333 63.333 66.666 95 111.999 95h532h-532zM1311 738.998c-6 -6 -14.334 -9.00098 -25.001 -9.00098c-10 0 -18.667 3 -26 9l-103 96c-14.667 10.667 -22 20.667 -22 30c0 6 3.33301 14.667 10 26l109 102
c3.33301 5.33301 8.33301 9.5 15 12.5s13.334 4.5 20.001 4.5c12.667 -3.33301 20 -5.66602 22 -6.99902l115 -112c3.33301 -4 5.83301 -8 7.5 -12s2.5 -7.66699 2.5 -11c0 -10.667 -7.33301 -21.667 -22 -33z" />
    <glyph glyph-name="less" unicode="&#xf220;" horiz-adv-x="500" 
 />
    <glyph glyph-name="equal" unicode="&#xf221;" horiz-adv-x="575" 
d="M344 397l-5.99902 -34l4 -4c5.33301 3.33301 15.666 16 30.999 38c25.333 32.667 48 87.167 68 163.5s30 143.5 30 201.5c0 92 -15 188.667 -45 290c-35.333 120 -91.333 244.333 -168 373c-48 -96 -93 -177.667 -135 -245c20.667 -30 40 -63.667 58 -101
c14.667 -30 31 -68.333 49 -115c9.33301 -24 26 -69.333 50 -136c26.667 -76.667 42 -122 46 -136c19.333 -68.667 29 -132.667 29 -192c0 -16 -0.833008 -31.667 -2.5 -47s-4.5 -34 -8.5 -56zM252.001 330l207 -143l-146 -189l-209 137z" />
    <glyph glyph-name="greater" unicode="&#xf222;" horiz-adv-x="705" 
d="M475 975l-66 436c0 44 7.66699 77.667 23 101c20 30.667 53 46 99 46c42 0 72.333 -15 91 -45c15.333 -24.667 23 -58.667 23 -102l-62 -436h-108zM131 973l-67 434.002c0 43.333 8 76.666 24 99.999c20.667 30 53.667 45 99 45c41.333 0 71.333 -14.667 90 -44
c16 -24.667 24 -58.334 24 -101.001l-61 -434h-109z" />
    <glyph glyph-name="question" unicode="&#xf223;" horiz-adv-x="448" 
d="M246 238c0 63.333 11.333 123.669 34 181.002s59.667 112.666 111 165.999c-24 -45.333 -41.833 -96 -53.5 -152s-17.5 -122.333 -17.5 -199c0 -74.667 5.33301 -140.5 16 -197.5s30.334 -110.833 59.001 -161.5c-42.667 44 -76.334 91.667 -101.001 143
c-32 67.333 -48 140.666 -48 219.999zM100 231.003c0 64.667 10.334 123.999 31.001 177.999c23.333 60.667 61 117.334 113 170.001c-23.333 -44 -40.833 -94.667 -52.5 -152s-17.5 -124 -17.5 -200c0 -75.333 5.16699 -141 15.5 -197s29.166 -109.667 56.499 -161
c-42.667 43.333 -76 91 -100 143c-30.667 66.667 -46 139.667 -46 219z" />
    <glyph glyph-name="at" unicode="&#xf224;" horiz-adv-x="575" 
d="M227 246c0 149.333 -22.333 266.668 -67 352.001c48.667 -50.667 85 -107.334 109 -170.001c21.333 -56 32 -115.333 32 -178c0 -79.333 -15.333 -152.333 -46 -219c-24 -52 -57 -99.667 -99 -143c27.333 48.667 46 102 56 160s15 124 15 198zM377 240.002
c0 76.667 -5.66699 143.167 -17 199.5s-29 107.166 -53 152.499c49.333 -53.333 86 -110 110 -170c22 -56 33 -115.333 33 -178c0 -79.333 -15.667 -152.333 -47 -219c-24 -50.667 -58 -98.667 -102 -144c28.667 49.333 49 105.333 61 168c10 52.667 15 116.334 15 191.001z
" />
    <glyph glyph-name="A" unicode="&#xf225;" horiz-adv-x="1260" 
d="M932 1299l-525 -1139l-151 -17l547 1141zM490 932l-99.002 -98.001c-5.33301 -5.33301 -14.666 -8 -27.999 -8c-11.333 0 -19.666 2.66699 -24.999 8l-104 98c-16 10.667 -23 21 -21 31c0 8.66699 2.66699 16.667 8 24l111 102c8 11.333 19 17 33 17
c8 0 16 -2.66699 24 -8l117 -111c5.33301 -7.33301 8 -14.666 8 -21.999c0 -12 -8 -23 -24 -33zM1016 536.999l-101 -98.999c-6.66699 -6.66699 -16.667 -10 -30 -10c-8 0 -16.333 3.33301 -25 10l-100 99c-15.333 7.33301 -23 16.666 -23 27.999c0 6 3.33301 15 10 27
l107 98c4.66699 6 10.667 10.667 18 14s14.333 5 21 5c7.33301 0 14 -2 20 -6l117 -111c6.66699 -12 10 -21 10 -27c0 -10.667 -8 -20 -24 -28z" />
    <glyph glyph-name="B" unicode="&#xf226;" horiz-adv-x="792" 
d="M745 789l-305 -311l303 -308l-34 -36l-308 306l-310 -306l-34 36l306 308l-307 311l37 38l308 -310l308 310z" />
    <glyph glyph-name="C" unicode="&#xf227;" horiz-adv-x="792" 
d="M466 755c0 -17.333 -6.83301 -33.166 -20.5 -47.499s-30.5 -21.5 -50.5 -21.5c-18 0 -33.833 6.83301 -47.5 20.5s-20.5 29.834 -20.5 48.501c0 19.333 6.83301 36.166 20.5 50.499s29.5 21.5 47.5 21.5c20 0 36.833 -6.83301 50.5 -20.5s20.5 -30.834 20.5 -51.501z
M760 451h-726v53h726v-53zM466 199c0 -18.667 -6.66699 -35.334 -20 -50.001c-14.667 -13.333 -31.667 -20 -51 -20c-17.333 0 -33.333 6.66699 -48 20c-13.333 14.667 -20 31.334 -20 50.001s7 34.667 21 48s29.667 20 47 20c20.667 0 37.667 -6.5 51 -19.5
s20 -29.167 20 -48.5z" />
    <glyph glyph-name="D" unicode="&#xf228;" horiz-adv-x="832" 
d="M440 1104c-28.667 -84.667 -49.667 -172.502 -63 -263.502s-20 -193.5 -20 -307.5c0 -104.667 7 -203.667 21 -297c16.667 -110.667 43.667 -218.667 81 -324c22.667 -62 56.334 -130 101.001 -204c20 -33.333 57.333 -91 112 -173
c-52.667 22.667 -93.5 42.334 -122.5 59.001s-55.833 35.334 -80.5 56.001c-60.667 64 -113.334 132.5 -158.001 205.5s-81.334 150.5 -110.001 232.5c-22 60 -39.167 129.667 -51.5 209s-18.5 157.333 -18.5 234c0 182.667 31 351 93 505
c56 139.333 135.667 264.333 239 375c28.667 24.667 72 51 130 79l67 31c-52.667 -68 -97.667 -138.333 -135 -211c-33.333 -64 -61.666 -132.667 -84.999 -206z" />
    <glyph glyph-name="E" unicode="&#xf229;" horiz-adv-x="788" 
d="M357 -49c28.667 83.333 49.666 171.168 62.999 263.501s20 195.833 20 310.5c0 100.667 -7.33301 198.667 -22 294c-16.667 107.333 -43.334 216 -80.001 326c-16 43.333 -36.667 89 -62 137c-19.333 36 -44.666 78.333 -75.999 127c-19.333 30.667 -44.333 68 -75 112
c38 -15.333 69.667 -29.666 95 -42.999c42.667 -22 79.334 -45.667 110.001 -71c120 -130.667 209.333 -276.667 268 -438c22 -60.667 38.833 -130.334 50.5 -209.001s17.5 -156.334 17.5 -233.001c0 -183.333 -31 -352.333 -93 -507c-55.333 -138 -134.333 -263 -237 -375
c-24 -19.333 -59.667 -40.833 -107 -64.5l-92 -45.5c51.333 66.667 96 137 134 211c33.333 64.667 62 133 86 205z" />
    <glyph glyph-name="F" unicode="&#xf22a;" horiz-adv-x="981" 
d="M488 938l104 -342h387l-319 -233l108 -365l-293 236l-295 -236l109 365l-287 233h371z" />
    <glyph glyph-name="G" unicode="&#xf22b;" horiz-adv-x="811" 
d="M338 573v297h133v-297h297v-133h-297v-297h-133v297h-293v133h293z" />
    <glyph glyph-name="H" unicode="&#xf22c;" horiz-adv-x="512" 
d="M231 0c-63.333 0 -109.663 12.3311 -138.996 36.998c-26 22 -45.667 61 -59 117c-2 8.66699 -3.16699 14.667 -3.5 18s-0.5 9.66602 -0.5 18.999c0 33.333 5 72.833 15 118.5s22.667 86.5 38 122.5c20 49.333 44.333 93.666 73 132.999
c21.333 29.333 51.666 64.333 90.999 105c19.333 17.333 35.666 26 48.999 26c11.333 -2 16 -8.66699 14 -20c0 -1.33301 -1.33301 -4.66602 -4 -9.99902c-52.667 -59.333 -92.334 -113 -119.001 -161c-28.667 -51.333 -43 -96.666 -43 -135.999
c0 -35.333 2.5 -62.166 7.5 -80.499s14.833 -28.5 29.5 -30.5h35c8.66699 14 18.167 24.667 28.5 32s23.166 11 38.499 11c23.333 0 41.333 -9.16699 54 -27.5s19 -43.166 19 -74.499c0 -24 -4.33301 -51.667 -13 -83c-16 -44 -34.667 -75.333 -56 -94
c-16.667 -14.667 -35 -22 -55 -22z" />
    <glyph glyph-name="I" unicode="&#xf22d;" horiz-adv-x="811" 
d="M537 434l-328.001 0.00195312c-8.66699 -0.666992 -17 -1 -25 -1c-10 0 -18.333 0.833008 -25 2.5s-10 5.16699 -10 10.5s3.33301 14.666 10 27.999c4.66699 9.33301 9.66699 18.666 15 27.999l27 43c4.66699 10 9 16.333 13 19s10 4 18 4c14 -0.666992 26 -1 36 -1h361
c8 0.666992 14 1 18 1c8.66699 0 13 -2.33301 13 -7c0 -2.66699 -4.33301 -15 -13 -37c-4 -10 -6 -16 -6 -18l-14.5 -30.5c-8.33301 -17.667 -13.833 -28.167 -16.5 -31.5c-3.33301 -2 -8.16602 -3.5 -14.499 -4.5s-12.5 -1.5 -18.5 -1.5z" />
    <glyph glyph-name="J" unicode="&#xf22e;" horiz-adv-x="598" 
d="M409 156c0.666992 -0.666992 1.33203 -3.66602 1.99902 -8.99902c-0.666992 -2 -6 -8 -16 -18l-127 -127c-5.33301 -2.66699 -9.33301 -3.33398 -12 -2.00098c-5.33301 0 -8.66602 0.666992 -9.99902 2l-134 129c-6.66699 6.66699 -10 12 -10 16
c0 3.33301 1.33301 6.33301 4 9l134 131c5.33301 5.33301 11.333 8 18 8c6 0 10 -2 12 -6z" />
    <glyph glyph-name="K" unicode="&#xf22f;" horiz-adv-x="832" 
d="M766 1182l-545 -1409l-151 -19l559 1426z" />
    <glyph glyph-name="L" unicode="&#xf230;" horiz-adv-x="961" 
d="M409 842c44 -22 96.999 -55.001 158.999 -99.001c54.667 -38.667 105.667 -78.667 153 -120l-170 -279c-43.333 38.667 -90.666 74.334 -141.999 107.001c-44.667 28.667 -101 60 -169 94z" />
    <glyph glyph-name="M" unicode="&#xf231;" horiz-adv-x="598" 
d="M221 1286c36.667 -60.667 74.6641 -138.666 113.997 -233.999s72.333 -190 99 -284c36 -114.667 63.333 -220 82 -316c16.667 -85.333 25 -155.333 25 -210v-16v-12c-1.33301 -5.33301 -2 -9 -2 -11c0 -52.667 -6.33301 -97.334 -19 -134.001
c-9.33301 -27.333 -24.333 -54.333 -45 -81c-12 95.333 -37 211 -75 347c-35.333 126 -74.666 246.333 -117.999 361c-35.333 93.333 -70.333 172 -105 236c-32 58.667 -65.667 107.667 -101 147c22.667 29.333 50.334 67.5 83.001 114.5s53.334 77.833 62.001 92.5z" />
    <glyph glyph-name="N" unicode="&#xf232;" horiz-adv-x="938" 
d="M326 635c-31.333 80 -68.334 158.664 -111.001 235.997c-36.667 66 -79.667 135.333 -129 208l74 112c23.333 36.667 41.666 68.334 54.999 95.001l55 -90c20 -32.667 42 -61.334 66 -86.001c14 -10.667 33.167 -18.5 57.5 -23.5s52.166 -7.5 83.499 -7.5
c80 0 151 12.333 213 37c42 16 73.333 39.667 94 71c18 26.667 27 55.667 27 87c3.33301 -20 6.33301 -42.667 9 -68s4 -46.333 4 -63c0 -101.333 -29.667 -174.666 -89 -219.999c-46.667 -35.333 -110.667 -53 -192 -53c-24.667 0 -48.667 1.33301 -72 4
s-46 6.33398 -68 11.001c38.667 -80.667 72.334 -188 101.001 -322s43 -250 43 -348v-22c0 -23.333 -1.33301 -42.666 -4 -57.999c-5.33301 -26.667 -12.166 -49.5 -20.499 -68.5s-22.166 -41.833 -41.499 -68.5c-8 98 -28 209 -60 333c-26 102.667 -57.667 204 -95 304z
" />
    <glyph glyph-name="O" unicode="&#xf233;" horiz-adv-x="917" 
d="M793 1255c0 10.667 2.83887 19.4951 8.50586 26.4951s12.167 10.5 19.5 10.5c8.66699 -1.33301 15.834 -6.5 21.501 -15.5s9.5 -24.167 11.5 -45.5c0 -78 -1.33301 -138.667 -4 -182s-8.83398 -77.166 -18.501 -101.499s-24 -43 -43 -56s-40.833 -19.5 -65.5 -19.5
c-23.333 0 -46.833 7 -70.5 21s-44.5 34.333 -62.5 61c-10 -32.667 -26.667 -56.667 -50 -72c-20 -13.333 -44.333 -20 -73 -20c-20.667 0 -40.5 3.16699 -59.5 9.5s-35.833 14.833 -50.5 25.5c39.333 -87.333 71.333 -191.166 96 -311.499s37 -228.833 37 -325.5
c0 -36 -2.33301 -66.667 -7 -92c-4 -38 -10.5 -70.167 -19.5 -96.5s-22.833 -54.166 -41.5 -83.499c-18.667 127.333 -41.834 246.5 -69.501 357.5s-61.834 219.833 -102.501 326.5c-34.667 89.333 -71 169.333 -109 240c-34.667 64 -70.667 119.667 -108 167l63 102l64 99
c11.333 -14 29 -39.333 53 -76c32.667 -50.667 51 -78.667 55 -84c13.333 -15.333 32.166 -28 56.499 -38s49.833 -15 76.5 -15c40 0 72.333 11.333 97 34c28.667 26.667 43 65.667 43 117v14v10c-1.33301 4.66699 -2 8.33398 -2 11.001c0 6.66699 3.16699 12.5 9.5 17.5
s13.166 6.83301 20.499 5.5c6 0 11.167 -1.66699 15.5 -5s6.83301 -8.66602 7.5 -15.999l18 -100c7.33301 -27.333 21.666 -48.333 42.999 -63c5.33301 -2 11.666 -3.33301 18.999 -4s14 -1 20 -1c37.333 0 65 16.667 83 50c13.333 24.667 20 56 20 94z" />
    <glyph glyph-name="P" unicode="&#xf234;" horiz-adv-x="811" 
d="M551 -2c-68 15.333 -125 31.333 -171 48c-59.333 21.333 -118.333 51 -177 89c-47.333 30 -85 58.667 -113 86c-22.667 22 -37.667 42.333 -45 61c-1.33301 4.66699 10.667 27.334 36 68.001c30.667 49.333 63.667 93.666 99 132.999l111.5 116.5l117.5 121.5
c-68.667 38 -139.334 83.333 -212.001 136c-79.333 58 -125.666 99.333 -138.999 124c30 73.333 87.333 149.666 172 228.999c94.667 88.667 193.667 150.334 297 185.001v-127c-52 -26 -93.333 -49 -124 -69c-38.667 -26 -68.667 -52.333 -90 -79c0 -26 23 -55 69 -87
c33.333 -23.333 75.333 -46.666 126 -69.999c40.667 -16.667 75 -36 103 -58c24 -18.667 36 -32.334 36 -41.001c0 -17.333 -18.667 -48 -56 -92c-43.333 -51.333 -95.666 -101 -156.999 -149c-32.667 -26.667 -59.334 -50.667 -80.001 -72c-14 -14.667 -31.667 -35 -53 -61
c-12.667 -14 -19 -28 -19 -42c0 -17.333 9.33301 -35.333 28 -54c16 -16 39 -32.667 69 -50c44 -29.333 96 -56 156 -80c50 -20 112 -40.333 186 -61z" />
    <glyph glyph-name="Q" unicode="&#xf235;" horiz-adv-x="917" 
d="M174 1085c42.667 88 87.002 158.999 133.002 212.999c43.333 50.667 78.666 76 105.999 76c65.333 0 129.333 -33.333 192 -100c56 -60 108.333 -143.333 157 -250c32.667 -74.667 57.834 -152.167 75.501 -232.5s26.5 -159.166 26.5 -236.499
c0 -8.66699 -0.666992 -23.667 -2 -45s-2 -32.333 -2 -33c0 -54 -12 -109.667 -36 -167c-21.333 -51.333 -45 -89 -71 -113c-42.667 -38 -96.334 -69.333 -161.001 -94c-72 -27.333 -145 -41 -219 -41c-110.667 0 -194.334 32.667 -251.001 98
c-59.333 68 -89 169.667 -89 305c0 98 11.5 200.333 34.5 307s58.5 211 106.5 313zM379.002 408.999c56.667 5.33301 116.834 18.167 180.501 38.5s115.5 42.5 155.5 66.5c1.33301 5.33301 2.33301 12.833 3 22.5s1 17.167 1 22.5c0 90 -38.333 185 -115 285
c-78.667 102.667 -155 154 -229 154h-12c-52 -6 -105.333 -70.333 -160 -193c-20.667 -46 -39 -95.333 -55 -148c-24 -78 -36 -130.333 -36 -157v-4c24.667 -30.667 55.667 -53.5 93 -68.5s78.333 -22.5 123 -22.5c7.33301 0 16.166 0.5 26.499 1.5s18.5 1.83301 24.5 2.5z
" />
    <glyph glyph-name="R" unicode="&#xf236;" horiz-adv-x="938" 
d="M713 -6c-44.667 132 -79.832 286.168 -105.499 462.501s-38.5 335.5 -38.5 477.5c0 21.333 0.166992 42.333 0.5 63s1.5 41.334 3.5 62.001c-40 -22 -84.167 -38 -132.5 -48s-97.5 -15 -147.5 -15c-44 0 -84.167 3 -120.5 9s-68.5 14.333 -96.5 25l-14 242
c42 -14.667 91 -25.834 147 -33.501s114 -11.5 174 -11.5c50 0 99.667 2.5 149 7.5s95.333 11.833 138 20.5c0 -124.667 5.33301 -235.334 16 -332.001s26 -190.167 46 -280.5s42.667 -174.5 68 -252.5c29.333 -88.667 59.666 -158.667 90.999 -210
c-24 -20 -55.5 -50.5 -94.5 -91.5s-66.833 -72.5 -83.5 -94.5z" />
    <glyph glyph-name="S" unicode="&#xf237;" horiz-adv-x="961" 
d="M110 1292c92.667 -95.333 175 -227.335 247 -396.002c64.667 -150.667 108.334 -298.667 131.001 -444c17.333 124 53.333 255.333 108 394c43.333 110.667 94.666 216.667 153.999 318c48 82.667 86.667 139 116 169l72 -293
c-52.667 -45.333 -112 -138.666 -178 -279.999c-56.667 -121.333 -111 -259.333 -163 -414c-46.667 -140 -80.334 -258 -101.001 -354c-32.667 132.667 -68.667 257.334 -108 374.001c-50.667 150 -104.667 279.333 -162 388c-69.333 130.667 -140.666 224.667 -213.999 282
z" />
    <glyph glyph-name="T" unicode="&#xf238;" horiz-adv-x="1024" 
d="M987 348l-84.001 -350c-56 58 -110.667 129.333 -164 214c-60 95.333 -109.667 193.333 -149 294c-45.333 116 -74.666 230 -87.999 342c-12 -110 -39.667 -223.333 -83 -340c-38 -102 -86 -200.667 -144 -296c-50.667 -83.333 -102.667 -153.333 -156 -210l-121 342
c101.333 83.333 190 203.333 266 360c55.333 114 106 252.667 152 416l84 310c3.33301 10.667 7.33301 16 12 16c13.333 -1.33301 42.333 -77 87 -227c63.333 -213.333 114.333 -369 153 -467c74.667 -190 153 -324.667 235 -404z" />
    <glyph glyph-name="U" unicode="&#xf239;" horiz-adv-x="917" 
d="M897 172l-152.003 -184c-56 108 -101.333 234.5 -136 379.5s-52 286.167 -52 423.5c-19.333 -15.333 -37.666 -39.333 -54.999 -72l-50 -96c-19.333 -34 -36.833 -56.5 -52.5 -67.5s-38.167 -16.5 -67.5 -16.5c-85.333 0 -154.333 19 -207 57
c-48.667 35.333 -73 79 -73 131c0 63.333 14.667 137.333 44 222c26 76 59.667 149 101 219c38 62.667 75.667 108 113 136c29.333 22 56.333 33 81 33c48.667 0 90 -11.667 124 -35c29.333 -20 55 -50.667 77 -92c17.333 -32 33.333 -77.833 48 -137.5
s31.334 -147 50.001 -262s47.334 -234.833 86.001 -359.5c42 -137.333 82.333 -230.333 121 -279zM388.997 1163c-26 0 -54.668 -13 -86.001 -39c-38.667 -32 -81.667 -84.333 -129 -157c-4 -8 -6 -15.667 -6 -23c0 -28.667 32.333 -54.334 97 -77.001
c59.333 -20.667 119 -31 179 -31c28.667 0 51.667 3.16699 69 9.5s26 15.833 26 28.5c-5.33301 60.667 -27.666 125.334 -66.999 194.001c-36 63.333 -63.667 95 -83 95z" />
    <glyph glyph-name="V" unicode="&#xf23a;" horiz-adv-x="555" 
d="M348 465l-102 -102c-8 -5.33301 -17.667 -8 -29 -8c-10 0 -18.667 2.66699 -26 8l-103 102c-15.333 8.66699 -22 19 -20 31c0 8.66699 2.66699 16.667 8 24l111 100c8 11.333 19.333 17 34 17c7.33301 0 15 -2.66699 23 -8l117 -109c6.66699 -11.333 10 -20 10 -26
c0 -9.33301 -7.66699 -19 -23 -29zM367 110l-102.999 -98c-6.66699 -6.66699 -15.334 -10 -26.001 -10c-10 0 -18.333 3.33301 -25 10l-103 98c-14.667 9.33301 -22 19.666 -22 30.999c0 8 3.33301 16.333 10 25l109 98c10 12 22.333 18 37 18c7.33301 0 14 -2 20 -6
l115 -110c6.66699 -6.66699 10 -15 10 -25c0 -11.333 -7.33301 -21.666 -22 -30.999z" />
    <glyph glyph-name="W" unicode="&#xf23b;" horiz-adv-x="533" 
d="M289 518c19.333 0 35.502 -7.49902 48.502 -22.499s19.5 -37.5 19.5 -67.5c0 -6.66699 -1.16699 -15.834 -3.5 -27.501l-5.5 -27.5c-8.66699 -26.667 -20.834 -48.5 -36.501 -65.5s-33.5 -25.5 -53.5 -25.5c-42.667 0 -76.334 8.83301 -101.001 26.5
s-41.667 47.167 -51 88.5l-2 18c0 42 9 88.333 27 139c26 72.667 65.667 137.667 119 195c10 10.667 20 18.5 30 23.5s18.333 7.5 25 7.5c10 -2.66699 15 -8 15 -16s-4.33301 -16.333 -13 -25c-26.667 -32 -49.667 -68.667 -69 -110c-16 -34 -25.667 -62 -29 -84
c0 -24 4 -43 12 -57l4 -5c6 12 14.667 20.833 26 26.5s24 8.5 38 8.5zM350.002 92.001l-80.001 -80c-3.33301 -5.33301 -10.666 -8 -21.999 -8c-8 0 -15 2.66699 -21 8l-84 80c-10.667 4 -16 11.333 -16 22c0 3.33301 2.66699 10.333 8 21l86 80
c2.66699 4 6.5 7.66699 11.5 11s11.5 5 19.5 5c10.667 -2.66699 16.667 -4.66699 18 -6l93 -90c6.66699 -6.66699 10 -13 10 -19c-2 -8.66699 -9.66699 -16.667 -23 -24z" />
    <glyph glyph-name="X" unicode="&#xf23c;" horiz-adv-x="381" 
d="M353 782c-15.333 -13.333 -27.832 -25.165 -37.499 -35.498s-18.167 -20.833 -25.5 -31.5c-17.333 -27.333 -26 -54.333 -26 -81l1 -14c26.667 0 47 -6.16699 61 -18.5s21 -28.833 21 -49.5c0 -17.333 -6.33301 -32 -19 -44s-27.667 -18 -45 -18
c-20.667 0 -38.667 9 -54 27c-13.333 18.667 -20 42 -20 70c0 41.333 9 77.666 27 108.999c10 17.333 22.667 34.666 38 51.999s34.666 36 57.999 56zM172.001 782.001c-29.333 -26 -49.999 -48.333 -61.999 -67c-17.333 -26 -26 -53 -26 -81v-14
c28 0 48.833 -6.33301 62.5 -19s20.5 -29 20.5 -49c0 -17.333 -6.16699 -32 -18.5 -44s-27.833 -18 -46.5 -18c-20 0 -37.667 9 -53 27c-14 18 -21 41.333 -21 70c0 40 9.16699 76.333 27.5 109s50.166 68.667 95.499 108z" />
    <glyph glyph-name="Y" unicode="&#xf23d;" horiz-adv-x="811" 
d="M739 684v-133h-653v133h653zM739 463v-133h-653v133h653z" />
    <glyph glyph-name="Z" unicode="&#xf23e;" horiz-adv-x="381" 
d="M353 708c0 -38.667 -9.16699 -74.501 -27.5 -107.501s-50.5 -69.833 -96.5 -110.5l-20 23c29.333 26 50 48.333 62 67c17.333 26.667 26 53.334 26 80.001l-1 15c-28 0 -48.667 6.16699 -62 18.5s-20 28.833 -20 49.5c0 16.667 6 31 18 43s27.333 18 46 18
c22 0 39.667 -9 53 -27c14.667 -18 22 -41 22 -69zM172 707.999c0 -40 -9.33301 -76.666 -28 -109.999c-8.66699 -15.333 -21 -32 -37 -50s-35.333 -37.333 -58 -58l-21 23c29.333 26 50 48.333 62 67c17.333 25.333 26 52 26 80v15c-28 0 -48.833 6.16699 -62.5 18.5
s-20.5 28.833 -20.5 49.5c0 16.667 6.16699 31 18.5 43s27.833 18 46.5 18c21.333 0 39 -8.83301 53 -26.5s21 -40.834 21 -69.501z" />
    <glyph glyph-name="bracketleft" unicode="&#xf23f;" horiz-adv-x="854" 
d="M74 932c-8 31.333 -12 62.668 -12 94.001c0 38 5.33301 77.5 16 118.5s29.834 93.333 57.501 157s58 117.334 91 161.001s59.833 65.5 80.5 65.5c29.333 0 82.666 -20 159.999 -60s141.666 -79.667 192.999 -119c30.667 -23.333 55.334 -47 74.001 -71s28 -44.667 28 -62
c0 -26.667 -3.66699 -62.167 -11 -106.5s-16 -85.166 -26 -122.499c-27.333 81.333 -94.333 152.666 -201 213.999c-85.333 49.333 -170 79.666 -254 90.999c-31.333 3.33301 -60.333 -17.334 -87 -62.001c-24 -40 -36 -78.667 -36 -116c0 -8 0.666992 -14 2 -18
c14.667 -50.667 79.667 -93 195 -127c3.33301 -0.666992 6.83301 -2.5 10.5 -5.5s8.5 -5.5 14.5 -7.5c92.667 -30.667 169 -69.334 229 -116.001c53.333 -41.333 80 -77 80 -107c0 -73.333 -9.66699 -139.666 -29 -198.999c-23.333 -72.667 -60 -134 -110 -184
c-12 -8 -22.333 -12 -31 -12c-6 0 -10.5 1 -13.5 3s-3.83301 4.33301 -2.5 7l2 2c16.667 18.667 31.334 40 44.001 64c16 31.333 27 62.666 33 93.999c0 44.667 -21.333 84.334 -64 119.001c-39.333 32 -89.333 55 -150 69c-77.333 23.333 -144 61.333 -200 114
c-46.667 44 -74.334 84.667 -83.001 122zM635 227.002l-176 -213l-246 166l176 229z" />
    <glyph glyph-name="backslash" unicode="&#xf240;" horiz-adv-x="442" 
d="M452 0h-479v265h479v-265z" />
    <glyph glyph-name="bracketright" unicode="&#xf241;" horiz-adv-x="363" 
d="M64 1065l174 215.001c0 -104.667 6.33301 -242 19 -412c7.33301 -100.667 19 -234.334 35 -401.001c12.667 -133.333 19 -209 19 -227c-12.667 -62 -25.667 -110 -39 -144c-17.333 -44 -44.333 -89 -81 -135z" />
    <glyph glyph-name="asciicircum" unicode="&#xf242;" horiz-adv-x="492" 
d="M250 1454c4 -38.667 16.002 -142.33 36.002 -310.997s34.333 -302.334 43 -401.001c14 -154.667 21 -274.334 21 -359.001c3.33301 -40 16.666 -69.833 39.999 -89.5s54.333 -29.5 93 -29.5h56v-264h-201c-30.667 0 -57.834 11.5 -81.501 34.5s-35.5 48.833 -35.5 77.5
c0 78.667 -6.83301 187.667 -20.5 327s-31.167 285.166 -52.5 437.499s-41.333 275.833 -60 370.5c31.333 33.333 62 69.5 92 108.5s53.333 71.833 70 98.5z" />
    <glyph glyph-name="underscore" unicode="&#xf243;" horiz-adv-x="342" 
d="M88 1380c8.66699 -26 24.3301 -48 46.9971 -66c20.667 -16 45.334 -27.333 74.001 -34l154 78c-4.66699 -9.33301 -10 -24 -16 -44c-14.667 -49.333 -22.334 -75 -23.001 -77c-40.667 -12 -98 -39.333 -172 -82c-45.333 -26 -89 -53.333 -131 -82
c3.33301 22 6.33301 39.333 9 52c10.667 41.333 46.334 78.666 107.001 111.999c-34.667 4.66699 -61 15 -79 31s-27 33.667 -27 53c0 44 12.333 83.333 37 118c31.333 44 76.333 69.333 135 76h12c24 0 45.333 -7 64 -21s28 -28.667 28 -44c0 -14.667 -4.5 -29 -13.5 -43
s-20.833 -26.333 -35.5 -37c-6.66699 20 -16 34.667 -28 44s-25.667 14 -41 14c-19.333 0 -38.166 -4.66699 -56.499 -14s-33.166 -20.666 -44.499 -33.999zM251.996 1124c0 -108.667 4 -229.333 12 -362c4 -64.667 12 -172.667 24 -324
c8.66699 -108.667 13 -170.667 13 -186c-11.333 -63.333 -24 -113 -38 -149c-16.667 -44 -42 -88.667 -76 -134l-95 994z" />
    <glyph glyph-name="grave" unicode="&#xf244;" horiz-adv-x="492" 
d="M149 1388c9.33301 -26.667 25.335 -48.999 48.002 -66.999c20.667 -16 45 -27.667 73 -35l152 78c-5.33301 -9.33301 -10.666 -23.333 -15.999 -42l-21 -79c-38.667 -10.667 -96 -37.667 -172 -81l-131 -79c3.33301 21.333 6.66602 38.333 9.99902 51
c11.333 42 47.666 78.333 108.999 109c-36 6 -63.167 16.667 -81.5 32s-27.5 32.666 -27.5 51.999c0 44.667 12.333 84.667 37 120c31.333 44.667 76.333 70.667 135 78h12c24 0 45.5 -7.66699 64.5 -23s28.5 -30.666 28.5 -45.999c0 -12 -4.83301 -25 -14.5 -39
s-21.167 -26.333 -34.5 -37c-6 19.333 -15.333 33.5 -28 42.5s-26.667 13.5 -42 13.5c-17.333 0 -36.333 -5.33301 -57 -16c-16.667 -8.66699 -31.334 -19.334 -44.001 -32.001zM520.002 0.000976562l-200 -0.000976562c-28.667 0 -55.334 12 -80.001 36s-37 50.667 -37 80
c0 154.667 -1 273.667 -3 357s-7.66699 169.333 -17 258s-24.666 174 -45.999 256c36.667 26.667 65.334 48.667 86.001 66c28 24 53.333 50 76 78c9.33301 -68 16.5 -135.5 21.5 -202.5s8.16699 -133.667 9.5 -200s2 -138.166 2 -215.499v-128c0 -42 9.33301 -72 28 -90
c21.333 -20.667 57.666 -31 108.999 -31h56z" />
    <glyph glyph-name="a" unicode="&#xf245;" horiz-adv-x="342" 
d="M256 1315c62 0 114.001 6.99805 156.001 20.998c27.333 9.33301 55.333 24 84 44l4 2c0.666992 -2 0.666992 -3.33301 0 -4c0 -22.667 -17.667 -50 -53 -82c-46 -42 -102.333 -63 -169 -63h-11h-10c-4.66699 1.33301 -8.33398 2 -11.001 2c-40 4 -72.167 10 -96.5 18
s-52.833 22.667 -85.5 44c-14 -47.333 -26.5 -79 -37.5 -95s-22.5 -24 -34.5 -24l-13 4v4c0.666992 6.66699 5.66699 25 15 55c24.667 78.667 39.667 131.334 45 158.001c32 -19.333 62.333 -35.666 91 -48.999c51.333 -23.333 93.333 -35 126 -35zM240.001 1182
c0 -34.667 5.66797 -116.333 17.001 -245c19.333 -222 30 -343.667 32 -365c12 -146 18 -244.667 18 -296c-10.667 -62 -23.334 -111.667 -38.001 -149c-17.333 -44 -43.333 -89 -78 -135l-115 989z" />
    <glyph glyph-name="b" unicode="&#xf246;" horiz-adv-x="492" 
d="M336 1325c63.333 0 115.668 6.66504 157.001 19.998c26.667 8.66699 54.667 23 84 43l4 2c0.666992 -2 0.666992 -3.33301 0 -4c0 -33.333 -32 -68 -96 -104c-46.667 -26 -99.667 -39 -159 -39c-38.667 0 -71 4.66699 -97 14c-18.667 6.66699 -47.334 22 -86.001 46
c-10 -35.333 -19.667 -61.666 -29 -78.999c-13.333 -24 -28 -36 -44 -36l-12 4c-2 0.666992 8.33301 37.667 31 111c15.333 50.667 25.333 85.334 30 104.001c28 -17.333 58 -33.333 90 -48c50.667 -22.667 93 -34 127 -34zM520.002 -0.00195312l-200 -0.000976562
c-28.667 0 -55.334 12 -80.001 36s-37 50.667 -37 80c0 184 -5.66699 343 -17 477c-13.333 159.333 -35.666 299 -66.999 419c22.667 19.333 47.334 45.333 74.001 78l69 86c12.667 -91.333 24.5 -182.166 35.5 -272.499s19.5 -176.833 25.5 -259.5s9 -169 9 -259
c0 -42 9.33301 -72 28 -90c21.333 -20.667 57.666 -31 108.999 -31h56z" />
    <glyph glyph-name="c" unicode="&#xf247;" horiz-adv-x="405" 
d="M68 1218l166.001 195.002c0 -60.667 6.5 -153.334 19.5 -278.001l39.5 -377c13.333 -126.667 20 -214 20 -262c-10.667 -62 -23.334 -112 -38.001 -150c-17.333 -44.667 -43.333 -90.334 -78 -137.001zM106.001 -13.998c10 -30 24.832 -53.8359 44.499 -71.5029
s45.167 -26.5 76.5 -26.5l152 75c-5.33301 -10.667 -10.333 -24.667 -15 -42c-13.333 -47.333 -20.666 -73 -21.999 -77c-31.333 -9.33301 -73.333 -28.333 -126 -57c-62 -33.333 -121 -69 -177 -107c5.33301 24.667 11 49.334 17 74.001c14.667 32.667 48 62.667 100 90
c-34 4 -60.667 14.667 -80 32c-16 14.667 -25 31.334 -27 50.001c0 44 12.333 83.667 37 119c31.333 44 76.333 70 135 78h13c22.667 0 43.667 -7.5 63 -22.5s29 -29.833 29 -44.5c0 -14 -4.66699 -27.5 -14 -40.5s-21.333 -25.167 -36 -36.5
c-6.66699 18.667 -16 32.334 -28 41.001s-25.667 13 -41 13c-18 0 -36.333 -4.66699 -55 -14s-34 -20.333 -46 -33z" />
    <glyph glyph-name="d" unicode="&#xf248;" horiz-adv-x="492" 
d="M250 1454c4 -38.667 16.002 -142.33 36.002 -310.997s34.333 -302.334 43 -401.001c14 -154.667 21 -274.334 21 -359.001c3.33301 -40 16.666 -69.833 39.999 -89.5s54.333 -29.5 93 -29.5h56v-264h-201c-30.667 0 -57.834 11.5 -81.501 34.5s-35.5 48.833 -35.5 77.5
c0 78.667 -6.83301 187.667 -20.5 327s-31.167 285.166 -52.5 437.499s-41.333 275.833 -60 370.5c31.333 33.333 62 69.5 92 108.5s53.333 71.833 70 98.5zM276.002 -208.996c10 -25.333 24.5029 -44.999 43.5029 -58.999s42.833 -21 71.5 -21l136 43
c-10.667 -17.333 -19.834 -34 -27.501 -50s-13.834 -32 -18.501 -48c-42.667 -8.66699 -94 -26.334 -154 -53.001c-44.667 -20 -80.667 -38.333 -108 -55c6 28.667 12.667 48.334 20 59.001c15.333 22.667 43.666 41 84.999 55c-32 2.66699 -56.5 11.167 -73.5 25.5
s-25.5 30.5 -25.5 48.5c0 41.333 11.333 77.666 34 108.999c28.667 39.333 70.667 62.333 126 69h12c21.333 0 40.666 -6.66699 57.999 -20s26 -27 26 -41c0 -12 -5.33301 -24.667 -16 -38c-8 -10 -18.333 -20 -31 -30c-5.33301 17.333 -13.666 29.833 -24.999 37.5
s-24 11.5 -38 11.5c-16.667 0 -33.667 -4.33301 -51 -13s-32 -18.667 -44 -30z" />
    <glyph glyph-name="e" unicode="&#xf249;" horiz-adv-x="811" 
d="M602 264c-10.667 67.333 -29.667 126.667 -57 178c-22.667 42.667 -57.667 90.334 -105 143.001l174 245c41.333 -92 71.333 -171.333 90 -238c22 -78 33 -153 33 -225c0 -12.667 0.166992 -27 0.5 -43s0.833008 -34 1.5 -54c0 -56 -2.5 -106.333 -7.5 -151
s-12.5 -84.334 -22.5 -119.001h-795v264h688zM415 -300.999l-102.001 -102.001c-6 -6 -14.333 -9 -25 -9c-10 0 -18.667 3 -26 9l-102 102c-15.333 7.33301 -23 16.666 -23 27.999c0 6.66699 3.33301 14.334 10 23.001l109 103c3.33301 5.33301 8.33301 9.33301 15 12
s13.334 4 20.001 4c6 -1.33301 10.5 -2.16602 13.5 -2.49902s5.83301 -1.5 8.5 -3.5l115 -113c4 -4 6.5 -8 7.5 -12l2.5 -10c0 -11.333 -7.66699 -21 -23 -29z" />
    <glyph glyph-name="f" unicode="&#xf24a;" horiz-adv-x="895" 
d="M422 0h-471.001v264h508c32.667 0 58.334 20 77.001 60c16.667 36 25 81 25 135c0 36 -4 70 -12 102l194 232c0 -10.667 0.666992 -27 2 -49s2 -39.333 2 -52c0 -56 -3.66699 -113.167 -11 -171.5s-17 -111.5 -29 -159.5c-1.33301 -2.66699 -2 -7.66699 -2 -15
c0 -26.667 19 -47 57 -61s82.333 -21 133 -21h33v-264h-142c-61.333 0 -108.333 16 -141 48c-23.333 23.333 -39 54.333 -47 93c-14 -46 -40 -82 -78 -108c-32 -22 -64 -33 -96 -33h-2zM570.999 -301l-100 -102c-6 -6 -14.667 -9 -26 -9c-10.667 0 -20.667 3 -30 9l-102 102
c-14 7.33301 -21 16.666 -21 27.999c0 7.33301 3 15 9 23l108 103c10 10.667 22.333 16 37 16c6 -1.33301 10.667 -2.16602 14 -2.49902s6.33301 -1.5 9 -3.5l116 -113c7.33301 -8.66699 11 -16 11 -22c0 -11.333 -8.33301 -21 -25 -29z" />
    <glyph glyph-name="g" unicode="&#xf24b;" horiz-adv-x="1749" 
d="M0 363c0 62.667 6.66699 116 20 160c8 27.333 22.667 60.666 44 99.999c10.667 29.333 22.334 44 35.001 44c10 0 15 -10.667 15 -32c0 -23.333 -6.66699 -52 -20 -86c-8 -22 -12 -44.667 -12 -68c0 -58.667 27.667 -110.334 83 -155.001
c51.333 -41.333 106.333 -62 165 -62h1015c33.333 0 59.666 20 78.999 60c17.333 36 26 81 26 135c0 36 -4 70 -12 102l195 232c0 -11.333 0.666992 -31.166 2 -59.499s2 -44.166 2 -47.499c0 -120.667 -13.667 -229 -41 -325c-0.666992 -2 -1.33398 -4.5 -2.00098 -7.5
s-1 -5.5 -1 -7.5c0 -26.667 19.333 -47 58 -61s83 -21 133 -21h30v-264h-137c-63.333 0 -111 16 -143 48c-22 22 -37.667 53 -47 93c-14 -45.333 -40 -81.333 -78 -108c-31.333 -22 -62.666 -33 -93.999 -33h-954c-98 0 -181.667 33 -251 99
c-73.333 69.333 -110 157.333 -110 264zM985 -301l-99.999 -100c-6 -6 -14.667 -9 -26 -9s-21 3 -29 9l-103 100c-14 8 -21 17.667 -21 29c0 7.33301 3 16 9 26l109 103c11.333 11.333 22.666 16 33.999 14c10 0 18 -2 24 -6l118 -111c6.66699 -8.66699 10 -16.667 10 -24
c0 -10.667 -8.33301 -21 -25 -31z" />
    <glyph glyph-name="h" unicode="&#xf24c;" horiz-adv-x="1643" 
d="M0 363c0 62.667 6.66602 116.004 19.999 160.004c8 27.333 22.667 60.666 44 99.999c10.667 29.333 22.334 44 35.001 44c10 0 15 -10.667 15 -32c0 -23.333 -6.66699 -52 -20 -86c-8 -22 -12 -44.667 -12 -68c0 -58.667 27.667 -110.334 83 -155.001
c51.333 -41.333 106.333 -62 165 -62h1145c-13.333 88 -30.666 157 -51.999 207c-24.667 58 -59.334 102.333 -104.001 133l156 248c45.333 -99.333 80 -203 104 -311c22 -98.667 33 -192.334 33 -281.001c0 -102.667 -13.667 -189.334 -41 -260.001h-1210
c-98 0 -181.667 33 -251 99c-73.333 69.333 -110 157.333 -110 264zM984.999 -300.996l-99.999 -100c-6 -6 -14.667 -9 -26 -9s-21 3 -29 9l-103 100c-14 8 -21 17.667 -21 29c0 7.33301 3 16 9 26l109 103c11.333 11.333 22.666 16 33.999 14c10 0 18 -2 24 -6l118 -111
c6.66699 -8.66699 10 -16.667 10 -24c0 -10.667 -8.33301 -21 -25 -31z" />
    <glyph glyph-name="i" unicode="&#xf24d;" horiz-adv-x="811" 
d="M191 907c-7.33301 -6.66699 -16.3311 -9.99902 -26.998 -9.99902c-11.333 0 -20.333 3.33301 -27 10l-110 105c-15.333 11.333 -23 22.666 -23 33.999c0 6.66699 3.33301 15 10 25l123 117c10.667 5.33301 19.667 8 27 8s14 -1.5 20 -4.5s11.667 -8.16699 17 -15.5
l75 -74c9.33301 -9.33301 15.666 -14 18.999 -14c4 0 12.333 5.33301 25 16l87 84c7.33301 5.33301 16.333 8 27 8c8 0 14.833 -1.16699 20.5 -3.5s10.5 -6.5 14.5 -12.5l110 -109c8.66699 -10.667 13 -20 13 -28c0 -10 -7 -19 -21 -27l-112 -107
c-8 -6.66699 -17.667 -10 -29 -10s-20.333 3.33301 -27 10l-79 85c-10.667 8.66699 -18.334 13 -23.001 13c-3.33301 0 -10.333 -4.33301 -21 -13zM602.002 264.001c-10.667 67.333 -29.667 126.667 -57 178c-22.667 42.667 -57.667 90.334 -105 143.001l174 245
c41.333 -92 71.333 -171.333 90 -238c22 -78 33 -153 33 -225c0 -12.667 0.166992 -27 0.5 -43s0.833008 -34 1.5 -54c0 -56 -2.5 -106.333 -7.5 -151s-12.5 -84.334 -22.5 -119.001h-795v264h688z" />
    <glyph glyph-name="j" unicode="&#xf24e;" horiz-adv-x="895" 
d="M342 938c-2.66699 -2.66699 -6.33105 -5 -10.998 -7s-10.667 -3 -18 -3c-12.667 0 -21.334 3.33301 -26.001 10l-109 104c-16 10 -24 21 -24 33c0 10 4 19 12 27l123 116c9.33301 6 17.333 9 24 9c14.667 0 27 -7 37 -21l76 -73c8.66699 -9.33301 15 -14 19 -14
c4.66699 0 12.667 4.66699 24 14l88 85c8 6 16.667 9 26 9c14.667 0 25.667 -5.66699 33 -17l115 -108c8 -10 12 -19 12 -27c-1.33301 -6 -3.66602 -11.333 -6.99902 -16s-8.33301 -9 -15 -13l-111 -108c-3.33301 -2.66699 -7.83301 -4.66699 -13.5 -6s-11.5 -2 -17.5 -2
c-8 0 -16 2.66699 -24 8l-84 86c-8.66699 8.66699 -15.334 13 -20.001 13s-12.334 -4.33301 -23.001 -13zM422.003 0h-471.001v264h508c32.667 0 58.334 20 77.001 60c16.667 36 25 81 25 135c0 36 -4 70 -12 102l194 232c0 -10.667 0.666992 -27 2 -49s2 -39.333 2 -52
c0 -56 -3.66699 -113.167 -11 -171.5s-17 -111.5 -29 -159.5c-1.33301 -2.66699 -2 -7.66699 -2 -15c0 -26.667 19 -47 57 -61s82.333 -21 133 -21h33v-264h-142c-61.333 0 -108.333 16 -141 48c-23.333 23.333 -39 54.333 -47 93c-14 -46 -40 -82 -78 -108
c-32 -22 -64 -33 -96 -33h-2z" />
    <glyph glyph-name="k" unicode="&#xf24f;" horiz-adv-x="1749" 
d="M739 733c-5.33301 -5.33301 -14 -8 -26 -8c-11.333 0 -21 2.66699 -29 8l-107 109c-16 10 -24 20.333 -24 31c0 8 4 16 12 24l123 121c6 4 13 6 21 6c16.667 0 30 -6 40 -18l75 -78c9.33301 -9.33301 15.333 -14 18 -14s10.667 6 24 18l90 86c12 5.33301 20.333 8 25 8
c7.33301 0 14 -1.5 20 -4.5s11.667 -8.16699 17 -15.5l113 -109c8 -8 12 -17 12 -27c-2 -10 -9.66699 -19.333 -23 -28l-110 -105c-6.66699 -6.66699 -15.667 -10 -27 -10s-21 3.33301 -29 10l-82 84c-10 11.333 -17.333 17 -22 17c-6 -2 -12.667 -6.66699 -20 -14zM0 363
c0 62.667 6.66699 116 20 160c8 27.333 22.667 60.666 44 99.999c10.667 29.333 22.334 44 35.001 44c10 0 15 -10.667 15 -32c0 -23.333 -6.66699 -52 -20 -86c-8 -22 -12 -44.667 -12 -68c0 -58.667 27.667 -110.334 83 -155.001c51.333 -41.333 106.333 -62 165 -62h1015
c33.333 0 59.666 20 78.999 60c17.333 36 26 81 26 135c0 36 -4 70 -12 102l195 232c0 -11.333 0.666992 -31.166 2 -59.499s2 -44.166 2 -47.499c0 -120.667 -13.667 -229 -41 -325c-0.666992 -2 -1.33398 -4.5 -2.00098 -7.5s-1 -5.5 -1 -7.5c0 -26.667 19.333 -47 58 -61
s83 -21 133 -21h30v-264h-137c-63.333 0 -111 16 -143 48c-22 22 -37.667 53 -47 93c-14 -45.333 -40 -81.333 -78 -108c-31.333 -22 -62.666 -33 -93.999 -33h-954c-98 0 -181.667 33 -251 99c-73.333 69.333 -110 157.333 -110 264z" />
    <glyph glyph-name="l" unicode="&#xf250;" horiz-adv-x="1643" 
d="M721 793c-8.66699 -7.33301 -19.0049 -10.999 -31.0049 -10.999c-10 0 -18 3.66699 -24 11l-109 104c-15.333 11.333 -23 22.333 -23 33c0 6.66699 3.66699 15.334 11 26.001l121 117c10.667 5.33301 19.334 8 26.001 8c7.33301 0 14 -1.5 20 -4.5s11 -8.16699 15 -15.5
l78 -74c10.667 -9.33301 17.334 -14 20.001 -14s10.334 4.66699 23.001 14l88 86c7.33301 5.33301 16.333 8 27 8c7.33301 0 13.833 -1.16699 19.5 -3.5s10.834 -6.5 15.501 -12.5l112 -109c3.33301 -4.66699 5.83301 -9.33398 7.5 -14.001s2.5 -9.33398 2.5 -14.001
c0 -9.33301 -7.33301 -18.333 -22 -27l-111 -108c-6.66699 -6.66699 -16 -10 -28 -10s-21 3.33301 -27 10l-80 85c-11.333 9.33301 -18.666 14 -21.999 14c-2.66699 0 -9.66699 -4.66699 -21 -14zM-0.00488281 363.001c0 62.667 6.66602 116.004 19.999 160.004
c8 27.333 22.667 60.666 44 99.999c10.667 29.333 22.334 44 35.001 44c10 0 15 -10.667 15 -32c0 -23.333 -6.66699 -52 -20 -86c-8 -22 -12 -44.667 -12 -68c0 -58.667 27.667 -110.334 83 -155.001c51.333 -41.333 106.333 -62 165 -62h1145
c-13.333 88 -30.666 157 -51.999 207c-24.667 58 -59.334 102.333 -104.001 133l156 248c45.333 -99.333 80 -203 104 -311c22 -98.667 33 -192.334 33 -281.001c0 -102.667 -13.667 -189.334 -41 -260.001h-1210c-98 0 -181.667 33 -251 99
c-73.333 69.333 -110 157.333 -110 264z" />
    <glyph glyph-name="m" unicode="&#xf251;" horiz-adv-x="811" 
d="M385 1149l-78.001 -76.001c-5.33301 -5.33301 -11.333 -8 -18 -8c-7.33301 0 -13.666 2.66699 -18.999 8l-75 76c-12 4.66699 -18 11.334 -18 20.001c0 6 2.33301 12.333 7 19l80 78c8 8 17.667 12 29 12c4 0 8.66699 -1.33301 14 -4l90 -86c4 -6 6 -12 6 -18
c0 -9.33301 -6 -16.333 -18 -21zM200.999 814.999c-5.33301 -6.66699 -13.667 -9.99805 -25 -9.99805c-10 0 -17.333 3.33301 -22 10l-90 88c-14 7.33301 -21 15.666 -21 24.999c0 5.33301 3 12.666 9 21.999l102 96c6 4 12.667 6 20 6c11.333 0 22.333 -5.33301 33 -16
l61 -61c7.33301 -9.33301 12 -14 14 -14c3.33301 0 11 6 23 18l74 69c5.33301 4 11 6 17 6c13.333 0 24 -4.66699 32 -14l97 -90c6.66699 -11.333 9.33398 -19.333 8.00098 -24c0 -9.33301 -6.33301 -17 -19 -23l-92 -88c-6 -5.33301 -14.333 -8 -25 -8
c-8 0 -14.667 2.66699 -20 8l-70 67c-6.66699 10.667 -12.334 16 -17.001 16c-4 0 -9.33301 -4.33301 -16 -13zM601.998 264.001c-10.667 67.333 -29.667 126.667 -57 178c-22.667 42.667 -57.667 90.334 -105 143.001l174 245c41.333 -92 71.333 -171.333 90 -238
c22 -78 33 -153 33 -225c0 -12.667 0.166992 -27 0.5 -43s0.833008 -34 1.5 -54c0 -56 -2.5 -106.333 -7.5 -151s-12.5 -84.334 -22.5 -119.001h-795v264h688z" />
    <glyph glyph-name="n" unicode="&#xf252;" horiz-adv-x="895" 
d="M514 1237l-80.001 -74.001c-5.33301 -5.33301 -11.666 -8 -18.999 -8c-6.66699 0 -12.667 2.66699 -18 8l-77 74c-11.333 8 -17 15.667 -17 23c0 2.66699 2.66699 9.33398 8 20.001l80 76c8 8 17.667 12 29 12c4 0 8.66699 -1.33301 14 -4l91 -84c4 -8 6 -14.667 6 -20
c0 -7.33301 -5.66699 -15 -17 -23zM325.999 902.999c-5.33301 -5.33301 -12.999 -7.99902 -22.999 -7.99902s-17.667 2.66699 -23 8l-89 91c-14.667 7.33301 -21 15.333 -19 24c0 7.33301 2.66699 14.666 8 21.999l100 97c7.33301 4 14.333 6 21 6
c12 0 22.333 -5.33301 31 -16l63 -62c7.33301 -8.66699 12.333 -13 15 -13s10 5 22 15l74 72c5.33301 4 11.666 6 18.999 6c12 0 22.667 -4.66699 32 -14l94 -91c8 -10.667 11 -18.667 9 -24c0 -8 -6.33301 -15.333 -19 -22l-90 -91c-5.33301 -5.33301 -13.333 -8 -24 -8
c-8.66699 0 -17 2.66699 -25 8l-68 70c-6.66699 10.667 -12.334 16 -17.001 16c-3.33301 0 -8.66602 -4.66699 -15.999 -14zM422 0h-471.001v264h508c32.667 0 58.334 20 77.001 60c16.667 36 25 81 25 135c0 36 -4 70 -12 102l194 232c0 -10.667 0.666992 -27 2 -49
s2 -39.333 2 -52c0 -56 -3.66699 -113.167 -11 -171.5s-17 -111.5 -29 -159.5c-1.33301 -2.66699 -2 -7.66699 -2 -15c0 -26.667 19 -47 57 -61s82.333 -21 133 -21h33v-264h-142c-61.333 0 -108.333 16 -141 48c-23.333 23.333 -39 54.333 -47 93c-14 -46 -40 -82 -78 -108
c-32 -22 -64 -33 -96 -33h-2z" />
    <glyph glyph-name="o" unicode="&#xf253;" horiz-adv-x="1749" 
d="M956 1061l-78 -76.001c-4 -5.33301 -9.66699 -8 -17 -8s-14.333 2.66699 -21 8l-78 76c-11.333 6 -17 13 -17 21c0 6 2.66699 12.667 8 20l83 74c2 2 5.33301 4.33301 10 7c7.33301 4.66699 14 6.33398 20 5.00098c5.33301 0 9.33301 -0.666992 12 -2l89 -84
c4 -6 6 -12.333 6 -19c0 -8.66699 -5.66699 -16 -17 -22zM768 726.999c-6.66699 -6.66699 -15 -10 -25 -10c-8 0 -15.333 3.33301 -22 10l-88 88c-14 8.66699 -20.333 17 -19 25c0 6.66699 3 13.334 9 20.001l98 96c4 3.33301 8 5.66602 12 6.99902s8 2 12 2
c14 0 23.667 -5 29 -15l62 -65c4 -3.33301 7.33301 -6 10 -8s5 -3 7 -3c2.66699 0 9 5.66699 19 17l76 70c6 4 13 6 21 6c12.667 0 23 -5.66699 31 -17l92 -90c6.66699 -6.66699 10 -14 10 -22c0 -9.33301 -6.33301 -17 -19 -23l-89 -88c-7.33301 -6 -16 -9 -26 -9
s-18 3 -24 9l-66 66c-9.33301 11.333 -15.666 17 -18.999 17c-2.66699 0 -8.33398 -3.66699 -17.001 -11zM0 362.999c0 62.667 6.66699 116 20 160c8 27.333 22.667 60.666 44 99.999c10.667 29.333 22.334 44 35.001 44c10 0 15 -10.667 15 -32
c0 -23.333 -6.66699 -52 -20 -86c-8 -22 -12 -44.667 -12 -68c0 -58.667 27.667 -110.334 83 -155.001c51.333 -41.333 106.333 -62 165 -62h1015c33.333 0 59.666 20 78.999 60c17.333 36 26 81 26 135c0 36 -4 70 -12 102l195 232c0 -11.333 0.666992 -31.166 2 -59.499
s2 -44.166 2 -47.499c0 -120.667 -13.667 -229 -41 -325c-0.666992 -2 -1.33398 -4.5 -2.00098 -7.5s-1 -5.5 -1 -7.5c0 -26.667 19.333 -47 58 -61s83 -21 133 -21h30v-264h-137c-63.333 0 -111 16 -143 48c-22 22 -37.667 53 -47 93c-14 -45.333 -40 -81.333 -78 -108
c-31.333 -22 -62.666 -33 -93.999 -33h-954c-98 0 -181.667 33 -251 99c-73.333 69.333 -110 157.333 -110 264z" />
    <glyph glyph-name="p" unicode="&#xf254;" horiz-adv-x="1643" 
d="M938 1083l-77.999 -77.001c-4 -4 -10 -6 -18 -6c-6 0 -12 2 -18 6l-77 77c-11.333 4.66699 -17 11.334 -17 20.001c0 6.66699 2.33301 13.667 7 21l80 76c7.33301 6.66699 16.333 10 27 10c5.33301 0 10.666 -1.33301 15.999 -4l90 -82c4.66699 -6.66699 7 -13 7 -19
c0 -10 -6.33301 -17.333 -19 -22zM753.001 748.999c-5.33301 -6.66699 -13.335 -10 -24.002 -10c-10 0 -17.333 3.33301 -22 10l-91 87c-13.333 7.33301 -20 16 -20 26c0 3.33301 2.66699 11 8 23l103 96c6 4 12.667 6 20 6c11.333 0 22.333 -4.66699 33 -14l61 -64
c6.66699 -8.66699 11.667 -13 15 -13s10.666 5.66699 21.999 17l74 68c5.33301 5.33301 12 8 20 8c14 0 23.667 -4.66699 29 -14l96 -90c6.66699 -10.667 9.33398 -19 8.00098 -25c0 -10 -6 -18 -18 -24l-92 -87c-5.33301 -5.33301 -13.666 -8 -24.999 -8
c-4.66699 0 -8.16699 0.5 -10.5 1.5s-6.16602 3.16699 -11.499 6.5l-68 68c-7.33301 10 -13.333 15 -18 15c-3.33301 0 -8 -3.66699 -14 -11zM-0.000976562 362.999c0 62.667 6.66602 116.004 19.999 160.004c8 27.333 22.667 60.666 44 99.999
c10.667 29.333 22.334 44 35.001 44c10 0 15 -10.667 15 -32c0 -23.333 -6.66699 -52 -20 -86c-8 -22 -12 -44.667 -12 -68c0 -58.667 27.667 -110.334 83 -155.001c51.333 -41.333 106.333 -62 165 -62h1145c-13.333 88 -30.666 157 -51.999 207
c-24.667 58 -59.334 102.333 -104.001 133l156 248c45.333 -99.333 80 -203 104 -311c22 -98.667 33 -192.334 33 -281.001c0 -102.667 -13.667 -189.334 -41 -260.001h-1210c-98 0 -181.667 33 -251 99c-73.333 69.333 -110 157.333 -110 264z" />
    <glyph glyph-name="q" unicode="&#xf255;" horiz-adv-x="1663" 
d="M950 629c103.333 -60 212.333 -108 327 -144c105.333 -33.333 215 -56.666 329 -69.999c-24 -26.667 -51 -63 -81 -109l-75 -115c-26.667 9.33301 -60 16.333 -100 21s-81 7 -123 7c-74 0 -149.667 -6 -227 -18c-54 -8.66699 -96.667 -18.334 -128 -29.001
c-42 -14.667 -95 -41.334 -159 -80.001c-57.333 -35.333 -112 -60.333 -164 -75c-39.333 -11.333 -78.333 -17 -117 -17h-508v264h514c43.333 0 91.666 7.66699 144.999 23c9.33301 2.66699 60.333 20 153 52c68.667 23.333 126.334 40 173.001 50
c-62 36.667 -149 71.834 -261 105.501s-194.333 50.5 -247 50.5c-46.667 0 -85.5 -4 -116.5 -12s-60.167 -22.333 -87.5 -43c0 62.667 18.333 123.334 55 182.001c47.333 76 111.333 114 192 114c14 0 24.333 -0.666992 31 -2c71.333 -8.66699 153.5 -27.834 246.5 -57.501
s169.167 -62.167 228.5 -97.5zM420 -379l-100 -102.001c-6 -6.66699 -15 -10 -27 -10s-21.667 3.33301 -29 10l-102 102c-14.667 6.66699 -22 15.667 -22 27c0 7.33301 3 16 9 26l109 101c8.66699 10.667 21 16 37 16c6 -1.33301 10.5 -2.16602 13.5 -2.49902
s5.83301 -1.5 8.5 -3.5l117 -111c6.66699 -8.66699 10 -16.667 10 -24c0 -9.33301 -8 -19 -24 -29z" />
    <glyph glyph-name="r" unicode="&#xf256;" horiz-adv-x="1430" 
d="M-82 0l-0.00195312 263.999h451c74 0 142.667 13.333 206 40c90.667 38 163.334 63 218.001 75c-70.667 41.333 -152.167 77.333 -244.5 108s-164.5 46 -216.5 46l-33 2c-38 0 -72 -5.33301 -102 -16c-37.333 -13.333 -77.666 -39.666 -120.999 -78.999
c21.333 110.667 58.333 191 111 241c37.333 35.333 94 62.333 170 81c18 4 37.333 6 58 6c55.333 0 125.333 -13 210 -39c74 -22.667 162.667 -56.667 266 -102c64.667 -28.667 128.334 -49 191.001 -61c52.667 -10 111 -15 175 -15c14 0 37.667 0.666992 71 2
s51.333 2 54 2c-14.667 -22.667 -34.334 -60.334 -59.001 -113.001l-55 -116c-41.333 8 -82.333 12 -123 12c-42 0 -81 -3.16699 -117 -9.5s-69.333 -15.5 -100 -27.5c10 -24.667 31.333 -37 64 -37h487v-264h-506c-38 0 -70.333 27.833 -97 83.5s-40 115.834 -40 180.501
c-40.667 -15.333 -82 -43 -124 -83l-108 -107c-32 -30 -70 -51.333 -114 -64c-32 -9.33301 -69.667 -14 -113 -14c-13.333 0 -30 0.666992 -50 2s-32.667 2 -38 2h-371zM419.998 -379.001l-100 -102.001c-6 -6.66699 -15 -10 -27 -10s-21.667 3.33301 -29 10l-102 102
c-14.667 6.66699 -22 15.667 -22 27c0 7.33301 3 16 9 26l109 101c8.66699 10.667 21 16 37 16c6 -1.33301 10.5 -2.16602 13.5 -2.49902s5.83301 -1.5 8.5 -3.5l117 -111c6.66699 -8.66699 10 -16.667 10 -24c0 -9.33301 -8 -19 -24 -29z" />
    <glyph glyph-name="s" unicode="&#xf257;" horiz-adv-x="1323" 
d="M543 537c-121.333 -75.333 -216.502 -162.666 -285.502 -261.999s-103.5 -195 -103.5 -287c0 -108.667 43.333 -202.334 130 -281.001c80 -72.667 176.333 -115.667 289 -129c20 -3.33301 46.333 -6.16602 79 -8.49902s74.667 -3.5 126 -3.5c32 0 57.333 0.333008 76 1
c92.667 3.33301 147.334 5 164.001 5c30 0 75.667 3.5 137 10.5l178 20.5c-34 -25.333 -61.333 -46.666 -82 -63.999c-18 -14.667 -37.667 -32.334 -59 -53.001c-80 -74.667 -158.667 -125.667 -236 -153c-65.333 -22.667 -150.333 -34 -255 -34
c-218.667 0 -378.334 46.667 -479.001 140c-102.667 95.333 -154 247.666 -154 456.999c0 175.333 41.333 334 124 476s194.334 247.333 335.001 316c-42.667 9.33301 -92.167 17.166 -148.5 23.499s-102.5 9.5 -138.5 9.5c-62.667 0 -113.167 -8.83301 -151.5 -26.5
s-63.166 -46.5 -74.499 -86.5v33c0 122.667 34 211.667 102 267c45.333 36.667 98.666 55 159.999 55c41.333 0 91 -3.66699 149 -11c26 -3.33301 69.5 -10 130.5 -20s116.167 -18 165.5 -24c74 -8.66699 143.667 -13 209 -13c77.333 0 148.333 6.66699 213 20l-97 -264
c-42 0 -75.5 -1.5 -100.5 -4.5s-43.167 -6.83301 -54.5 -11.5c-4 -15.333 -6.83301 -30.333 -8.5 -45s-2.5 -31 -2.5 -49c0 -82 26 -148.667 78 -200s119.667 -77 203 -77h231v-264h-216c-80 0 -132.167 1 -156.5 3s-48.166 8 -71.499 18c-44 20 -81 57.667 -111 113
c-38 70.667 -57 160.334 -57 269.001c0 68.667 8.33301 146 25 232c-62 -12.667 -111.833 -26 -149.5 -40s-75.167 -33.333 -112.5 -58zM652.998 14l-98 -96c-6 -6 -14.667 -9 -26 -9c-12 0 -21 3 -27 9l-105 96c-14.667 10.667 -22 20.667 -22 30c0 6 3.33301 14.667 10 26
l111 102c9.33301 12 20.333 17 33 15c3.33301 0 7 -0.5 11 -1.5s7.66699 -2.83301 11 -5.5l119 -110c5.33301 -7.33301 8 -15 8 -23c0 -11.333 -8.33301 -22.333 -25 -33z" />
    <glyph glyph-name="t" unicode="&#xf258;" horiz-adv-x="1237" 
d="M987 -428c58.667 0 119.5 6.16699 182.5 18.5s117.5 22.5 163.5 30.5c-42.667 -24 -78.667 -48.667 -108 -74l-64 -61c-79.333 -75.333 -157.666 -126.333 -234.999 -153c-65.333 -22.667 -150.666 -34 -255.999 -34c-218 0 -377.333 46.667 -478 140
c-103.333 95.333 -155 247.666 -155 456.999c0 170.667 46.333 328.667 139 474c88.667 138.667 205.667 246.667 351 324c-42 8.66699 -99.167 14.667 -171.5 18s-123.166 7.66602 -152.499 12.999c-6 0.666992 -11.833 1.5 -17.5 2.5s-12.834 1.5 -21.501 1.5
c-28.667 0 -55.834 -7.5 -81.501 -22.5s-53.167 -41.5 -82.5 -79.5c10.667 90.667 34.667 167.334 72 230.001c42.667 72 94.334 108 155.001 108l19 -2l247 -37c116.667 -15.333 216.667 -23 300 -23c22.667 -2 50 -3.83301 82 -5.5s55.667 -2.5 71 -2.5
c60.667 0 115.334 6.66699 164.001 20l-98 -245c-86.667 0 -161.334 -6 -224.001 -18c-52.667 -10 -103.334 -26 -152.001 -48c-30.667 -14 -72 -36.333 -124 -67c-121.333 -75.333 -216.5 -162.666 -285.5 -261.999s-103.5 -195 -103.5 -287
c0 -108.667 43.667 -202.334 131 -281.001c80.667 -72.667 177 -115.667 289 -129c20 -3.33301 46.167 -6.16602 78.5 -8.49902s74.166 -3.5 125.499 -3.5c32 0 57.333 0.333008 76 1c93.333 3.33301 148 5 164 5zM793 82l-102.999 -96c-6 -6.66699 -14.333 -10 -25 -10
s-19.334 3.33301 -26.001 10l-102 96c-14.667 10 -22 19.667 -22 29c0 8 3.33301 16.667 10 26l108 103c3.33301 5.33301 8.5 9.33301 15.5 12s13.5 4 19.5 4c6 -1.33301 10.5 -2.16602 13.5 -2.49902s5.83301 -1.5 8.5 -3.5l115 -113c4 -4 6.5 -8.16699 7.5 -12.5
l2.5 -10.5c0 -10.667 -7.33301 -21.334 -22 -32.001z" />
    <glyph glyph-name="u" unicode="&#xf259;" horiz-adv-x="1663" 
d="M950 629c103.333 -60 212.333 -108 327 -144c105.333 -33.333 215 -56.666 329 -69.999c-24 -26.667 -51 -63 -81 -109l-75 -115c-26.667 9.33301 -60 16.333 -100 21s-81 7 -123 7c-74 0 -149.667 -6 -227 -18c-54 -8.66699 -96.667 -18.334 -128 -29.001
c-42 -14.667 -95 -41.334 -159 -80.001c-57.333 -35.333 -112 -60.333 -164 -75c-39.333 -11.333 -78.333 -17 -117 -17h-508v264h514c43.333 0 91.666 7.66699 144.999 23c9.33301 2.66699 60.333 20 153 52c68.667 23.333 126.334 40 173.001 50
c-62 36.667 -149 71.834 -261 105.501s-194.333 50.5 -247 50.5c-46.667 0 -85.5 -4 -116.5 -12s-60.167 -22.333 -87.5 -43c0 62.667 18.333 123.334 55 182.001c47.333 76 111.333 114 192 114c14 0 24.333 -0.666992 31 -2c71.333 -8.66699 153.5 -27.834 246.5 -57.501
s169.167 -62.167 228.5 -97.5z" />
    <glyph glyph-name="v" unicode="&#xf25a;" horiz-adv-x="1407" 
d="M-82 0l-0.00195312 263.999h451c74 0 142.667 13.333 206 40c90.667 38 163.334 63 218.001 75c-70.667 41.333 -152.167 77.333 -244.5 108s-164.5 46 -216.5 46l-33 2c-38 0 -72 -5.33301 -102 -16c-37.333 -13.333 -77.666 -39.666 -120.999 -78.999
c21.333 110.667 58.333 191 111 241c37.333 35.333 94 62.333 170 81c18 4 37.333 6 58 6c55.333 0 125.333 -13 210 -39c74 -22.667 162.667 -56.667 266 -102c64.667 -28.667 128.334 -49 191.001 -61c52.667 -10 111 -15 175 -15c14 0 37.667 0.666992 71 2
s51.333 2 54 2c-14.667 -22.667 -34.334 -60.334 -59.001 -113.001l-55 -116c-41.333 8 -82.333 12 -123 12c-42 0 -81 -3.16699 -117 -9.5s-69.333 -15.5 -100 -27.5c10 -24.667 31.333 -37 64 -37h487v-264h-506c-38 0 -70.333 27.833 -97 83.5s-40 115.834 -40 180.501
c-40.667 -15.333 -82 -43 -124 -83l-108 -107c-32 -30 -70 -51.333 -114 -64c-32 -9.33301 -69.667 -14 -113 -14c-13.333 0 -30 0.666992 -50 2s-32.667 2 -38 2h-371z" />
    <glyph glyph-name="w" unicode="&#xf25b;" horiz-adv-x="598" 
d="M514 -234h-426l-6 1848h436l-4 -64l-256 -4l-2 -1714h258v-66z" />
    <glyph glyph-name="x" unicode="&#xf25c;" horiz-adv-x="1323" 
d="M543 537c-121.333 -75.333 -216.502 -162.666 -285.502 -261.999s-103.5 -195 -103.5 -287c0 -108.667 43.333 -202.334 130 -281.001c80 -72.667 176.333 -115.667 289 -129c20 -3.33301 46.333 -6.16602 79 -8.49902s74.667 -3.5 126 -3.5c32 0 57.333 0.333008 76 1
c92.667 3.33301 147.334 5 164.001 5c30 0 75.667 3.5 137 10.5l178 20.5c-34 -25.333 -61.333 -46.666 -82 -63.999c-18 -14.667 -37.667 -32.334 -59 -53.001c-80 -74.667 -158.667 -125.667 -236 -153c-65.333 -22.667 -150.333 -34 -255 -34
c-218.667 0 -378.334 46.667 -479.001 140c-102.667 95.333 -154 247.666 -154 456.999c0 175.333 41.333 334 124 476s194.334 247.333 335.001 316c-42.667 9.33301 -92.167 17.166 -148.5 23.499s-102.5 9.5 -138.5 9.5c-62.667 0 -113.167 -8.83301 -151.5 -26.5
s-63.166 -46.5 -74.499 -86.5v33c0 122.667 34 211.667 102 267c45.333 36.667 98.666 55 159.999 55c41.333 0 91 -3.66699 149 -11c26 -3.33301 69.5 -10 130.5 -20s116.167 -18 165.5 -24c74 -8.66699 143.667 -13 209 -13c77.333 0 148.333 6.66699 213 20l-97 -264
c-42 0 -75.5 -1.5 -100.5 -4.5s-43.167 -6.83301 -54.5 -11.5c-4 -15.333 -6.83301 -30.333 -8.5 -45s-2.5 -31 -2.5 -49c0 -82 26 -148.667 78 -200s119.667 -77 203 -77h231v-264h-216c-80 0 -132.167 1 -156.5 3s-48.166 8 -71.499 18c-44 20 -81 57.667 -111 113
c-38 70.667 -57 160.334 -57 269.001c0 68.667 8.33301 146 25 232c-62 -12.667 -111.833 -26 -149.5 -40s-75.167 -33.333 -112.5 -58z" />
    <glyph glyph-name="y" unicode="&#xf25d;" horiz-adv-x="598" 
d="M344 -168v1714l-258 4l-4 64h436l-4 -1848h-428l2 66h256z" />
    <glyph glyph-name="z" unicode="&#xf25e;" horiz-adv-x="512" 
d="M401 183c2 -8.66699 3.16992 -14.666 3.50293 -17.999s0.5 -9.33301 0.5 -18c0 -33.333 -5 -73 -15 -119s-22.667 -87 -38 -123c-20.667 -48.667 -45 -92.667 -73 -132c-22 -30.667 -52.333 -66 -91 -106c-10 -8.66699 -19.333 -15.167 -28 -19.5s-16 -6.5 -22 -6.5
c-11.333 2 -16 8.66699 -14 20c0 1.33301 1.33301 4.66602 4 9.99902c53.333 60 93.666 114.667 120.999 164s41 94 41 134c0 34.667 -2.33301 61.167 -7 79.5s-14.334 28.5 -29.001 30.5h-35c-10.667 -18 -23 -30.333 -37 -37c-8 -4 -18.333 -6 -31 -6
c-23.333 0 -41.166 9 -53.499 27s-18.5 43 -18.5 75c0 24 4.33301 51.667 13 83c15.333 44 33.666 75.333 54.999 94c16.667 14.667 35 22 55 22c63.333 0 109.666 -12.333 138.999 -37c26.667 -22.667 46.667 -61.667 60 -117z" />
    <glyph glyph-name="braceleft" unicode="&#xf25f;" horiz-adv-x="405" 
d="M452 0h-479v265h479v-265z" />
    <glyph glyph-name="bar" unicode="&#xf260;" horiz-adv-x="1237" 
d="M987 -428c58.667 0 119.5 6.16699 182.5 18.5s117.5 22.5 163.5 30.5c-42.667 -24 -78.667 -48.667 -108 -74l-64 -61c-79.333 -75.333 -157.666 -126.333 -234.999 -153c-65.333 -22.667 -150.666 -34 -255.999 -34c-218 0 -377.333 46.667 -478 140
c-103.333 95.333 -155 247.666 -155 456.999c0 170.667 46.333 328.667 139 474c88.667 138.667 205.667 246.667 351 324c-42 8.66699 -99.167 14.667 -171.5 18s-123.166 7.66602 -152.499 12.999c-6 0.666992 -11.833 1.5 -17.5 2.5s-12.834 1.5 -21.501 1.5
c-28.667 0 -55.834 -7.5 -81.501 -22.5s-53.167 -41.5 -82.5 -79.5c10.667 90.667 34.667 167.334 72 230.001c42.667 72 94.334 108 155.001 108l19 -2l247 -37c116.667 -15.333 216.667 -23 300 -23c22.667 -2 50 -3.83301 82 -5.5s55.667 -2.5 71 -2.5
c60.667 0 115.334 6.66699 164.001 20l-98 -245c-86.667 0 -161.334 -6 -224.001 -18c-52.667 -10 -103.334 -26 -152.001 -48c-30.667 -14 -72 -36.333 -124 -67c-121.333 -75.333 -216.5 -162.666 -285.5 -261.999s-103.5 -195 -103.5 -287
c0 -108.667 43.667 -202.334 131 -281.001c80.667 -72.667 177 -115.667 289 -129c20 -3.33301 46.167 -6.16602 78.5 -8.49902s74.166 -3.5 125.499 -3.5c32 0 57.333 0.333008 76 1c93.333 3.33301 148 5 164 5z" />
    <glyph glyph-name="braceright" unicode="&#xf261;" horiz-adv-x="1663" 
d="M733 1182l-98.0029 -99.001c-6 -6 -14.667 -9 -26 -9c-10.667 0 -20.667 3 -30 9l-102 99c-14 8.66699 -21 18.334 -21 29.001c0 7.33301 3 16 9 26l108 102c4.66699 6 10.334 10.333 17.001 13s13.334 4 20.001 4c5.33301 -1.33301 9.83301 -2.16602 13.5 -2.49902
s6.83398 -1.83301 9.50098 -4.5l116 -112c7.33301 -8.66699 11 -16.334 11 -23.001c-2 -11.333 -11 -22 -27 -32zM949.997 628.999c103.333 -60 212.333 -108 327 -144c105.333 -33.333 215 -56.666 329 -69.999c-24 -26.667 -51 -63 -81 -109l-75 -115
c-26.667 9.33301 -60 16.333 -100 21s-81 7 -123 7c-74 0 -149.667 -6 -227 -18c-54 -8.66699 -96.667 -18.334 -128 -29.001c-42 -14.667 -95 -41.334 -159 -80.001c-57.333 -35.333 -112 -60.333 -164 -75c-39.333 -11.333 -78.333 -17 -117 -17h-508v264h514
c43.333 0 91.666 7.66699 144.999 23c9.33301 2.66699 60.333 20 153 52c68.667 23.333 126.334 40 173.001 50c-62 36.667 -149 71.834 -261 105.501s-194.333 50.5 -247 50.5c-46.667 0 -85.5 -4 -116.5 -12s-60.167 -22.333 -87.5 -43
c0 62.667 18.333 123.334 55 182.001c47.333 76 111.333 114 192 114c14 0 24.333 -0.666992 31 -2c71.333 -8.66699 153.5 -27.834 246.5 -57.501s169.167 -62.167 228.5 -97.5z" />
    <glyph glyph-name="asciitilde" unicode="&#xf262;" horiz-adv-x="1366" 
d="M660 1092l-99 -100c-6 -6.66699 -14.667 -10 -26 -10c-12 0 -21 3.33301 -27 10l-105 100c-14 7.33301 -21 16.333 -21 27c0 7.33301 3 16 9 26l111 102c9.33301 12 20.333 17 33 15c10.667 0 18.667 -2.33301 24 -7l117 -110c5.33301 -7.33301 8 -15 8 -23
c0 -10 -8 -20 -24 -30zM-82 0l-0.00195312 263.999h451c74 0 142.667 13.333 206 40c90.667 38 163.334 63 218.001 75c-70.667 41.333 -152.167 77.333 -244.5 108s-164.5 46 -216.5 46l-33 2c-38 0 -72 -5.33301 -102 -16
c-37.333 -13.333 -77.666 -39.666 -120.999 -78.999c21.333 110.667 58.333 191 111 241c37.333 35.333 94 62.333 170 81c18 4 37.333 6 58 6c55.333 0 125.333 -13 210 -39c74 -22.667 162.667 -56.667 266 -102c64.667 -28.667 128.334 -49 191.001 -61
c52.667 -10 111 -15 175 -15c14 0 37.667 0.666992 71 2s51.333 2 54 2c-14.667 -22.667 -34.334 -60.334 -59.001 -113.001l-55 -116c-41.333 8 -82.333 12 -123 12c-42 0 -81 -3.16699 -117 -9.5s-69.333 -15.5 -100 -27.5c10 -24.667 31.333 -37 64 -37h487v-264h-506
c-38 0 -70.333 27.833 -97 83.5s-40 115.834 -40 180.501c-40.667 -15.333 -82 -43 -124 -83l-108 -107c-32 -30 -70 -51.333 -114 -64c-32 -9.33301 -69.667 -14 -113 -14c-13.333 0 -30 0.666992 -50 2s-32.667 2 -38 2h-371z" />
    <glyph glyph-name="DEL" unicode="&#xf263;" horiz-adv-x="1323" 
d="M733 1319l-97.999 -100.997c-6 -6 -14.667 -9 -26 -9c-10.667 0 -20.667 3 -30 9l-102 101c-14 7.33301 -21 16.666 -21 27.999c0 6 3 13.667 9 23l108 105c9.33301 9.33301 21.666 14 36.999 14c6.66699 0 11.667 -0.333008 15 -1c4 -2 6.66699 -3 8 -3l116 -115
c6 -6 9 -11.667 9 -17c0 -4.66699 -2.16699 -9.83398 -6.5 -15.501s-10.5 -11.834 -18.5 -18.501zM543.001 537.003c-121.333 -75.333 -216.502 -162.666 -285.502 -261.999s-103.5 -195 -103.5 -287c0 -108.667 43.333 -202.334 130 -281.001
c80 -72.667 176.333 -115.667 289 -129c20 -3.33301 46.333 -6.16602 79 -8.49902s74.667 -3.5 126 -3.5c32 0 57.333 0.333008 76 1c92.667 3.33301 147.334 5 164.001 5c30 0 75.667 3.5 137 10.5l178 20.5c-34 -25.333 -61.333 -46.666 -82 -63.999
c-18 -14.667 -37.667 -32.334 -59 -53.001c-80 -74.667 -158.667 -125.667 -236 -153c-65.333 -22.667 -150.333 -34 -255 -34c-218.667 0 -378.334 46.667 -479.001 140c-102.667 95.333 -154 247.666 -154 456.999c0 175.333 41.333 334 124 476
s194.334 247.333 335.001 316c-42.667 9.33301 -92.167 17.166 -148.5 23.499s-102.5 9.5 -138.5 9.5c-62.667 0 -113.167 -8.83301 -151.5 -26.5s-63.166 -46.5 -74.499 -86.5v33c0 122.667 34 211.667 102 267c45.333 36.667 98.666 55 159.999 55
c41.333 0 91 -3.66699 149 -11c26 -3.33301 69.5 -10 130.5 -20s116.167 -18 165.5 -24c74 -8.66699 143.667 -13 209 -13c77.333 0 148.333 6.66699 213 20l-97 -264c-42 0 -75.5 -1.5 -100.5 -4.5s-43.167 -6.83301 -54.5 -11.5c-4 -15.333 -6.83301 -30.333 -8.5 -45
s-2.5 -31 -2.5 -49c0 -82 26 -148.667 78 -200s119.667 -77 203 -77h231v-264h-216c-80 0 -132.167 1 -156.5 3s-48.166 8 -71.499 18c-44 20 -81 57.667 -111 113c-38 70.667 -57 160.334 -57 269.001c0 68.667 8.33301 146 25 232c-62 -12.667 -111.833 -26 -149.5 -40
s-75.167 -33.333 -112.5 -58z" />
    </font>
</defs>
</svg>
