<?xml version="1.0" standalone="no"?>
<!DOCTYPE svg PUBLIC "-//W3C//DTD SVG 1.1//EN" "http://www.w3.org/Graphics/SVG/1.1/DTD/svg11.dtd" >
<svg>
<metadata>
Created by FontForge 20090914 at Thu Jan  3 17:47:50 2013
 By www-data
Cracked by Al-Amri
Email: khamri97@hotmail.com
</metadata>
<defs>
<font id="AL-SaremBold" horiz-adv-x="724" >
  <font-face 
    font-family="AL-Sarem Bold"
    font-weight="400"
    font-stretch="normal"
    units-per-em="2048"
    panose-1="0 0 0 0 0 0 0 0 0 0"
    ascent="1638"
    descent="-410"
    bbox="-164 -1025 2290 2036"
    underline-thickness="102"
    underline-position="-154"
    unicode-range="U+F11D-U+F2FF"
  />
<missing-glyph horiz-adv-x="2009" 
d="M125 0v2009h1759v-2009h-1759zM1759 125v1759h-1509v-1759h1509z" />
    <glyph glyph-name=".notdef" horiz-adv-x="2009" 
d="M125 0v2009h1759v-2009h-1759zM1759 125v1759h-1509v-1759h1509z" />
    <glyph glyph-name="c285" unicode="&#xf11d;" horiz-adv-x="0" 
 />
    <glyph glyph-name="space" unicode="&#xf200;" horiz-adv-x="500" 
 />
    <glyph glyph-name="Allah" unicode="&#xf201;" horiz-adv-x="1970" 
d="M503 597c0 4 -6 8 -18 12c-8 0 -36.667 -10 -86 -30c-10.667 -2 -20.334 -5.66699 -29.001 -11l-50 -23c-7.33301 -2 -16.666 -7.33301 -27.999 -16l-44 -36l-52 -45l79 -43l68 -36c34 -18 73 -27 117 -27s66 11.333 66 34l-11 131l-3 54c-2 14 -5 26 -9 36zM1146 249
c7.33301 0 11 11 11 33v22v40l-4 27l-21 174c0 32 -3.33301 74.667 -10 128l-12 103l-18 249l178 140l37 -916h20h357c7.33301 0 11 11 11 33v22v40l-4 27l-21 174c0 32 -3.33301 74.667 -10 128l-12 103l-18 249l178 140l37 -916v-77l1 -36l1 -39v-24v-11l-2 -19
c0 -8 -3 -15.667 -9 -23l-19 -6l-47 -7l-82 -7h-349h-554h-64h-21c-20 0 -36 1 -48 3s-21 5.66699 -27 11l-24 22c-8 9.33301 -17 25.333 -27 48l-16 61l-14 111c-2 22 -7.33301 34 -16 36c-6.66699 0 -14 -3.66699 -22 -11l-12 -12l-9 -13l-34 -79l-11 -23l-15 -20
c-6 -6 -18.333 -13 -37 -21l-23 -2c-14 0 -35.667 3 -65 9c-38.667 8 -99 31.333 -181 70c-34.667 14 -52 39 -52 75c0 24 11.333 61.667 34 113l58 127l16 29l10 16l15 20c22 30 78 61 168 93l124 34l-9 122l140 134l14 -557v-79c0 -28 5.33301 -46 16 -54l13 -12l25 -1
l39 -1h55h361z" />
    <glyph glyph-name="f202" unicode="&#xf202;" horiz-adv-x="1494" 
d="M1068 -367l195 -81l-73 -163l-190 81zM713 0l-25 10.999l-25 -4l-31 -5l-46 -2l-84 5l-81 2l-111 3l-63 4h-25l-28 -2l-50 -5c-16 -2 -26.333 -9.66699 -31 -23c-1.33301 -6.66699 1 -24.334 7 -53.001l12 -58l20 -82l33 -151l10 -93
c0 -48.667 -2.16699 -90.834 -6.5 -126.501s-12.166 -66.5 -23.499 -92.5c-17.333 -58.667 -32.333 -88 -45 -88l-3 21l-4 74l-3 73v25l-4 21l-7 43l-7 51l-10 61l-10 59l-13 54l-48 197l-4 33c0 48.667 11.833 99.5 35.5 152.5s44.834 86.833 63.501 101.5
c4 3.33301 14.667 8 32 14c15.333 4 32.666 6 51.999 6l84 2l84 3h38c36 0 58.667 2.33301 68 7l-54 101c-24.667 30.667 -46 53.834 -64 69.501s-33 23.5 -45 23.5c-38 0 -91.667 -23.333 -161 -70c-23.333 -15.333 -40.666 -22 -51.999 -20c-8 8 14.667 49.333 68 124
l82 107c40.667 52.667 90.334 79 149.001 79c33.333 0 65 -12 95 -36l36 -48l59 -95l38 -72l22 -41l19 -30c13.333 -19.333 30.666 -38 51.999 -56l50 -25h57l111 -7l79 -4l72 -1h27l32 -4h30l42 1h15c8 0 16 1.33301 24 4c31.333 0 49.333 4.33301 54 13l4 18
c0 23.333 -18 65 -54 125c-12 22 -36 55 -72 99l39 61l27 41c41.333 64.667 65.333 99.334 72 104.001l48 -74c31.333 -54.667 53.666 -107.667 66.999 -159c9.33301 -33.333 20.666 -86.666 33.999 -159.999l14 -88l4 -50l1 -25c0 -60 -10 -104 -30 -132
c-2 -2 -42.667 -7.33301 -122 -16l-177 -9l-341 14h-102z" />
    <glyph glyph-name="f203" unicode="&#xf203;" horiz-adv-x="1494" 
d="M980 1064l-111 -132l149 -126l102 122l145 -122l111 131l-152 129l-102 -122zM713 0l-25 10.999l-25 -4l-31 -5l-46 -2l-84 5l-81 2l-111 3l-63 4h-25l-28 -2l-50 -5c-16 -2 -26.333 -9.66699 -31 -23c-1.33301 -6.66699 1 -24.334 7 -53.001l12 -58l20 -82l33 -151
l10 -93c0 -48.667 -2.16699 -90.834 -6.5 -126.501s-12.166 -66.5 -23.499 -92.5c-17.333 -58.667 -32.333 -88 -45 -88l-3 21l-4 74l-3 73v25l-4 21l-7 43l-7 51l-10 61l-10 59l-13 54l-48 197l-4 33c0 48.667 11.833 99.5 35.5 152.5s44.834 86.833 63.501 101.5
c4 3.33301 14.667 8 32 14c15.333 4 32.666 6 51.999 6l84 2l84 3h38c36 0 58.667 2.33301 68 7l-54 101c-24.667 30.667 -46 53.834 -64 69.501s-33 23.5 -45 23.5c-38 0 -91.667 -23.333 -161 -70c-23.333 -15.333 -40.666 -22 -51.999 -20c-8 8 14.667 49.333 68 124
l82 107c40.667 52.667 90.334 79 149.001 79c33.333 0 65 -12 95 -36l36 -48l59 -95l38 -72l22 -41l19 -30c13.333 -19.333 30.666 -38 51.999 -56l50 -25h57l111 -7l79 -4l72 -1h27l32 -4h30l42 1h15c8 0 16 1.33301 24 4c31.333 0 49.333 4.33301 54 13l4 18
c0 23.333 -18 65 -54 125c-12 22 -36 55 -72 99l39 61l27 41c41.333 64.667 65.333 99.334 72 104.001l48 -74c31.333 -54.667 53.666 -107.667 66.999 -159c9.33301 -33.333 20.666 -86.666 33.999 -159.999l14 -88l4 -50l1 -25c0 -60 -10 -104 -30 -132
c-2 -2 -42.667 -7.33301 -122 -16l-177 -9l-341 14h-102z" />
    <glyph glyph-name="f204" unicode="&#xf204;" horiz-adv-x="1664" 
d="M857 1330l-75 -124l168 -97l72 124zM796 1097l-79 -126l183 -109l156 249l179 -104l-79 -127zM726 229l-15 106.001c-28 69.333 -65 108.666 -111 117.999l-12 1c-36 0 -73.167 -17.167 -111.5 -51.5s-57.5 -63.5 -57.5 -87.5c0 -13.333 32.333 -32.333 97 -57
c30.667 -10 61 -18 91 -24l42 -6l41 -2h11zM0 249.001l63.002 -0.000976562h67h22h18h15h12h45l21 4c34 4 56.333 13.333 67 28c16.667 40 34 76.333 52 109l27 51l32 52c38 62.667 76.833 110 116.5 142s80.167 48 121.5 48c10 0 25.667 -2 47 -6
c33.333 -12 72 -83.667 116 -215c20.667 -67.333 34.667 -116.666 42 -147.999c4 -14.667 6.66699 -27.334 8 -38.001s2 -19.667 2 -27h56l92 -8l108 -3l122 -5h30l42 1h15c8 0 16 1.33301 24 4l36 3c9.33301 2 15.333 5.33301 18 10l3 17c0 30 -17.667 72 -53 126
c-12 22 -36 55 -72 99l65 102c43.333 65.333 67.666 100 72.999 104l47 -74c28.667 -52 51.334 -105 68.001 -159c4.66699 -18 9.66699 -38.667 15 -62s11.166 -52.666 17.499 -87.999s11.166 -67.333 14.499 -96s5 -54.334 5 -77.001c0 -62.667 -9.66699 -106.667 -29 -132
c-4 -4 -44.667 -9.33301 -122 -16l-177 -9l-342 14h-126l-46 20l-18 -6l-52 -11l-42 -4l-19 -1h-25h-22l-12 2l-49 7c-23.333 2 -45.333 6 -66 12s-41 14.667 -61 26l-50 30l-52 36c-3.33301 0 -15 -13 -35 -39c-15.333 -23.333 -32.333 -40.666 -51 -51.999l-26 -8l-33 -8
l-28 -3l-44 -1h-93v249z" />
    <glyph glyph-name="f205" unicode="&#xf205;" horiz-adv-x="1260" 
d="M713 0l-25.002 11.001l-25 -4l-31 -5l-46 -2l-84 5l-81 2l-111 3l-63 4h-25l-28 -2l-50 -5c-16 -2 -26.333 -9.66699 -31 -23c-1.33301 -6.66699 1 -24.334 7 -53.001l12 -58l20 -82l33 -151l10 -93c0 -48.667 -2.16699 -90.834 -6.5 -126.501
s-12.166 -66.5 -23.499 -92.5c-17.333 -58.667 -32.333 -88 -45 -88l-3 21l-4 74l-3 73v25l-4 21l-7 43l-7 51l-10 61l-10 59l-13 54l-48 197l-4 33c0 48.667 11.833 99.5 35.5 152.5s44.834 86.833 63.501 101.5c4 3.33301 14.667 8 32 14c15.333 4 32.666 6 51.999 6l84 2
l84 3h38c36 0 58.667 2.33301 68 7l-54 101c-24.667 30.667 -46 53.834 -64 69.501s-33 23.5 -45 23.5c-38 0 -91.667 -23.333 -161 -70c-23.333 -15.333 -40.666 -22 -51.999 -20c-8 8 14.667 49.333 68 124l82 107c40.667 52.667 90.334 79 149.001 79
c33.333 0 65 -12 95 -36l36 -48l59 -95l38 -72l22 -41l19 -30c13.333 -19.333 30.666 -38 51.999 -56l50 -25h217c7.33301 0 11 11 11 33v22v40l-4 27l-21 174c0 32 -3.33301 74.667 -10 128l-12 103l-18 249l178 140l37 -916v-77l1 -36l1 -39v-24v-11l-2 -19
c0 -8 -3 -15.667 -9 -23l-19 -6l-47 -7l-82 -7h-266z" />
    <glyph glyph-name="f206" unicode="&#xf206;" horiz-adv-x="1494" 
d="M713 0l-25 10.999l-25 -4l-31 -5l-46 -2l-84 5l-81 2l-111 3l-63 4h-25l-28 -2l-50 -5c-16 -2 -26.333 -9.66699 -31 -23c-1.33301 -6.66699 1 -24.334 7 -53.001l12 -58l20 -82l33 -151l10 -93c0 -48.667 -2.16699 -90.834 -6.5 -126.501s-12.166 -66.5 -23.499 -92.5
c-17.333 -58.667 -32.333 -88 -45 -88l-3 21l-4 74l-3 73v25l-4 21l-7 43l-7 51l-10 61l-10 59l-13 54l-48 197l-4 33c0 48.667 11.833 99.5 35.5 152.5s44.834 86.833 63.501 101.5c4 3.33301 14.667 8 32 14c15.333 4 32.666 6 51.999 6l84 2l84 3h38
c36 0 58.667 2.33301 68 7l-54 101c-24.667 30.667 -46 53.834 -64 69.501s-33 23.5 -45 23.5c-38 0 -91.667 -23.333 -161 -70c-23.333 -15.333 -40.666 -22 -51.999 -20c-8 8 14.667 49.333 68 124l82 107c40.667 52.667 90.334 79 149.001 79c33.333 0 65 -12 95 -36
l36 -48l59 -95l38 -72l22 -41l19 -30c13.333 -19.333 30.666 -38 51.999 -56l50 -25h57l111 -7l79 -4l72 -1h27l32 -4h30l42 1h15c8 0 16 1.33301 24 4c31.333 0 49.333 4.33301 54 13l4 18c0 23.333 -18 65 -54 125c-12 22 -36 55 -72 99l39 61l27 41
c41.333 64.667 65.333 99.334 72 104.001l48 -74c31.333 -54.667 53.666 -107.667 66.999 -159c9.33301 -33.333 20.666 -86.666 33.999 -159.999l14 -88l4 -50l1 -25c0 -60 -10 -104 -30 -132c-2 -2 -42.667 -7.33301 -122 -16l-177 -9l-341 14h-102zM1025 1154l195 -81
l-73 -163l-190 81z" />
    <glyph glyph-name="quotesingle" unicode="&#xf208;" horiz-adv-x="2200" 
 />
    <glyph glyph-name="parenleft" unicode="&#xf209;" horiz-adv-x="2200" 
 />
    <glyph glyph-name="parenright" unicode="&#xf20c;" horiz-adv-x="28" 
d="M28 0h-28v1035h28v-1035z" />
    <glyph glyph-name="FF" unicode="&#xf20d;" horiz-adv-x="28" 
d="M102 951l-19 -19l-55 54v-986h-28v985l-53 -53l-19 19l67 68l-67 68l19 19l67 -68l69 68l19 -19l-69 -68z" />
    <glyph glyph-name="SO" unicode="&#xf20e;" horiz-adv-x="28" 
d="M193 1019l-88 -87l-20 20l56 54h-113v-1006h-28v1035h138l-53 52l20 20z" />
    <glyph glyph-name="SI" unicode="&#xf20f;" horiz-adv-x="28" 
d="M28 0h-28v1006h-112l55 -54l-20 -20l-87 87l87 88l20 -20l-52 -52h137v-1035z" />
    <glyph glyph-name="f210" unicode="&#xf210;" horiz-adv-x="2127" 
d="M0 249l45.001 -0.000976562l193 -16l67 -1h27l36 -4l128 -11l42 -1l46 -1h95h44h15h13h11l36 1c14 0 25 1.33301 33 4c37.333 0 59.666 6 66.999 18c13.333 20 -45.334 80.333 -176.001 181c-73.333 54 -139 81 -197 81l-39 -1c-16.667 0 -34.667 -2.33301 -54 -7
c-32.667 -5.33301 -66.667 -14.666 -102 -27.999l-22 -6l-12 -2l-13 3l-4 11c0 16.667 21.667 47.667 65 93c64 65.333 141.667 98 233 98c32.667 0 58.334 -2.33301 77.001 -7c10.667 0 22.667 -2 36 -6l20.5 -6c9 -2.66699 18.167 -6 27.5 -10
c32 -12 77.667 -41.667 137 -89c31.333 -24 63.833 -51.333 97.5 -82s72.167 -68 115.5 -112c64 -64 118.333 -96 163 -96l62 -4h83h86l66 9c18.667 2 39 7.33301 61 16l16 7l-68 712l81 98l64 71c15.333 16 25 24 29 24c7.33301 0 11 -34 11 -102
c0 -62 5 -102.833 15 -122.5s46.667 -45.834 110 -78.501c15.333 -7.33301 23 -18 23 -32l-120 -181l6 -220c0 -62.667 27 -111.667 81 -147c51.333 -32.667 103 -71.667 155 -117c60 -52 92.333 -87.667 97 -107l1 -17c0 -17.333 -2.66699 -35.333 -8 -54
s-14.333 -40 -27 -64c-22.667 -45.333 -43 -75 -61 -89l-36 45c-18.667 24.667 -43 51.334 -73 80.001c-10 10 -22 19 -36 27l-50 29l-32 13l-33 12l-49 -12l-44 -13l-97 -20l-58 -8l-46 -6l-56 -1l-46 -1h-184l-74 -10l-91 -4l-101 -1l-229 -5l-63 1l-58 1l-212 7l-120 3
l-176 8h-50v249z" />
    <glyph glyph-name="f211" unicode="&#xf211;" horiz-adv-x="2127" 
d="M0 249l45.001 -0.000976562l193 -16l67 -1h27l36 -4l128 -11l42 -1l46 -1h95h44h15h13h11l36 1c14 0 25 1.33301 33 4c37.333 0 59.666 6 66.999 18c13.333 20 -45.334 80.333 -176.001 181c-73.333 54 -139 81 -197 81l-39 -1c-16.667 0 -34.667 -2.33301 -54 -7
c-32.667 -5.33301 -66.667 -14.666 -102 -27.999l-22 -6l-12 -2l-13 3l-4 11c0 16.667 21.667 47.667 65 93c64 65.333 141.667 98 233 98c32.667 0 58.334 -2.33301 77.001 -7c10.667 0 22.667 -2 36 -6l20.5 -6c9 -2.66699 18.167 -6 27.5 -10
c32 -12 77.667 -41.667 137 -89c31.333 -24 63.833 -51.333 97.5 -82s72.167 -68 115.5 -112c64 -64 118.333 -96 163 -96l62 -4h83h86l66 9c18.667 2 39 7.33301 61 16l16 7l-68 712l81 98l64 71c15.333 16 25 24 29 24c7.33301 0 11 -34 11 -102
c0 -62 5 -102.833 15 -122.5s46.667 -45.834 110 -78.501c15.333 -7.33301 23 -18 23 -32l-120 -181l6 -220c0 -62.667 27 -111.667 81 -147c51.333 -32.667 103 -71.667 155 -117c60 -52 92.333 -87.667 97 -107l1 -17c0 -17.333 -2.66699 -35.333 -8 -54
s-14.333 -40 -27 -64c-22.667 -45.333 -43 -75 -61 -89l-36 45c-18.667 24.667 -43 51.334 -73 80.001c-10 10 -22 19 -36 27l-50 29l-32 13l-33 12l-49 -12l-44 -13l-97 -20l-58 -8l-46 -6l-56 -1l-46 -1h-184l-74 -10l-91 -4l-101 -1l-229 -5l-63 1l-58 1l-212 7l-120 3
l-176 8h-50v249zM579.001 -330.001l229 -93l-84 -186l-226 93z" />
    <glyph glyph-name="f212" unicode="&#xf212;" horiz-adv-x="1700" 
d="M667 -81l174 -71l-66 -140l-169 70zM1204 0l-155.003 -0.00292969c-95.333 0 -164.666 15 -207.999 45c-20 15.333 -35 34.666 -45 57.999c-9.33301 24.667 -14 54.334 -14 89.001v59l1 28c0 10.667 1.33301 20.334 4 29.001v22c0 9.33301 0.666992 16 2 20l7 41l-51 -3
l-34 -6l-42 -11c-97.333 -25.333 -175.666 -66.666 -234.999 -123.999c-84.667 -82.667 -127 -190.667 -127 -324c0 -105.333 27 -195.666 81 -270.999c70 -95.333 176.333 -143 319 -143s283 15 421 45l163 34c6 -10.667 -16.667 -37.667 -68 -81
c-42 -35.333 -93 -72.333 -153 -111l-100 -64l-50 -21l-68 -19c-49.333 -12 -100.666 -18 -153.999 -18c-41.333 0 -77.333 2.16699 -108 6.5s-58 11.833 -82 22.5c-82 28 -149.667 80.667 -203 158c-30.667 43.333 -54.667 93 -72 149s-26 114.333 -26 175
c0 61.333 7 124 21 188s35.667 123.667 65 179l88 135l91 136c-4 10.667 -29.667 16 -77 16c-34.667 0 -69.334 -5.33301 -104.001 -16c-18.667 -4 -38.5 -12.333 -59.5 -25s-46.5 -30 -76.5 -52c-15.333 -12 -28 -18.667 -38 -20l15 31l11 21l9 15l40 71
c66 86 122.333 140.333 169 163l31 12l38 11c24 6 47 9 69 9c16 0 91.667 -11.333 227 -34l99 -14l88 -5h37l34 3h13l18 2l136 14l-66 -193l-215 -25l-6 -25l-3 -31c0 -22 2.33301 -39.333 7 -52s15.334 -25.667 32.001 -39c15.333 -8.66699 36.333 -13 63 -13l64 2h177h198
c7.33301 0 11 11 11 33v22v40l-4 27l-21 174c0 32 -3.33301 74.667 -10 128l-12 103l-18 249l178 140l37 -916v-77l1 -36l1 -39v-24v-11l-2 -19c0 -8 -3 -15.667 -9 -23l-19 -6l-47 -7l-82 -7h-202z" />
    <glyph glyph-name="f213" unicode="&#xf213;" horiz-adv-x="1700" 
d="M1204 0l-155.003 -0.00292969c-95.333 0 -164.666 15 -207.999 45c-20 15.333 -35 34.666 -45 57.999c-9.33301 24.667 -14 54.334 -14 89.001v59l1 28c0 10.667 1.33301 20.334 4 29.001v22c0 9.33301 0.666992 16 2 20l7 41l-51 -3l-34 -6l-42 -11
c-97.333 -25.333 -175.666 -66.666 -234.999 -123.999c-84.667 -82.667 -127 -190.667 -127 -324c0 -105.333 27 -195.666 81 -270.999c70 -95.333 176.333 -143 319 -143s283 15 421 45l163 34c6 -10.667 -16.667 -37.667 -68 -81c-42 -35.333 -93 -72.333 -153 -111
l-100 -64l-50 -21l-68 -19c-49.333 -12 -100.666 -18 -153.999 -18c-41.333 0 -77.333 2.16699 -108 6.5s-58 11.833 -82 22.5c-82 28 -149.667 80.667 -203 158c-30.667 43.333 -54.667 93 -72 149s-26 114.333 -26 175c0 61.333 7 124 21 188s35.667 123.667 65 179
l88 135l91 136c-4 10.667 -29.667 16 -77 16c-34.667 0 -69.334 -5.33301 -104.001 -16c-18.667 -4 -38.5 -12.333 -59.5 -25s-46.5 -30 -76.5 -52c-15.333 -12 -28 -18.667 -38 -20l15 31l11 21l9 15l40 71c66 86 122.333 140.333 169 163l31 12l38 11c24 6 47 9 69 9
c16 0 91.667 -11.333 227 -34l99 -14l88 -5h37l34 3h13l18 2l136 14l-66 -193l-215 -25l-6 -25l-3 -31c0 -22 2.33301 -39.333 7 -52s15.334 -25.667 32.001 -39c15.333 -8.66699 36.333 -13 63 -13l64 2h177h198c7.33301 0 11 11 11 33v22v40l-4 27l-21 174
c0 32 -3.33301 74.667 -10 128l-12 103l-18 249l178 140l37 -916v-77l1 -36l1 -39v-24v-11l-2 -19c0 -8 -3 -15.667 -9 -23l-19 -6l-47 -7l-82 -7h-202z" />
    <glyph glyph-name="f214" unicode="&#xf214;" horiz-adv-x="1700" 
d="M517 1099l174 -71l-66 -140l-169 70zM1204 0l-155.003 -0.00292969c-95.333 0 -164.666 15 -207.999 45c-20 15.333 -35 34.666 -45 57.999c-9.33301 24.667 -14 54.334 -14 89.001v59l1 28c0 10.667 1.33301 20.334 4 29.001v22c0 9.33301 0.666992 16 2 20l7 41l-51 -3
l-34 -6l-42 -11c-97.333 -25.333 -175.666 -66.666 -234.999 -123.999c-84.667 -82.667 -127 -190.667 -127 -324c0 -105.333 27 -195.666 81 -270.999c70 -95.333 176.333 -143 319 -143s283 15 421 45l163 34c6 -10.667 -16.667 -37.667 -68 -81
c-42 -35.333 -93 -72.333 -153 -111l-100 -64l-50 -21l-68 -19c-49.333 -12 -100.666 -18 -153.999 -18c-41.333 0 -77.333 2.16699 -108 6.5s-58 11.833 -82 22.5c-82 28 -149.667 80.667 -203 158c-30.667 43.333 -54.667 93 -72 149s-26 114.333 -26 175
c0 61.333 7 124 21 188s35.667 123.667 65 179l88 135l91 136c-4 10.667 -29.667 16 -77 16c-34.667 0 -69.334 -5.33301 -104.001 -16c-18.667 -4 -38.5 -12.333 -59.5 -25s-46.5 -30 -76.5 -52c-15.333 -12 -28 -18.667 -38 -20l15 31l11 21l9 15l40 71
c66 86 122.333 140.333 169 163l31 12l38 11c24 6 47 9 69 9c16 0 91.667 -11.333 227 -34l99 -14l88 -5h37l34 3h13l18 2l136 14l-66 -193l-215 -25l-6 -25l-3 -31c0 -22 2.33301 -39.333 7 -52s15.334 -25.667 32.001 -39c15.333 -8.66699 36.333 -13 63 -13l64 2h177h198
c7.33301 0 11 11 11 33v22v40l-4 27l-21 174c0 32 -3.33301 74.667 -10 128l-12 103l-18 249l178 140l37 -916v-77l1 -36l1 -39v-24v-11l-2 -19c0 -8 -3 -15.667 -9 -23l-19 -6l-47 -7l-82 -7h-202z" />
    <glyph glyph-name="f215" unicode="&#xf215;" horiz-adv-x="1588" 
d="M1146 -367l194 -81l-72 -163l-190 81zM832 249l-6.99902 23.9961c-2 8.66699 -5.66699 17.334 -11 26.001c-2 8.66699 -5.66699 17.334 -11 26.001c-4 9.33301 -11 20.333 -21 33c-2 5.33301 -10.333 17 -25 35l-36 44l-35 34l-28 25l-107 -227
c18.667 -11.333 38 -28 58 -50l74 -85c19.333 -24.667 34.333 -48.167 45 -70.5s16 -40.5 16 -54.5c0 -6 -2.33301 -15.667 -7 -29c-60 -112 -128.667 -194.333 -206 -247c-64 -42 -132 -63 -204 -63c-63.333 0 -129.666 18 -198.999 54c-62 33.333 -93 52 -93 56
c-2 -2 -3 -5 -3 -9c0 -24.667 27.667 -73.667 83 -147c78 -102 167.667 -165.333 269 -190l34 -4c76 0 154.333 40.667 235 122c43.333 43.333 81.666 95.333 114.999 156c27.333 50.667 48 113.334 62 188.001l16 104h39l197 -9l43 -1l42 -1l69 -5l197 11l33 4l35 1h113
v249h-63l-9 75c-4 30.667 -13 74.334 -27 131.001c-8 29.333 -18 57.666 -30 84.999c-10 26.667 -24.333 55 -43 85c-10.667 20.667 -26.334 45.334 -47.001 74.001c-4 -1.33301 -28.333 -36 -73 -104l-19 -29l-46 -73l44 -58l28 -41c35.333 -56.667 53 -98.667 53 -126
l-3 -17c-6.66699 -8.66699 -25 -13 -55 -13l-49 -4l-61 -1l-123 5l-199 11h-60z" />
    <glyph glyph-name="f216" unicode="&#xf216;" horiz-adv-x="1588" 
d="M832 249l-6.99902 23.9961c-2 8.66699 -5.66699 17.334 -11 26.001c-2 8.66699 -5.66699 17.334 -11 26.001c-4 9.33301 -11 20.333 -21 33c-2 5.33301 -10.333 17 -25 35l-36 44l-35 34l-28 25l-107 -227c18.667 -11.333 38 -28 58 -50l74 -85
c19.333 -24.667 34.333 -48.167 45 -70.5s16 -40.5 16 -54.5c0 -6 -2.33301 -15.667 -7 -29c-60 -112 -128.667 -194.333 -206 -247c-64 -42 -132 -63 -204 -63c-63.333 0 -129.666 18 -198.999 54c-62 33.333 -93 52 -93 56c-2 -2 -3 -5 -3 -9
c0 -24.667 27.667 -73.667 83 -147c78 -102 167.667 -165.333 269 -190l34 -4c76 0 154.333 40.667 235 122c43.333 43.333 81.666 95.333 114.999 156c27.333 50.667 48 113.334 62 188.001l16 104h39l197 -9l43 -1l42 -1l69 -5l197 11l33 4l35 1h113v249h-63l-9 75
c-4 30.667 -13 74.334 -27 131.001c-8 29.333 -18 57.666 -30 84.999c-10 26.667 -24.333 55 -43 85c-10.667 20.667 -26.334 45.334 -47.001 74.001c-4 -1.33301 -28.333 -36 -73 -104l-19 -29l-46 -73l44 -58l28 -41c35.333 -56.667 53 -98.667 53 -126l-3 -17
c-6.66699 -8.66699 -25 -13 -55 -13l-49 -4l-61 -1l-123 5l-199 11h-60zM860.001 1017l-110 -132l149 -126l102 122l145 -122l110 131l-151 129l-102 -122z" />
    <glyph glyph-name="f217" unicode="&#xf217;" horiz-adv-x="1588" 
d="M832 249l-6.99902 23.9961c-2 8.66699 -5.66699 17.334 -11 26.001c-2 8.66699 -5.66699 17.334 -11 26.001c-4 9.33301 -11 20.333 -21 33c-2 5.33301 -10.333 17 -25 35l-36 44l-35 34l-28 25l-107 -227c18.667 -11.333 38 -28 58 -50l74 -85
c19.333 -24.667 34.333 -48.167 45 -70.5s16 -40.5 16 -54.5c0 -6 -2.33301 -15.667 -7 -29c-60 -112 -128.667 -194.333 -206 -247c-64 -42 -132 -63 -204 -63c-63.333 0 -129.666 18 -198.999 54c-62 33.333 -93 52 -93 56c-2 -2 -3 -5 -3 -9
c0 -24.667 27.667 -73.667 83 -147c78 -102 167.667 -165.333 269 -190l34 -4c76 0 154.333 40.667 235 122c43.333 43.333 81.666 95.333 114.999 156c27.333 50.667 48 113.334 62 188.001l16 104h39l197 -9l43 -1l42 -1l69 -5l197 11l33 4l35 1h113v249h-63l-9 75
c-4 30.667 -13 74.334 -27 131.001c-8 29.333 -18 57.666 -30 84.999c-10 26.667 -24.333 55 -43 85c-10.667 20.667 -26.334 45.334 -47.001 74.001c-4 -1.33301 -28.333 -36 -73 -104l-19 -29l-46 -73l44 -58l28 -41c35.333 -56.667 53 -98.667 53 -126l-3 -17
c-6.66699 -8.66699 -25 -13 -55 -13l-49 -4l-61 -1l-123 5l-199 11h-60zM1215 -190.004l-110 -132l149 -126l102 122l145 -122l110 131l-151 129l-102 -122z" />
    <glyph glyph-name="f218" unicode="&#xf218;" horiz-adv-x="2360" 
d="M682 224l-15 106.001c-28 69.333 -65 108.666 -111 117.999l-12 1c-36 0 -73.167 -17.167 -111.5 -51.5s-57.5 -63.5 -57.5 -87.5c0 -13.333 32.333 -32.333 97 -57c30.667 -10 61 -18 91 -24l42 -6l41 -2h11zM887 249.001l19.998 0.000976562h66h42h29l24 2
c17.333 2 33 9 47 21c4.66699 4.66699 7 22 7 52v26l-1 19l-1 16v12l-1 17c0 6 -1.33301 12.667 -4 20l148 157l6 -30v-20l3 -32v-24v-12c0 -5.33301 -0.666992 -10.666 -2 -15.999l-10 -52c-4 -32.667 -16 -74 -36 -124l25 -10l43 -20l56 -2l87 -2h178l44 3
c10 2 22 7 36 15c18 11.333 27 27 27 47l-3 107l154 160l3 -21c0 -15.333 0.666992 -24.666 2 -27.999v-18v-15l-2 -17v-12c0 -4 -0.666992 -8.66699 -2 -14l-8 -38c0 -11.333 -3.66699 -28 -11 -50c-2.66699 -10.667 -5.66699 -21.334 -9 -32.001
s-7.66602 -22.334 -12.999 -35.001c-2 -6 21.333 -20.333 70 -43l35 -12l41 -11l37 -5l38 -2c32 0 54.833 2 68.5 6s23.5 18.667 29.5 44c0 20.667 -7 54 -21 100c-11.333 40 -21 63.333 -29 70l142 165l23 -93l18 -128l5 -66l2 -61v-73c0 -82 -2.33301 -131 -7 -147
c-2 -14.667 -10.667 -25.334 -26 -32.001c-14.667 -5.33301 -34 -10.333 -58 -15l-43 -4l-24 -1c-78 0 -164 13.667 -258 41l-56 17l-27 9l-46 17c-20 -12 -45.333 -25.333 -76 -40c-26 -10.667 -56.667 -20 -92 -28l-69 -9l-76 -3c-114 0 -190 6.33301 -228 19l-54 23
l-41 22l-32 -16l-70 -29l-27 -8l-21 -4l-52 -2h-20l-107 -5l-46 20l-18 -6l-52 -11l-42 -4l-19 -1h-25h-22l-12 2l-49 7c-23.333 2 -45.333 6 -66 12s-41 14.667 -61 26l-50 30l-52 36c-3.33301 0 -15 -13 -35 -39c-8 -12 -15.667 -21.5 -23 -28.5
s-16.666 -13.167 -27.999 -18.5l-26 -8l-33 -8l-28 -3l-44 -1h-93v249h63h67h22h18h15h12h45h13l8 -1c34 4 56.333 13.333 67 28c16.667 40 34 76.333 52 109l27 51l32 52c38 62.667 76.833 110 116.5 142s80.167 48 121.5 48c10 0 25.667 -2 47 -6
c33.333 -12 72 -83.667 116 -215c20.667 -67.333 34.667 -116.666 42 -147.999c4 -14.667 6.66699 -27.334 8 -38.001s2 -19.667 2 -27z" />
    <glyph glyph-name="f219" unicode="&#xf219;" horiz-adv-x="2360" 
d="M1803 1193l-74 -125l167 -97l73 124zM1742 960l-79 -127l183 -109l157 249l178 -104l-79 -127zM682 224l-15 106.001c-28 69.333 -65 108.666 -111 117.999l-12 1c-36 0 -73.167 -17.167 -111.5 -51.5s-57.5 -63.5 -57.5 -87.5c0 -13.333 32.333 -32.333 97 -57
c30.667 -10 61 -18 91 -24l42 -6l41 -2h11zM887 249.001l19.998 0.000976562h66h42h29l24 2c17.333 2 33 9 47 21c4.66699 4.66699 7 22 7 52v26l-1 19l-1 16v12l-1 17c0 6 -1.33301 12.667 -4 20l148 157l6 -30v-20l3 -32v-24v-12c0 -5.33301 -0.666992 -10.666 -2 -15.999
l-10 -52c-4 -32.667 -16 -74 -36 -124l25 -10l43 -20l56 -2l87 -2h178l44 3c10 2 22 7 36 15c18 11.333 27 27 27 47l-3 107l154 160l3 -21c0 -15.333 0.666992 -24.666 2 -27.999v-18v-15l-2 -17v-12c0 -4 -0.666992 -8.66699 -2 -14l-8 -38
c0 -11.333 -3.66699 -28 -11 -50c-2.66699 -10.667 -5.66699 -21.334 -9 -32.001s-7.66602 -22.334 -12.999 -35.001c-2 -6 21.333 -20.333 70 -43l35 -12l41 -11l37 -5l38 -2c32 0 54.833 2 68.5 6s23.5 18.667 29.5 44c0 20.667 -7 54 -21 100
c-11.333 40 -21 63.333 -29 70l142 165l23 -93l18 -128l5 -66l2 -61v-73c0 -82 -2.33301 -131 -7 -147c-2 -14.667 -10.667 -25.334 -26 -32.001c-14.667 -5.33301 -34 -10.333 -58 -15l-43 -4l-24 -1c-78 0 -164 13.667 -258 41l-56 17l-27 9l-46 17
c-20 -12 -45.333 -25.333 -76 -40c-26 -10.667 -56.667 -20 -92 -28l-69 -9l-76 -3c-114 0 -190 6.33301 -228 19l-54 23l-41 22l-32 -16l-70 -29l-27 -8l-21 -4l-52 -2h-20l-107 -5l-46 20l-18 -6l-52 -11l-42 -4l-19 -1h-25h-22l-12 2l-49 7c-23.333 2 -45.333 6 -66 12
s-41 14.667 -61 26l-50 30l-52 36c-3.33301 0 -15 -13 -35 -39c-8 -12 -15.667 -21.5 -23 -28.5s-16.666 -13.167 -27.999 -18.5l-26 -8l-33 -8l-28 -3l-44 -1h-93v249h63h67h22h18h15h12h45h13l8 -1c34 4 56.333 13.333 67 28c16.667 40 34 76.333 52 109l27 51l32 52
c38 62.667 76.833 110 116.5 142s80.167 48 121.5 48c10 0 25.667 -2 47 -6c33.333 -12 72 -83.667 116 -215c20.667 -67.333 34.667 -116.666 42 -147.999c4 -14.667 6.66699 -27.334 8 -38.001s2 -19.667 2 -27z" />
    <glyph glyph-name="f21a" unicode="&#xf21a;" horiz-adv-x="1250" 
d="M961 249c7.33301 0 10.998 10.999 10.998 32.999v22v40l-4 27l-21 174c0 32 -3.33301 74.667 -10 128l-12 103l-18 249l178 140l37 -916v-77l1 -36l1 -39v-24v-11l-2 -19c0 -8 -3 -15.667 -9 -23l-19 -6l-47 -7l-82 -7h-185h-153c-44 0 -83.333 -9.16699 -118 -27.5
s-64.667 -43.833 -90 -76.5l-23 -35l-18 -40l-7 -34l-4 -38v-18c0 -10 0.666992 -17 2 -21l1 -14v-7l8 -26l8 -34l6 -32c0 -18 -5.33301 -34.667 -16 -50l-20 -27c-18 -25.333 -44.333 -38 -79 -38h-12l-20 2c-9.33301 0 -21 3.33301 -35 10c-14 4 -30.333 38.333 -49 103
l-15 90l-4 45l-1 48l3 78v26l11 69c7.33301 45.333 16 81.333 26 108l-40 -23l-21 -8l-20 -10c-28.667 -13.333 -62.667 -20 -102 -20h-38v249h29h29h11h30c12.667 0 25.667 1.33301 39 4l44 6l44 10c35.333 9.33301 67 26 95 50
c6.66699 6.66699 16.334 11.334 29.001 14.001l23 -7c2.66699 -1.33301 6.33398 -9 11.001 -23c0 -14 -7.66699 -37 -23 -69s-28 -59.833 -38 -83.5s-18.333 -44.5 -25 -62.5c-4 -20 -6 -40.333 -6 -61c0 -32 4.33301 -49.333 13 -52c6 0 20.333 13.667 43 41
c25.333 34 50 63.833 74 89.5s46 45.5 66 59.5l32 21l34 19l23 10l47 16l75 13l41 4l45 1h35h181z" />
    <glyph glyph-name="f21b" unicode="&#xf21b;" horiz-adv-x="3535" 
 />
    <glyph glyph-name="f21c" unicode="&#xf21c;" horiz-adv-x="1290" 
d="M335 -679l378 -181l56 102l-181 88l-113 -204l-194 96zM1020 247c7.33301 0 11 11.0039 11 33.0039v22v40l-4 27l-21 174c0 32 -3.33301 74.667 -10 128l-12 103l-18 249l178 140l37 -916v-77l1 -36l1 -39v-24v-11l-2 -19c0 -8 -3 -15.667 -9 -23l-19 -6l-47 -7l-82 -7
l-53 10l-82 10c-34 0 -58 -2.33301 -72 -7c-14 -2 -23 -9.33301 -27 -22c-4 -12 51 -43 165 -93c112 -44 164 -81.667 156 -113l-52 -156c-12 -42 -82 -89 -210 -141l-54 -20l-60.5 -19c-33.667 -10.667 -68.5 -19.334 -104.5 -26.001l-49.5 -8
c-21 -3.33301 -47 -6.66602 -78 -9.99902s-65.833 -5 -104.5 -5c-115.333 0 -207.333 30.333 -276 91c-72 63.333 -108 152.333 -108 267c0 14 0.333008 27.5 1 40.5s2.33398 28.833 5.00098 47.5s8.33398 43 17.001 73c16 54.667 41.333 111 76 169l116 129l-82 -165
c-31.333 -60.667 -47 -115.667 -47 -165c0 -34.667 6.66699 -66.334 20 -95.001c27.333 -57.333 81.666 -100.333 162.999 -129c36.667 -11.333 75.334 -20.333 116.001 -27l65 -7l70 -3c93.333 0 173.666 8.16699 240.999 24.5s101 34.166 101 53.499l-36 18l-109 50
c-98 40 -147 72 -147 96c0 19.333 3.5 40.666 10.5 63.999s17.833 52 32.5 86c28 63.333 65 120.666 111 171.999c17.333 19.333 68.666 35 153.999 47l75 7z" />
    <glyph glyph-name="f21d" unicode="&#xf21d;" horiz-adv-x="1704" 
d="M393 -679l378 -181l56 102l-181 88l-113 -204l-194 96zM1260 -365l194 -81l-72 -163l-190 81zM1203 240l77.001 -2.99414l48 -2h29l42 1h15c8 0 16 1.33301 24 4c30 0 48.333 4.33301 55 13l3 17c0 30 -17.667 72 -53 126l-27 40l-45 59l37 60
c10.667 18.667 20 32.667 28 42c41.333 65.333 65.666 100 72.999 104l47 -74c17.333 -30.667 31.333 -59.334 42 -86.001l31 -84c13.333 -50.667 22.333 -94.334 27 -131.001l9 -77h63v-249h-113l-265 -3l-147 5h-37c-19.333 0 -32.333 0.333008 -39 1
c-15.333 3.33301 -27 5.33301 -35 6l-145 9c-34 0 -58 -2.33301 -72 -7c-14 -2 -23 -9.33301 -27 -22c-4 -12 51 -43 165 -93c112 -44 164 -81.667 156 -113l-52 -156c-12 -42 -82 -89 -210 -141l-54 -20l-60.5 -19c-33.667 -10.667 -68.5 -19.334 -104.5 -26.001l-49.5 -8
c-21 -3.33301 -47 -6.66602 -78 -9.99902s-65.833 -5 -104.5 -5c-115.333 0 -207.333 30.333 -276 91c-72 63.333 -108 152.333 -108 267c0 14 0.333008 27.5 1 40.5s2.33398 28.833 5.00098 47.5s8.33398 43 17.001 73c16 54.667 41.333 111 76 169l116 129l-82 -165
c-31.333 -60.667 -47 -115.667 -47 -165c0 -34.667 6.66699 -66.334 20 -95.001c27.333 -57.333 81.666 -100.333 162.999 -129c36.667 -11.333 75.334 -20.333 116.001 -27l65 -7l70 -3c93.333 0 173.666 8.16699 240.999 24.5s101 34.166 101 53.499l-36 18l-109 50
c-98 40 -147 72 -147 96c0 19.333 3.5 40.666 10.5 63.999s17.833 52 32.5 86c28 63.333 65 120.666 111 171.999c17.333 19.333 68.666 35 153.999 47l74 5l96 1h49z" />
    <glyph glyph-name="f21e" unicode="&#xf21e;" horiz-adv-x="1704" 
d="M393 -679l378 -181l56 102l-181 88l-113 -204l-194 96zM1203 240l77.001 -2.99414l48 -2h29l42 1h15c8 0 16 1.33301 24 4c30 0 48.333 4.33301 55 13l3 17c0 30 -17.667 72 -53 126l-27 40l-45 59l37 60c10.667 18.667 20 32.667 28 42
c41.333 65.333 65.666 100 72.999 104l47 -74c17.333 -30.667 31.333 -59.334 42 -86.001l31 -84c13.333 -50.667 22.333 -94.334 27 -131.001l11 -77h63v-249h-113l-267 -3l-147 5h-37c-19.333 0 -32.333 0.333008 -39 1c-15.333 3.33301 -27 5.33301 -35 6l-145 9
c-34 0 -58 -2.33301 -72 -7c-14 -2 -23 -9.33301 -27 -22c-4 -12 51 -43 165 -93c112 -44 164 -81.667 156 -113l-52 -156c-12 -42 -82 -89 -210 -141l-54 -20l-60.5 -19c-33.667 -10.667 -68.5 -19.334 -104.5 -26.001l-49.5 -8c-21 -3.33301 -47 -6.66602 -78 -9.99902
s-65.833 -5 -104.5 -5c-115.333 0 -207.333 30.333 -276 91c-72 63.333 -108 152.333 -108 267c0 14 0.333008 27.5 1 40.5s2.33398 28.833 5.00098 47.5s8.33398 43 17.001 73c16 54.667 41.333 111 76 169l116 129l-82 -165c-31.333 -60.667 -47 -115.667 -47 -165
c0 -34.667 6.66699 -66.334 20 -95.001c27.333 -57.333 81.666 -100.333 162.999 -129c36.667 -11.333 75.334 -20.333 116.001 -27l65 -7l70 -3c93.333 0 173.666 8.16699 240.999 24.5s101 34.166 101 53.499l-36 18l-109 50c-98 40 -147 72 -147 96
c0 19.333 3.5 40.666 10.5 63.999s17.833 52 32.5 86c28 63.333 65 120.666 111 171.999c17.333 19.333 68.666 35 153.999 47l74 5l96 1h49zM975.001 1034.01l-111 -132l149 -126l102 122l145 -122l111 131l-152 129l-102 -122z" />
    <glyph glyph-name="f21f" unicode="&#xf21f;" horiz-adv-x="1704" 
d="M393 -679l378 -181l56 102l-181 88l-113 -204l-194 96zM1160 945l194 -81l-72 -163l-190 81zM1203 240l77.002 -2.99414l48 -2h29l42 1h15c8 0 16 1.33301 24 4c30 0 48.333 4.33301 55 13l3 17c0 30 -17.667 72 -53 126l-27 40l-45 59l37 60
c10.667 18.667 20 32.667 28 42c41.333 65.333 65.666 100 72.999 104l47 -74c17.333 -30.667 31.333 -59.334 42 -86.001l31 -84c13.333 -50.667 22.333 -94.334 27 -131.001l9 -77h63v-249h-113h-18l-15 1c-10.667 0 -22.334 -1.33301 -35.001 -4h-197l-147 5h-37
c-19.333 0 -32.333 0.333008 -39 1c-15.333 3.33301 -27 5.33301 -35 6l-145 9c-34 0 -58 -2.33301 -72 -7c-14 -2 -23 -9.33301 -27 -22c-4 -12 51 -43 165 -93c112 -44 164 -81.667 156 -113l-52 -156c-12 -42 -82 -89 -210 -141l-54 -20l-60.5 -19
c-33.667 -10.667 -68.5 -19.334 -104.5 -26.001l-49.5 -8c-21 -3.33301 -47 -6.66602 -78 -9.99902s-65.833 -5 -104.5 -5c-115.333 0 -207.333 30.333 -276 91c-72 63.333 -108 152.333 -108 267c0 14 0.333008 27.5 1 40.5s2.33398 28.833 5.00098 47.5
s8.33398 43 17.001 73c16 54.667 41.333 111 76 169l116 129l-82 -165c-31.333 -60.667 -47 -115.667 -47 -165c0 -34.667 6.66699 -66.334 20 -95.001c27.333 -57.333 81.666 -100.333 162.999 -129c36.667 -11.333 75.334 -20.333 116.001 -27l65 -7l70 -3
c93.333 0 173.666 8.16699 240.999 24.5s101 34.166 101 53.499l-36 18l-109 50c-98 40 -147 72 -147 96c0 19.333 3.5 40.666 10.5 63.999s17.833 52 32.5 86c28 63.333 65 120.666 111 171.999c17.333 19.333 68.666 35 153.999 47l74 5l96 1h49z" />
    <glyph glyph-name="righttoleftspace" unicode="&#xf220;" horiz-adv-x="407" 
 />
    <glyph glyph-name="greater" unicode="&#xf221;" horiz-adv-x="496" 
d="M253 935c24 0 42.333 -9.33203 55 -27.999l10 -31l6 -45v-35l-4 -29v-19l-4 -23l-10 -60l-14 -106l-5 -77c0 -62 -2.16699 -109.667 -6.5 -143s-13.5 -52 -27.5 -56c-10 0 -19 21 -27 63c-4 41.333 -6 86.666 -6 135.999c0 52.667 -3.33301 98.667 -10 138l-27 213l3 43
c2 10 6 21.333 12 34s24.333 21 55 25zM249 0.000976562c24.667 0 42.834 5.83301 54.501 17.5s17.5 29.834 17.5 54.501c0 48.667 -24 73 -72 73s-72 -24.333 -72 -73c0 -24.667 5.66699 -42.834 17 -54.501s29.666 -17.5 54.999 -17.5z" />
    <glyph glyph-name="question" unicode="&#xf222;" horiz-adv-x="464" 
d="M143 896l-2 41l-1 24v11l-4 19l-1 23c0 8.66699 -1.33301 18.334 -4 29.001l-5 27l-8 32l-2 17c0 21.333 14 34.666 42 39.999c29.333 0 44 -12 44 -36l-4 -27l-9 -49l-6 -51l-6 -100h-34zM315 896l-2 41l-1 24v11l-4 19l-1 23c0 8.66699 -1.33301 18.334 -4 29.001
l-5 27l-8 32l-2 17c0 21.333 14 34.666 42 39.999c29.333 0 44 -12 44 -36l-4 -27l-9 -49l-6 -51l-7 -100h-33z" />
    <glyph glyph-name="at" unicode="&#xf223;" horiz-adv-x="784" 
d="M611 650l-39 -64l-28 -61l-15 -50l-11 -50l-6 -39l-2 -42c0 -110 35 -213.667 105 -311c-54.667 18 -103.667 59.667 -147 125c-19.333 37.333 -34.333 72.833 -45 106.5s-16 60.167 -16 79.5c0 32 4 58 12 78l11 31l15 32l16 30l31 45c21.333 30.667 61 60.667 119 90z
M378 650c-28 -40.667 -52.001 -88 -72.001 -142l-10 -33l-11 -48l-5 -39l-2 -44c0 -112 34.667 -215.667 104 -311c-52.667 18 -94.667 51.667 -126 101l-40 64l-28 56c-9.33301 34 -14 64 -14 90c0 55.333 20.333 113.333 61 174s88.334 104.667 143.001 132z" />
    <glyph glyph-name="A" unicode="&#xf224;" horiz-adv-x="781" 
d="M275 340c0 110.667 -33.667 212.666 -101 305.999c10.667 -3.33301 16.667 -6 18 -8l19 -10l21 -15l18 -16l13 -13l19 -22l19 -20c4 -4 8 -10.333 12 -19l23 -40l14 -31l18 -40l7 -30l3 -42c0 -29.333 -4.83301 -60 -14.5 -92s-28.5 -69.667 -56.5 -113
s-73.667 -78.666 -137 -105.999c70 95.333 105 199 105 311zM508 339.999c0 28 -2.00098 54 -6.00098 78l-3 21c0 6.66699 -1.66699 12.667 -5 18l-4 20l-9 23c-2 12 -4.33301 20.667 -7 26l-8 23c-3.33301 10 -8.66602 19.333 -15.999 28
c-11.333 24.667 -25.666 47.667 -42.999 69l34 -17c15.333 -8 30.666 -20.667 45.999 -38l27 -25l23 -29l19 -28l6 -13l8 -13l26 -63l11 -37l4 -43l-1 -32c0 -8.66699 -2.33301 -19.667 -7 -33l-7 -29l-12 -30c-16 -40.667 -39.333 -77.667 -70 -111l-21 -20l-27 -19
l-22 -14l-41 -23c70 94 105 197.667 105 311z" />
    <glyph glyph-name="percentarabic" unicode="&#xf225;" horiz-adv-x="892" 
d="M769 1159h80l-706 -1283h-84zM729 7c43.333 0 65 22.666 65 67.999c0 16.667 -6.66699 31.667 -20 45c-10 13.333 -25 20 -45 20c-18.667 0 -34.667 -6.66699 -48 -20c-10 -10 -16 -25 -18 -45c0 -19.333 5.66699 -35.666 17 -48.999c12.667 -12.667 29 -19 49 -19z
M177 870.999c43.333 0 65 22.667 65 68c0 16.667 -6.66699 31.667 -20 45c-12 14 -27 21 -45 21s-34 -7 -48 -21c-10 -10 -16 -25 -18 -45l3 -27l15 -20c11.333 -14 27.333 -21 48 -21z" />
    <glyph glyph-name="C" unicode="&#xf226;" horiz-adv-x="1062" 
d="M921 882l-302 -302l303 -302l-89 -89l-302 303l-305 -305l-87 87l305 305l-308 308l89 88l307 -308l302 302z" />
    <glyph glyph-name="D" unicode="&#xf227;" horiz-adv-x="955" 
d="M170 597h615v-70h-615v70zM478 391l28.999 -3l23 -16l12 -24l7 -27c0 -10.667 -1.33301 -18.667 -4 -24l-15 -24c-12 -14 -29.333 -21 -52 -21c-21.333 0 -38.666 6.33301 -51.999 19l-12 16l-5 16l-1 18c0 12.667 6 29 18 49c12 14 29.333 21 52 21zM477.999 884
c15.333 0 31.667 -6.66699 49 -20l9 -10l6 -12l7 -27c0 -10.667 -1.33301 -18.667 -4 -24l-15 -24c-11.333 -14 -28.666 -21 -51.999 -21l-30 3l-5 3l-13 9c-6.66699 6.66699 -14 24.667 -22 54l3 23l15 26c13.333 13.333 30.666 20 51.999 20z" />
    <glyph glyph-name="E" unicode="&#xf228;" horiz-adv-x="593" 
d="M514 1222c-98 -156 -169.002 -303.997 -213.002 -443.997c-20 -70.667 -34.833 -146.834 -44.5 -228.501s-14.5 -165.167 -14.5 -250.5l3 -137v-28c0 -8.66699 0.666992 -18.334 2 -29.001l9 -70c8 -78 23 -153.667 45 -227c38 -134.667 106 -282 204 -442
c-145.333 127.333 -251.666 265.333 -318.999 414l-20 53l-21 59c-12 40 -23 82 -33 126c-16 86 -24 178.667 -24 278c0 102 8 195 24 279c8 41.333 18.167 81.833 30.5 121.5s27 77.667 44 114s35.833 71.166 56.5 104.499s45.334 68 74.001 104
c54 68 119.667 135.667 197 203z" />
    <glyph glyph-name="F" unicode="&#xf229;" horiz-adv-x="593" 
d="M79 1222c99.333 -157.333 169.5 -305.833 210.5 -445.5s61.5 -298.834 61.5 -477.501l-3 -137l-3 -57c0 -14.667 -2.66699 -38 -8 -70c-8 -81.333 -23 -157.333 -45 -228l-16 -55l-19 -51c-9.33301 -26.667 -24.333 -62.334 -45 -107.001
c-32.667 -76.667 -74 -152.667 -124 -228c145.333 127.333 251.666 265.333 318.999 414c31.333 72 55.5 152.833 72.5 242.5s25.5 180.834 25.5 273.501c0 105.333 -8.33301 198.333 -25 279c-8 44.667 -18.333 85 -31 121c-10.667 37.333 -24.667 74.333 -42 111
c-8.66699 20 -17.167 37.833 -25.5 53.5s-19.166 33.834 -32.499 54.501c-24 39.333 -48.667 74.333 -74 105c-54 68 -119.333 135.333 -196 202z" />
    <glyph glyph-name="G" unicode="&#xf22a;" horiz-adv-x="1335" 
d="M911 734l-243 -247l-246 247l246 265zM1257 399l-267 -234l-244 245l248 246zM587 410l-247 -245l-263 245l261 246zM917 82l-249 -272l-246 272l246 248z" />
    <glyph glyph-name="H" unicode="&#xf22b;" horiz-adv-x="892" 
d="M36 446v-82h371v-371h82v371h371v82h-371v371h-82v-371h-371z" />
    <glyph glyph-name="commaarabic" unicode="&#xf22c;" horiz-adv-x="496" 
d="M312 -41c12.667 12.667 22.666 26.333 29.999 41l4 16l7 27c0 28 -14.333 56.667 -43 86c-8 8 -18 16 -30 24l-45 28c0 15.333 1 26.666 3 33.999c0 6.66699 1.66699 13 5 19l20 26c8 10.667 41 43.334 99 98.001l29 27l-38 72l-46 -38l-58 -50
c-67.333 -64.667 -109.666 -120.667 -126.999 -168l-13 -59l-5 -54c0 -23.333 3 -44.333 9 -63s16 -36.667 30 -54c24.667 -28.667 54.667 -43 90 -43c32 0 58.333 10.333 79 31z" />
    <glyph glyph-name="J" unicode="&#xf22d;" horiz-adv-x="892" 
d="M36 446v-82h824v82h-824z" />
    <glyph glyph-name="K" unicode="&#xf22e;" horiz-adv-x="496" 
d="M204 0c13.333 0 26.6689 1.99902 40.002 5.99902s25.666 12.667 36.999 26c20.667 20.667 31 46.334 31 77.001c0 30 -10.333 55.667 -31 77c-22.667 20.667 -48.334 31 -77.001 31c-30.667 0 -56.5 -10.5 -77.5 -31.5s-31.5 -46.5 -31.5 -76.5s10.667 -55.667 32 -77
c20 -21.333 45.667 -32 77 -32z" />
    <glyph glyph-name="L" unicode="&#xf22f;" horiz-adv-x="892" 
d="M-14 -398h118l824 1516h-118z" />
    <glyph glyph-name="zeroarabic" unicode="&#xf230;" horiz-adv-x="950" 
d="M387 731l251 -177l-88 -332l-254 179z" />
    <glyph glyph-name="onearabic" unicode="&#xf231;" horiz-adv-x="950" 
d="M606 -79c-18 0 -33 30 -45 90l-24 151l-11 61l-12 59c-13.333 70.667 -25.666 120 -36.999 148c-41.333 119.333 -79 209 -113 269l-32 56l-56 94c0 31.333 13.833 84.166 41.5 158.499s47.167 114.833 58.5 121.5c7.33301 4 31.333 -25.333 72 -88
c14.667 -26 36 -68 64 -126l19 -48l40 -107c18 -53.333 36.333 -122.333 55 -207c12 -59.333 24.333 -137.333 37 -234l5 -133l-3 -98l-3 -39c-0.666992 -10 -1.33398 -17 -2.00098 -21s-2.66699 -12.333 -6 -25c-8 -49.333 -24 -76.666 -48 -81.999z" />
    <glyph glyph-name="twoarabic" unicode="&#xf232;" horiz-adv-x="950" 
d="M595 930c37.333 4 76 33.334 116 88.001c31.333 47.333 57.666 74 78.999 80c10.667 0 16 -25.667 16 -77v-13v-11l-1 -38v-17c-2 -8 -3.33301 -14 -4 -18c0 -12 -1.5 -24.833 -4.5 -38.5s-7.5 -31.167 -13.5 -52.5c-16 -70 -42.333 -121.333 -79 -154
c-8 -6.66699 -19 -14 -33 -22l-51 -28l-48 -19l-31 -8l36 -143c14 -62 23 -110 27 -144c9.33301 -96.667 14 -167.667 14 -213c0 -131.333 -17.333 -197 -52 -197c-20.667 0 -44 65 -70 195c-10 56 -20.667 104.833 -32 146.5s-25.666 86.167 -42.999 133.5
c-23.333 70 -49.333 136.333 -78 199l-36 80l-17 35l-18 32c-65.333 90 -107 149.667 -125 179l11 29l14 30l18 35l20 31l20 30l28 35l93 -77c14.667 -14.667 41 -46.334 79 -95.001l46 -4h13h26l19 4z" />
    <glyph glyph-name="threearabic" unicode="&#xf233;" horiz-adv-x="950" 
d="M414 864c44.667 26.667 89.3291 73.666 133.996 140.999c32 51.333 53.667 80 65 86c21.333 0 32 -14.333 32 -43v-36c0 -16 0.833008 -26.333 2.5 -31s16.5 -17 44.5 -37l41 -18c12 -3.33301 24 -5.66602 36 -6.99902c22 0 39.333 8.33301 52 25l32 61
c8 20 21 35.667 39 47l11 3c2 -1.33301 4.16699 -2.66602 6.5 -3.99902s5.83301 -4.33301 10.5 -9c6.66699 -8.66699 10 -26.334 10 -53.001c0 -38 -3.66699 -70.667 -11 -98c-3.33301 -16.667 -7.66602 -33.334 -12.999 -50.001
c-2.66699 -9.33301 -5.16699 -17.333 -7.5 -24s-6.16602 -15.667 -11.499 -27c-32 -79.333 -70.333 -125.333 -115 -138c-10 -2 -18.667 -3.66699 -26 -5s-14.666 -2 -21.999 -2l-27 1c-6 0 -15 2 -27 6l-29 9l-35 16c-42 20 -65.333 29 -70 27l-49 -43
c-14.667 -11.333 -31.334 -22.666 -50.001 -33.999l-27 -12l-46 -15l21 -68l13 -59l13 -65l7 -49l3 -49v-81l1 -37l1 -40l-1 -60l-1 -49v-16l-2 -22c0 -8.66699 -2.33301 -21 -7 -37c-5.33301 -43.333 -19.666 -65 -42.999 -65c-25.333 0 -45 46 -59 138
c-3.33301 36.667 -7.16602 70.834 -11.499 102.501s-9.83301 62.5 -16.5 92.5c-10 56 -23.333 104.667 -40 146l-34 96l-31 79c-18 46 -37 88 -57 126l-106 175c6 28.667 13.333 49.667 22 63c18.667 41.333 46.667 83.666 84 126.999l95 -93l49 -44l43 -31
c30 -16.667 54.333 -25 73 -25c10.667 0 22 3 34 9z" />
    <glyph glyph-name="fourarabic" unicode="&#xf234;" horiz-adv-x="950" 
d="M611 1156l-33.999 -172.002l-77 -49c-46.667 -33.333 -72.334 -63 -77.001 -89c0 -12 36.833 -37 110.5 -75s112.167 -61 115.5 -69l3 -25c0 -41.333 -26.333 -94.333 -79 -159l-96 -102l-21 -26l-28 -39c-11.333 -19.333 -17 -34 -17 -44
c0 -5.33301 1.66699 -9.66602 5 -12.999c10.667 -8 35.334 -20.667 74.001 -38l126 -43l142 -41l-84 -242c-5.33301 -3.33301 -14.666 -5 -27.999 -5c-36 0 -105 16 -207 48c-146 47.333 -219 107 -219 179c0 32.667 20.333 81.667 61 147l138 192
c0 6.66699 -34.667 34.667 -104 84c-18.667 11.333 -36.667 24.333 -54 39s-32 30.334 -44 47.001c-4 7.33301 -7 21 -9 41l1 32c0 10.667 2.66699 21.667 8 33c5.33301 24.667 13.666 46.667 24.999 66c42 81.333 99.667 153 173 215s138.666 98 195.999 108z" />
    <glyph glyph-name="fivearabic" unicode="&#xf235;" horiz-adv-x="950" 
d="M516 971c57.333 0 115.334 -23.334 174.001 -70.001c51.333 -41.333 96 -107 134 -197l5 -29l2 -32c0 -69.333 -10.667 -140.333 -32 -213c-18 -78 -40.667 -127.667 -68 -149c-20.667 -16.667 -43 -31.667 -67 -45l-38 -20l-44 -21c-58 -22.667 -114 -34 -168 -34
c-34 0 -70.167 7 -108.5 21s-70.833 36.333 -97.5 67c-34.667 38.667 -52 92.334 -52 161.001c0 118.667 41.667 240.667 125 366c81.333 130 159.666 195 234.999 195zM310.001 515.999c4 -24 24.335 -44.999 61.002 -62.999c40.667 -15.333 83.667 -23 129 -23l63 3l27 4
l27 7c33.333 9.33301 61.666 25.666 84.999 48.999c2 2 3 5 3 9c0 18 -29.667 53.667 -89 107c-68.667 63.333 -132.334 95 -191.001 95c-14.667 0 -38 -15 -70 -45c-31.333 -37.333 -47 -76 -47 -116c0 -16 0.666992 -25 2 -27z" />
    <glyph glyph-name="sixarabic" unicode="&#xf236;" horiz-adv-x="950" 
d="M154 1086l19.998 -12c8 -4 19.333 -12 34 -24c33.333 -19.333 69.333 -34.333 108 -45s78 -16 118 -16c32 0 61 2.33301 87 7c20 2 37.833 4.5 53.5 7.5s33.834 7.83301 54.501 14.5c23.333 6 38.333 8.33301 45 7c-8 -34.667 -17 -82 -27 -142l-10 -81l-3 -78v-61v-23
l4 -31l11 -64l4 -17l10 -28c10 -38 21 -70.667 33 -98s27.333 -56.333 46 -87l29 -46l44 -56l1 -14c0 -12.667 -2 -30 -6 -52l-10 -46l-12 -38c-23.333 -72 -38.666 -108 -45.999 -108c-18 0 -55.667 43 -113 129c-63.333 106.667 -95 222 -95 346l2 121l3 78
c0 56 3 93 9 111l-57 -11l-60 -9l-69 -3c-52.667 0 -101 7 -145 21c-48 17.333 -85 46.666 -111 87.999c-8.66699 18.667 -13 42.667 -13 72l3 50l4 30l6 22c7.33301 24.667 23.333 53.334 48 86.001z" />
    <glyph glyph-name="sevenarabic" unicode="&#xf237;" horiz-adv-x="950" 
d="M484 -18c15.333 0 43.3311 68.667 83.998 206l16 58l15 44l57 160c27.333 70.667 50.666 127.334 69.999 170.001c24.667 58 48.334 103.333 71.001 136l117 163v30v46l-4 21c0 36.667 -2.66699 62 -8 76c-4 19.333 -10.333 32.333 -19 39c-4 2 -27.667 -24.333 -71 -79
c-41.333 -59.333 -79.666 -125.666 -114.999 -198.999l-29 -69l-37 -97l-68 -178l-22 -69l-30 -87l-72 190c-44.667 119.333 -84 213.666 -118 282.999l-27 54l-30 56c-18 32 -39 64 -63 96l-70 68c-4 -5.33301 -13.333 -23.333 -28 -54l-37 -89l-34 -99l60 -75l64 -75
c26 -38 51 -79 75 -123s49 -95 75 -153c6.66699 -14.667 14.834 -34.834 24.501 -60.501l31.5 -85.5l17 -55l39 -136c20 -75.333 42 -113 66 -113z" />
    <glyph glyph-name="eightarabic" unicode="&#xf238;" horiz-adv-x="950" 
d="M477 1064c-14 0 -44.0029 -67.998 -90.0029 -203.998c-27.333 -91.333 -57.666 -178 -90.999 -260c-44 -116 -90 -215 -138 -297l-113 -149l3 -83l4 -69c5.33301 -50 13 -79.333 23 -88l11 12l32 36c56.667 75.333 105.667 159.666 147 252.999l56 140l75 190l54 150
l70 -186c28.667 -76.667 50.334 -132.334 65.001 -167.001c20 -48 37 -85 51 -111c34 -76.667 73.333 -146 118 -208l41 -43l26 -30c6.66699 10 27.334 58.333 62.001 145l7 26l10 30l17 48l-116 150l-68 118l-79 160l-26 59l-24 60l-23 69l-22 72
c-32 118 -59.333 177 -82 177z" />
    <glyph glyph-name="ninearabic" unicode="&#xf239;" horiz-adv-x="950" 
d="M312 783c-4 14 6.16602 36.333 30.499 67s45.166 46 62.499 46c34.667 -4 64 -37 88 -99c16.667 -46 25 -74.333 25 -85c0 -4 -1.66699 -7.66699 -5 -11l-16 -2c-17.333 0 -48.666 9 -93.999 27c-51.333 22 -81.666 41 -90.999 57zM479.999 1150
c-66.667 0 -140.669 -58.332 -222.002 -174.999s-122 -222 -122 -316v-26l1 -16l4 -28c2 -12 22.167 -34.167 60.5 -66.5s93.5 -56.5 165.5 -72.5l45 -7l59 -2h28c12 0 20 -0.666992 24 -2c10 0 16 -3 18 -9c6.66699 -42.667 12.667 -78.334 18 -107.001s12 -58.667 20 -90
c14 -54 32.333 -107.667 55 -161c48 -118 88.667 -181.333 122 -190l8 17l21 53c29.333 98 44 163.333 44 196l-1 15c-37.333 37.333 -72 100 -104 188c-5.33301 18 -12.666 46.333 -21.999 85l-16 66c-8 52 -12 106.333 -12 163l-3 112l-3 44
c0 11.333 -2.66699 28.666 -8 51.999c-9.33301 60.667 -24 111.334 -44 152.001c-37.333 83.333 -82.666 125 -135.999 125z" />
    <glyph glyph-name="W" unicode="&#xf23a;" horiz-adv-x="496" 
d="M285 0c13.333 0 26.6689 2.00293 40.002 6.00293s25.666 12.667 36.999 26c7.33301 7.33301 14 17 20 29l12 48c0 15.333 -2.16699 29.166 -6.5 41.499s-12.833 24.166 -25.5 35.499c-20.667 20.667 -46.334 31 -77.001 31c-30 0 -55.667 -10.333 -77 -31
c-20.667 -22.667 -31 -48.334 -31 -77.001c0 -30 10.333 -55.667 31 -77c10 -10 21.333 -17.833 34 -23.5s27 -8.5 43 -8.5zM285.003 505.003c30 0 55.666 10.334 76.999 31.001c15.333 16 26 41.667 32 77c0 30 -10.667 55.667 -32 77c-20 21.333 -45.667 32 -77 32
c-16.667 0 -30.5 -2.16699 -41.5 -6.5s-22.833 -12.833 -35.5 -25.5c-20.667 -20.667 -31 -46.334 -31 -77.001c0 -30 10.333 -55.667 31 -77l14 -12l19 -11c7.33301 -2.66699 14.333 -4.66699 21 -6s14.334 -2 23.001 -2z" />
    <glyph glyph-name="semicolonarabic" unicode="&#xf23b;" horiz-adv-x="496" 
d="M328 416c9.33301 11.333 18.667 26.333 28 45c2.66699 6.66699 6.33398 22 11.001 46c0 24 -11 48 -33 72c-20.667 24 -60.334 48.333 -119.001 73l11 33c4 13.333 8.66699 24 14 32c10 22.667 25.667 48.334 47 77.001l36 42l55 53l25 24l36 31l-29 34l-70 -57l-53 -47
c-84 -80 -134 -147.667 -150 -203s-24 -97.333 -24 -126c0 -24.667 3 -47.334 9 -68.001s16 -40 30 -58c25.333 -30.667 55.333 -46 90 -46c28 0 56.667 14.333 86 43zM265.001 0c13.333 0 26.6689 1.99902 40.002 5.99902s25.666 12.667 36.999 26
c20.667 20.667 31 46.334 31 77.001c0 30 -10.333 55.667 -31 77c-22.667 20.667 -48.334 31 -77.001 31c-30.667 0 -56.5 -10.5 -77.5 -31.5s-31.5 -46.5 -31.5 -76.5s10.667 -55.667 32 -77c20 -21.333 45.667 -32 77 -32z" />
    <glyph glyph-name="Y" unicode="&#xf23c;" horiz-adv-x="780" 
d="M260 1630h91v-158l-43 -45h-116l-45 45v158l270 268l54 -56zM570 1630h90v-158l-43 -45h-116l-44 45v158l270 268l53 -56z" />
    <glyph glyph-name="Z" unicode="&#xf23d;" horiz-adv-x="868" 
d="M118 465h611v-103h-611v103zM118 743h611v-104h-611v104z" />
    <glyph glyph-name="bracketleft" unicode="&#xf23e;" horiz-adv-x="750" 
d="M636 1576h-90v159l43 44h116l45 -44v-159l-271 -268l-53 56zM327 1576h-90v159l42 44h117l44 -44v-159l-270 -268l-53 56z" />
    <glyph glyph-name="questionarabic" unicode="&#xf23f;" horiz-adv-x="593" 
d="M448 692c-34.667 7.33301 -52 21.332 -52 41.999c0 7.33301 3 19 9 35c13.333 32.667 20 55.334 20 68.001c0 11.333 -5 23.666 -15 36.999l-15 11l-26 11l-26 5l-24 4c-42 0 -78.333 -20.333 -109 -61c-12.667 -20 -22.5 -42.167 -29.5 -66.5s-10.5 -49.5 -10.5 -75.5
c0 -44.667 10.333 -81.667 31 -111c16 -24 40.333 -42.333 73 -55l47 -11l45 -5h13l22 3v-276h-50v167c-66.667 0 -124.667 17.333 -174 52c-62 41.333 -93 102.333 -93 183l3 65c2 22.667 5.66699 41.334 11 56.001c9.33301 34 24.333 64 45 90
c41.333 51.333 103 77 185 77c62 0 111 -18 147 -54l17 -23l7 -10l7 -16c4 -7.33301 7 -16 9 -26l3 -32c0 -16 -1 -28 -3 -36l-6 -15l-9 -14c-4 -7.33301 -10.667 -12.333 -20 -15zM371 146.999c-23.333 0 -41.333 -7.66797 -54 -23.001c-10 -12 -16 -29.333 -18 -52l3 -27
l15 -25c13.333 -13.333 31.333 -20 54 -20c21.333 0 38.833 6.83301 52.5 20.5s20.5 30.834 20.5 51.501c0 12.667 -1.16699 23 -3.5 31s-7.5 16 -15.5 24c-9.33301 13.333 -27.333 20 -54 20z" />
    <glyph glyph-name="tatweelwide" unicode="&#xf240;" horiz-adv-x="320" 
d="M345 0v253h-361v-253h361z" />
    <glyph glyph-name="alef" unicode="&#xf241;" horiz-adv-x="554" 
d="M367 1152c-9.33301 0 -40.333 -33.335 -93 -100.002l-77 -97l-2 -122l1 -33v-18l4 -32l13 -114l9 -186l1 -171l1 -145l3 -132l4 -93l45 46c11.333 10.667 25 25.334 41 44.001l31 39l43 64c10 18.667 17.667 41.334 23 68.001l-9 350l-10 126l-4 135v52v33l-2 25
c0 19.333 -2 50 -6 92z" />
    <glyph glyph-name="fnalef" unicode="&#xf242;" horiz-adv-x="554" 
d="M600 0h-90.999h-45c-62 -0 -106.667 5.33301 -134 16c-36 14 -62.333 49.333 -79 106l-3 30l-3 26l-5 23l-1 39l-10 86l-52 677l83 74c57.333 50 87.666 75 90.999 75l4 -32c2 -13.333 3 -30 3 -50l4 -142l32 -602c0 -8 2 -18 6 -30s13.333 -23 28 -33l22 -6l30 -6h28
l31 -2h61v-249z" />
    <glyph glyph-name="hamzahonalef" unicode="&#xf243;" horiz-adv-x="554" 
d="M414 894c-8 0 -37.333 -29.335 -88 -88.002l-73 -89l25 -285c0 -65.333 2.33301 -121.666 7 -168.999l16 -168l-5 -186l28 28l24 25c16.667 16.667 28.667 31 36 43l14 20l12 23l24 54c9.33301 16.667 14 35.334 14 56.001v145l-8 68l-3 75l-5 163l-3 58l-2 59zM355 1120
l24.999 52.001c-29.333 14 -55 21 -77 21c-29.333 0 -61.666 -19 -96.999 -57l-28 -37l-20 -35l-10 -31l-5 -26c0 -21.333 9.66699 -38.666 29 -51.999l32 -14l-12 -31l-13 -50c0 -8.66699 4.33301 -13.334 13 -14.001l52 46c43.333 34.667 72 55.667 86 63l43 17l41 15
l20 6l25 77l-144 -56l-27 -7l-30 -4c-12 0 -25.667 2 -41 6c-8 4 -13.333 14.667 -16 32c0 10 0.666992 16.333 2 19l10 22c6.66699 9.33301 21.667 19.666 45 30.999l22 6l46 6c16 0 25.667 -1.66699 29 -5z" />
    <glyph glyph-name="fnhamzahonalef" unicode="&#xf244;" horiz-adv-x="554" 
d="M602 0h-50.001h-13h-11c-29.333 -0 -53 1.33301 -71 4l-36 3c-12.667 2 -24 5.33301 -34 10c-35.333 10 -73.666 39 -114.999 87c-11.333 12.667 -25 43 -41 91l-9 35l-5 29l-4 69l-32 392l86 81c54 49.333 85 75.666 93 78.999l2 -8
c2.66699 -17.333 4.16699 -29.333 4.5 -36s0.5 -13.667 0.5 -21l4 -118l14 -294c0 -21.333 2 -45.166 6 -71.499s13.333 -47.833 28 -64.5c14 -12 39.667 -18 77 -18h43h58zM323.999 1113l23.998 51.998c-29.333 14 -54.666 21 -75.999 21c-31.333 0 -64 -19 -98 -57
l-28 -38l-18 -32l-11 -32l-6 -27c0 -21.333 9.66699 -38.666 29 -51.999l18 -8l14 -5l-11 -32l-9 -30l-5 -20c0 -9.33301 4.66699 -13.666 14 -12.999l22 18l30 27c38.667 32.667 67.334 53.667 86.001 63l43 17l40 15c5.33301 0 12.333 2.33301 21 7l25 77l-145 -57l-26 -7
l-31 -4c-14 0 -26.167 2 -36.5 6s-16.833 14.667 -19.5 32c0 12 0.666992 19.333 2 22l9 19c5.33301 9.33301 20.333 20 45 32l35 8l33 3c16.667 0 26.667 -1.66699 30 -5z" />
    <glyph glyph-name="maddahonalef" unicode="&#xf245;" horiz-adv-x="554" 
d="M410 1023c-6.66699 0 -39.332 -33.335 -97.999 -100.002l-83 -99l9 -58l8 -70l3 -66v-43v-23c0 -7.33301 0.666992 -16.666 2 -27.999l7 -165l2 -86l2 -74v-29c0 -10.667 0.666992 -19 2 -25l10 -66l-7 -182l26 21l31 29c26 26 48.333 55.667 67 89l18 30l16 31
c5.33301 16.667 10.666 38.334 15.999 65.001v217l-14 203l-3 118l-3 116l-1 40l-1 45l-1 33l-3 38zM444.002 1220l-0.00195312 -48.002c-23.333 -75.333 -80.666 -113 -171.999 -113c-25.333 0 -43.666 -1 -54.999 -3l-22 -5
c-4.66699 -1.33301 -10.667 -4.66602 -18 -9.99902l-57 -50l-9 32c0 30.667 9.66699 57 29 79c13.333 14.667 31 25.834 53 33.501s48.333 11.5 79 11.5c46.667 0 85 7 115 21l27 24z" />
    <glyph glyph-name="fnmaddahonalef" unicode="&#xf246;" horiz-adv-x="554" 
d="M602 0l-50.001 0.00195312h-13h-11c-29.333 0 -53 1.33301 -71 4l-36 3c-12.667 2 -24 5.33301 -34 10c-35.333 10 -73.666 39 -114.999 87c-11.333 12.667 -25 43 -41 91l-9 35l-5 29l-4 69l-30 466l89 86c56 56 88.333 84 97 84l3 -15l1 -26v-34l3 -34v-20l-3 -54v-57
l12 -321v-22l2 -23c0 -8.66699 3 -21.334 9 -38.001s17.333 -34.334 34 -53.001c4 -3.33301 15.667 -8 35 -14l65 -4h67zM456.999 1161l-0.00195312 -48c-23.333 -75.333 -80.666 -113 -171.999 -113c-25.333 0 -43.666 -1 -54.999 -3l-22 -5
c-4.66699 -1.33301 -10.667 -4.66602 -18 -9.99902l-56 -50l-10 32c0 27.333 10 53.666 30 78.999c27.333 30 71 45 131 45c46 0 84.667 7 116 21z" />
    <glyph glyph-name="hamzahunderalef" unicode="&#xf247;" horiz-adv-x="554" 
d="M367 1152c-9.33301 0 -40.333 -33.335 -93 -100.002l-77 -97l-2 -122l1 -33v-18l4 -32l13 -114l9 -186l1 -171l1 -145l3 -132l4 -93l45 46c11.333 10.667 25 25.334 41 44.001l31 39l43 64c10 18.667 17.667 41.334 23 68.001l-9 350l-10 126l-4 135v52v33l-2 25
c0 19.333 -2 50 -6 92zM385 -324.002l39.999 110.998l-38 11l-23 7l-36 5c-26.667 0 -51.667 -7.66699 -75 -23l-17 -11l-19 -18l-47 -58c-15.333 -22.667 -30.666 -54 -45.999 -94l-11 -47l-7 -55c0 -8 21.333 -20 64 -36l10 -2l19 -9l-22 -34l-23 -41l-6 -34l-5 -40l34 29
c48 38.667 101.333 73.334 160 104.001l88 29l28 7l20 113l-120 -34c-18 -4 -35.333 -6 -52 -6c-27.333 0 -51.5 4 -72.5 12s-35.167 17.333 -42.5 28l-3 13c0 7.33301 6 22 18 44c18 24 32.333 38.333 43 43l46 2c20 0 32 -0.666992 36 -2l13 -1l9 -1
c2.66699 -0.666992 5 -1.16699 7 -1.5s6.66699 -2.16602 14 -5.49902c6.66699 0 12 -1.66699 16 -5z" />
    <glyph glyph-name="fnhamzahunderalef" unicode="&#xf248;" horiz-adv-x="554" 
d="M600 0h-90.999h-45c-62 -0 -106.667 5.33301 -134 16c-36 14 -62.333 49.333 -79 106l-3 30l-3 26l-5 23l-1 39l-10 86l-52 677l83 74c57.333 50 87.666 75 90.999 75l4 -32c2 -13.333 3 -30 3 -50l4 -142l32 -602c0 -8 2 -18 6 -30s13.333 -23 28 -33l22 -6l30 -6h28
l31 -2h61v-249zM455.001 -326l41.002 110.998l-34 9l-28 9l-36 5c-26 0 -50.667 -7.66699 -74 -23c-10 -6 -22.667 -16.667 -38 -32l-22 -25l-22 -29l-25 -40l-22 -53c-12 -37.333 -18 -72 -18 -104c0 -8 21 -20 63 -36l10 -2l19 -9l-22 -34l-23 -41l-11 -75l34 30
c48 38.667 101.333 73.334 160 104.001l36 13l53 16c4.66699 0 13.667 2.33301 27 7l20 113l-120 -34l-27 -5l-25 -2c-28.667 0 -52.834 4.16699 -72.501 12.5s-33.834 17.833 -42.501 28.5l-3 12c0 11.333 6.33301 26.333 19 45c16 24 30.333 38.333 43 43l45 2
c20 0 32 -0.666992 36 -2l13 -1l9 -1c2.66699 -0.666992 5 -1.16699 7 -1.5s6.66699 -2.16602 14 -5.49902c6.66699 0 12 -1.66699 16 -5z" />
    <glyph glyph-name="inbaa" unicode="&#xf249;" 
d="M0 249h45l92 -8l107 -3l123 -5h29l42 1h15c8 0 16 1.33301 24 4c30 0 48.333 4.33301 55 13l3 17c0 30 -17.667 72 -53 126l-27 40l-45 59l37 60c10.667 18.667 20 32.667 28 42c41.333 65.333 65.666 100 72.999 104l47 -74c28.667 -52 51.334 -105 68.001 -159l18 -79
l16 -82l13 -88l5 -74c0 -62.667 -9.66699 -106.667 -29 -132l-123 -16l-176 -9l-342 14h-47zM299 -367l194 -81l-72 -163l-190 81z" />
    <glyph glyph-name="midbaa" unicode="&#xf24a;" 
d="M0 249l45.002 0.00195312l92 -8l107 -3l123 -5h29l42 1h15c8 0 16 1.33301 24 4c30 0 48.333 4.33301 55 13l3 17c0 30 -17.667 72 -53 126l-27 40l-45 59l37 60c10.667 18.667 20 32.667 28 42c41.333 65.333 65.666 100 72.999 104l47 -74
c17.333 -30.667 31.333 -59.334 42 -86.001l31 -84c13.333 -50.667 22.333 -94.334 27 -131.001l9 -75h63v-249h-113l-36 -1c-8.66699 0 -19.334 -1.33301 -32.001 -4l-197 -11l-80 5l-74 2h-42h-28l-24 2c-26.667 0 -58.667 2.33301 -96 7h-47zM299.002 -366.998l194 -81
l-72 -163l-190 81z" />
    <glyph glyph-name="fnbaa" unicode="&#xf24b;" horiz-adv-x="1313" 
d="M561 -423l224 -86l-65 -177l-229 86zM1358 0l-87.999 0.00292969l-101 -25l-157 -27l-333 -36l-95 -8l-102 -4c-52 0 -96.167 2.16699 -132.5 6.5s-68.5 12.166 -96.5 23.499c-71.333 22 -129.333 63.333 -174 124l-21 35l-16 37l-9 51l-4 38v35
c2 10.667 3.66699 22.5 5 35.5s5.33301 27.833 12 44.5c11.333 38 30 77.333 56 118c39.333 66.667 65.666 100 78.999 100l4 -12c0 -12.667 -4.33301 -33 -13 -61c-9.33301 -38 -15.333 -70.333 -18 -97v-30v-16l4 -11c1.33301 -6 8.33301 -18.667 21 -38
c28.667 -49.333 82 -88 160 -116l48 -12l60 -10l65 -5l70 -2h24l40 1h26l20 4l54 1l66 8l59 1l52 7l126 16c67.333 8 103 15.667 107 23l4 18c0 28.667 -21.667 71 -65 127l-43 51l-43 49l150 181l25 -19c14.667 -12.667 28.167 -27.334 40.5 -44.001
s25.333 -38.834 39 -66.501s25.5 -77.5 35.5 -149.5l1 -52l6 -45h52v-249z" />
    <glyph glyph-name="baa" unicode="&#xf24c;" horiz-adv-x="1313" 
d="M563 -421l227 -84l-70 -178l-229 83zM1159 625c24 -14 44.666 -32.667 61.999 -56c16.667 -20 31 -47 43 -81c5.33301 -15.333 10.333 -32.166 15 -50.499s9.33398 -40.833 14.001 -67.5l7 -72l3 -85v-113l-9 -84c0 -20 -104.667 -43.333 -314 -70l-301 -34l-95 -8
l-102 -4c-52 0 -96.167 2.16699 -132.5 6.5s-68.5 12.166 -96.5 23.499c-71.333 22 -129.333 63.333 -174 124l-21 35l-16 37l-9 51l-4 38v35c2 10.667 3.66699 22.5 5 35.5s5.33301 27.833 12 44.5c11.333 38 30 77.333 56 118c39.333 66.667 65.666 100 78.999 100l4 -12
c0 -12.667 -4.33301 -33 -13 -61c-9.33301 -38 -15.333 -70.333 -18 -97v-30v-16l4 -11c1.33301 -6 8.33301 -18.667 21 -38c28.667 -49.333 82 -88 160 -116l48 -12l60 -10l65 -5l70 -2h24l41 1h23l25 4l57 1l31 3l27 5l106 10c46.667 4.66699 90.334 10 131.001 16
c68 9.33301 104.333 17 109 23l4 20c0 28 -21.667 69.667 -65 125l-34 41c-18 22.667 -35.333 41.667 -52 57z" />
    <glyph glyph-name="intaa" unicode="&#xf24d;" 
d="M0 249h45l92 -8l107 -3l123 -5h29l42 1h15c8 0 16 1.33301 24 4c30 0 48.333 4.33301 55 13l3 17c0 30 -17.667 72 -53 126l-27 40l-45 59l37 60c10.667 18.667 20 32.667 28 42c41.333 65.333 65.666 100 72.999 104l47 -74c28.667 -52 51.334 -105 68.001 -159l18 -79
l16 -82l13 -88l5 -74c0 -62.667 -9.66699 -106.667 -29 -132l-123 -16l-176 -9l-342 14h-47zM210 1064l-110 -132l149 -126l102 122l145 -122l110 131l-151 129l-102 -122z" />
    <glyph glyph-name="midtaa" unicode="&#xf24e;" 
d="M0 249l45.002 0.00195312l92 -8l107 -3l123 -5h29l42 1h15c8 0 16 1.33301 24 4c30 0 48.333 4.33301 55 13l3 17c0 30 -17.667 72 -53 126l-27 40l-45 59l37 60c10.667 18.667 20 32.667 28 42c41.333 65.333 65.666 100 72.999 104l47 -74
c17.333 -30.667 31.333 -59.334 42 -86.001l31 -84c13.333 -50.667 22.333 -94.334 27 -131.001l9 -75h63v-249h-113l-36 -1c-8.66699 0 -19.334 -1.33301 -32.001 -4l-197 -11l-80 5l-74 2h-42h-28l-24 2c-26.667 0 -58.667 2.33301 -96 7h-47zM210.002 1064l-110 -132
l149 -126l102 122l145 -122l110 131l-151 129l-102 -122z" />
    <glyph glyph-name="fntaa" unicode="&#xf24f;" horiz-adv-x="1313" 
d="M1358 0l-87.999 0.00292969l-101 -25l-157 -27l-333 -36l-95 -8l-102 -4c-52 0 -96.167 2.16699 -132.5 6.5s-68.5 12.166 -96.5 23.499c-71.333 22 -129.333 63.333 -174 124l-21 35l-16 37l-9 51l-4 38v35c2 10.667 3.66699 22.5 5 35.5s5.33301 27.833 12 44.5
c11.333 38 30 77.333 56 118c39.333 66.667 65.666 100 78.999 100l4 -12c0 -12.667 -4.33301 -33 -13 -61c-9.33301 -38 -15.333 -70.333 -18 -97v-30v-16l4 -11c1.33301 -6 8.33301 -18.667 21 -38c28.667 -49.333 82 -88 160 -116l48 -12l60 -10l65 -5l70 -2h24l40 1h26
l20 4l54 1l66 8l59 1l52 7l126 16c67.333 8 103 15.667 107 23l4 18c0 28.667 -21.667 71 -65 127l-43 51l-43 49l150 181l25 -19c14.667 -12.667 28.167 -27.334 40.5 -44.001s25.333 -38.834 39 -66.501s25.5 -77.5 35.5 -149.5l1 -52l6 -45h52v-249zM335.001 704.003
l95 154l419 -256l92 156l-208 127l-188 -310z" />
    <glyph glyph-name="taa" unicode="&#xf250;" horiz-adv-x="1313" 
d="M1159 625c24 -14 44.666 -32.667 61.999 -56c16.667 -20 31 -47 43 -81c5.33301 -15.333 10.333 -32.166 15 -50.499s9.33398 -40.833 14.001 -67.5l7 -72l3 -85v-113l-9 -84c0 -20 -104.667 -43.333 -314 -70l-301 -34l-95 -8l-102 -4c-52 0 -96.167 2.16699 -132.5 6.5
s-68.5 12.166 -96.5 23.499c-71.333 22 -129.333 63.333 -174 124l-21 35l-16 37l-9 51l-4 38v35c2 10.667 3.66699 22.5 5 35.5s5.33301 27.833 12 44.5c11.333 38 30 77.333 56 118c39.333 66.667 65.666 100 78.999 100l4 -12c0 -12.667 -4.33301 -33 -13 -61
c-9.33301 -38 -15.333 -70.333 -18 -97v-30v-16l4 -11c1.33301 -6 8.33301 -18.667 21 -38c28.667 -49.333 82 -88 160 -116l48 -12l60 -10l65 -5l70 -2h24l41 1h23l25 4l57 1l31 3l27 5l106 10c46.667 4.66699 90.334 10 131.001 16c68 9.33301 104.333 17 109 23l4 20
c0 28 -21.667 69.667 -65 125l-34 41c-18 22.667 -35.333 41.667 -52 57zM334.999 704l95 154l419 -256l92 156l-208 127l-188 -310z" />
    <glyph glyph-name="inthaa" unicode="&#xf251;" 
d="M0 249h45l92 -8l107 -3l123 -5h29l42 1h15c8 0 16 1.33301 24 4c30 0 48.333 4.33301 55 13l3 17c0 30 -17.667 72 -53 126l-27 40l-45 59l37 60c10.667 18.667 20 32.667 28 42c41.333 65.333 65.666 100 72.999 104l47 -74c28.667 -52 51.334 -105 68.001 -159l18 -79
l16 -82l13 -88l5 -74c0 -62.667 -9.66699 -106.667 -29 -132l-123 -16l-176 -9l-342 14h-47zM283 1190l-75 -124l168 -97l72 124zM222 957l-79 -126l183 -109l156 249l179 -104l-79 -127z" />
    <glyph glyph-name="midthaa" unicode="&#xf252;" 
d="M0 249l45.002 0.00195312l92 -8l107 -3l123 -5h29l42 1h15c8 0 16 1.33301 24 4c30 0 48.333 4.33301 55 13l3 17c0 30 -17.667 72 -53 126l-27 40l-45 59l37 60c10.667 18.667 20 32.667 28 42c41.333 65.333 65.666 100 72.999 104l47 -74
c17.333 -30.667 31.333 -59.334 42 -86.001l31 -84c13.333 -50.667 22.333 -94.334 27 -131.001l9 -75h63v-249h-113l-36 -1c-8.66699 0 -19.334 -1.33301 -32.001 -4l-197 -11l-80 5l-74 2h-42h-28l-24 2c-26.667 0 -58.667 2.33301 -96 7h-47zM274.002 1190l-75 -124
l168 -97l72 124zM213.002 957.002l-79 -126l183 -109l156 249l179 -104l-79 -127z" />
    <glyph glyph-name="fnthaa" unicode="&#xf253;" horiz-adv-x="1313" 
d="M507 1154l208 -127l-93 -156l-210 129zM1358 0l-87.999 0.00292969l-101 -25l-157 -27l-333 -36l-95 -8l-102 -4c-52 0 -96.167 2.16699 -132.5 6.5s-68.5 12.166 -96.5 23.499c-71.333 22 -129.333 63.333 -174 124l-21 35l-16 37l-9 51l-4 38v35
c2 10.667 3.66699 22.5 5 35.5s5.33301 27.833 12 44.5c11.333 38 30 77.333 56 118c39.333 66.667 65.666 100 78.999 100l4 -12c0 -12.667 -4.33301 -33 -13 -61c-9.33301 -38 -15.333 -70.333 -18 -97v-30v-16l4 -11c1.33301 -6 8.33301 -18.667 21 -38
c28.667 -49.333 82 -88 160 -116l48 -12l60 -10l65 -5l70 -2h24l40 1h26l20 4l54 1l66 8l59 1l52 7l126 16c67.333 8 103 15.667 107 23l4 18c0 28.667 -21.667 71 -65 127l-43 51l-43 49l150 181l25 -19c14.667 -12.667 28.167 -27.334 40.5 -44.001
s25.333 -38.834 39 -66.501s25.5 -77.5 35.5 -149.5l1 -52l6 -45h52v-249zM335.001 704.003l95 154l419 -256l92 156l-208 127l-188 -310z" />
    <glyph glyph-name="thaa" unicode="&#xf254;" horiz-adv-x="1313" 
d="M507 1154l208 -127l-93 -156l-210 129zM1159 625c24 -14 44.666 -32.667 61.999 -56c16.667 -20 31 -47 43 -81c5.33301 -15.333 10.333 -32.166 15 -50.499s9.33398 -40.833 14.001 -67.5l7 -72l3 -85v-113l-9 -84c0 -20 -104.667 -43.333 -314 -70l-301 -34l-95 -8
l-102 -4c-52 0 -96.167 2.16699 -132.5 6.5s-68.5 12.166 -96.5 23.499c-71.333 22 -129.333 63.333 -174 124l-21 35l-16 37l-9 51l-4 38v35c2 10.667 3.66699 22.5 5 35.5s5.33301 27.833 12 44.5c11.333 38 30 77.333 56 118c39.333 66.667 65.666 100 78.999 100l4 -12
c0 -12.667 -4.33301 -33 -13 -61c-9.33301 -38 -15.333 -70.333 -18 -97v-30v-16l4 -11c1.33301 -6 8.33301 -18.667 21 -38c28.667 -49.333 82 -88 160 -116l48 -12l60 -10l65 -5l70 -2h24l41 1h23l25 4l57 1l31 3l27 5l106 10c46.667 4.66699 90.334 10 131.001 16
c68 9.33301 104.333 17 109 23l4 20c0 28 -21.667 69.667 -65 125l-34 41c-18 22.667 -35.333 41.667 -52 57zM334.999 704l95 154l419 -256l92 156l-208 127l-188 -310z" />
    <glyph glyph-name="injeem" unicode="&#xf255;" horiz-adv-x="1313" 
d="M0 249l45.001 -0.000976562l193 -16l67 -1h27l36 -4l128 -11l42 -1l46 -1h95h44h15h13h11l36 1c14 0 25 1.33301 33 4c37.333 0 59.666 6 66.999 18c13.333 20 -45.334 80.333 -176.001 181c-73.333 54 -139 81 -197 81l-39 -1c-16.667 0 -34.667 -2.33301 -54 -7
c-32.667 -5.33301 -66.667 -14.666 -102 -27.999l-22 -6l-12 -2l-13 3l-4 11c0 16.667 21.667 47.667 65 93c64 65.333 141.667 98 233 98c32.667 0 58.334 -2.33301 77.001 -7c10.667 0 22.667 -2 36 -6l20.5 -6c9 -2.66699 18.167 -6 27.5 -10
c32 -12 77.667 -41.667 137 -89c31.333 -24 63.833 -51.333 97.5 -82s72.167 -68 115.5 -112c64 -64 118.333 -96 163 -96l62 -4v-168c0 -35.333 -19.667 -60 -59 -74c-25.333 -6 -56 -11 -92 -15s-79.333 -6 -130 -6l-169 -3l-184 -3l-63 1l-58 1l-212 7l-120 3l-176 8h-50
v249zM579.001 -330.001l229 -93l-84 -186l-226 93z" />
    <glyph glyph-name="midjeem" unicode="&#xf256;" horiz-adv-x="1313" 
d="M0 249l45.001 -0.000976562l193 -16l67 -1h27l36 -4l128 -11l42 -1l46 -1h95h44h15h13h11l36 1c14 0 25 1.33301 33 4c37.333 0 59.666 6 66.999 18c13.333 20 -45.334 80.333 -176.001 181c-73.333 54 -139 81 -197 81l-39 -1c-16.667 0 -34.667 -2.33301 -54 -7
c-32.667 -5.33301 -66.667 -14.666 -102 -27.999l-22 -6l-12 -2l-13 3l-4 11c0 16.667 21.667 47.667 65 93c64 65.333 141.667 98 233 98c32.667 0 58.334 -2.33301 77.001 -7c10.667 0 22.667 -2 36 -6l20.5 -6c9 -2.66699 18.167 -6 27.5 -10
c32 -12 77.667 -41.667 137 -89c31.333 -24 63.833 -51.333 97.5 -82s72.167 -68 115.5 -112c64 -64 118.333 -96 163 -96l62 -4h45v-249h-184l-74 -10l-91 -4l-101 -1l-229 -5l-63 1l-58 1l-212 7l-120 3l-176 8h-50v249zM579.001 -330.001l229 -93l-84 -186l-226 93z" />
    <glyph glyph-name="fnjeem" unicode="&#xf257;" horiz-adv-x="1154" 
d="M1199 0l-294.003 -0.00292969c-95.333 0 -164.666 15 -207.999 45c-20 15.333 -35 34.666 -45 57.999c-9.33301 24.667 -14 54.334 -14 89.001v59l1 28c0 10.667 1.33301 20.334 4 29.001v22c0 9.33301 0.666992 16 2 20l7 41l-51 -3l-34 -6l-42 -11
c-97.333 -25.333 -175.666 -66.666 -234.999 -123.999c-84.667 -82.667 -127 -190.667 -127 -324c0 -105.333 27 -195.666 81 -270.999c70 -95.333 176.333 -143 319 -143s283 15 421 45l163 34c6 -10.667 -16.667 -37.667 -68 -81c-42 -35.333 -93 -72.333 -153 -111
l-100 -64l-50 -21l-68 -19c-49.333 -12 -100.666 -18 -153.999 -18c-41.333 0 -77.333 2.16699 -108 6.5s-58 11.833 -82 22.5c-82 28 -149.667 80.667 -203 158c-30.667 43.333 -54.667 93 -72 149s-26 114.333 -26 175c0 61.333 7 124 21 188s35.667 123.667 65 179
l88 135l91 136c-4 10.667 -29.667 16 -77 16c-34.667 0 -69.334 -5.33301 -104.001 -16c-18.667 -4 -38.5 -12.333 -59.5 -25s-46.5 -30 -76.5 -52c-15.333 -12 -28 -18.667 -38 -20l16 31l9 18l10 18l40 71c66 86 122.333 140.333 169 163l31 12l38 11c24 6 47 9 69 9
c16 0 91.667 -11.333 227 -34l99 -14l88 -5h37l34 3h13l18 2l136 14l-66 -193l-215 -25l-6 -25l-3 -31c0 -22 2.33301 -39.333 7 -52s15.334 -25.667 32.001 -39c15.333 -8.66699 36.333 -13 63 -13h28h19l17 2h316v-249zM522.997 -81.0029l174 -71l-66 -140l-169 70z" />
    <glyph glyph-name="jeem" unicode="&#xf258;" horiz-adv-x="1154" 
d="M579 43l247 -93l-88 -190l-245 100zM937 360l-79 6.99902h-29h-12c-6.66699 0 -12 0.666992 -16 2c-50 0 -87 -2.33301 -111 -7c-11.333 0 -27 -2 -47 -6l-28 -6c-8 -1.33301 -14 -3 -18 -5l-15 -6c-77.333 -22 -156.666 -77 -237.999 -165
c-92 -100 -138 -202.667 -138 -308c0 -106 39.167 -193.833 117.5 -263.5s189.166 -104.5 332.499 -104.5c93.333 0 203.666 13.333 330.999 40l163 34c4 -4 -6 -19.667 -30 -47l-35 -34l-40 -32l-199 -133c-14.667 -10 -32 -19 -52 -27
c-14 -5.33301 -39.333 -12.666 -76 -21.999l-28 -5l-56 -9l-41 -4l-41 -1c-76.667 0 -139.334 9.66699 -188.001 29c-76 30 -139.333 84.333 -190 163c-54 91.333 -81 202.333 -81 333l1 44l3 42l6 41c0.666992 6 2 13 4 21s4.33301 16.667 7 26c8 31.333 17.333 61 28 89
c2 7.33301 4.33301 14.666 7 21.999c0.666992 2.66699 4 9.66699 10 21c6 14 14 29 24 45l190 280l-4 2l-17 5l-19 3l-34 1c-23.333 0 -44.666 -1 -63.999 -3s-37 -5.33301 -53 -10c-32.667 -8 -61.667 -22.333 -87 -43l-32 -27l-31 -27l-5 11c0 20 18 66 54 138
c46.667 82.667 89.667 138.334 129 167.001c16.667 8 37.5 15 62.5 21s51.167 9 78.5 9l39 -1h26l20 -4l65 -7l92 -13c144.667 -16.667 253.334 -25 326.001 -25l149 7z" />
    <glyph glyph-name="inhaa" unicode="&#xf259;" horiz-adv-x="1313" 
d="M0 249l45.001 -0.000976562l193 -16l67 -1h27l36 -4l128 -11l42 -1l46 -1h95h44h15h13h11l36 1c14 0 25 1.33301 33 4c37.333 0 59.666 6 66.999 18c13.333 20 -45.334 80.333 -176.001 181c-73.333 54 -139 81 -197 81l-39 -1c-16.667 0 -34.667 -2.33301 -54 -7
c-32.667 -5.33301 -66.667 -14.666 -102 -27.999l-22 -6l-12 -2l-13 3l-4 11c0 16.667 21.667 47.667 65 93c64 65.333 141.667 98 233 98c32.667 0 58.334 -2.33301 77.001 -7c10.667 0 22.667 -2 36 -6l20.5 -6c9 -2.66699 18.167 -6 27.5 -10
c32 -12 77.667 -41.667 137 -89c31.333 -24 63.833 -51.333 97.5 -82s72.167 -68 115.5 -112c64 -64 118.333 -96 163 -96l62 -4v-168c0 -35.333 -19.667 -60 -59 -74c-25.333 -6 -56 -11 -92 -15s-79.333 -6 -130 -6l-169 -3l-184 -3l-63 1l-58 1l-212 7l-120 3l-176 8h-50
v249z" />
    <glyph glyph-name="midhaa" unicode="&#xf25a;" horiz-adv-x="1313" 
d="M0 249l45.001 -0.000976562l193 -16l67 -1h27l36 -4l128 -11l42 -1l46 -1h95h44h15h13h11l36 1c14 0 25 1.33301 33 4c37.333 0 59.666 6 66.999 18c13.333 20 -45.334 80.333 -176.001 181c-73.333 54 -139 81 -197 81l-39 -1c-16.667 0 -34.667 -2.33301 -54 -7
c-32.667 -5.33301 -66.667 -14.666 -102 -27.999l-22 -6l-12 -2l-13 3l-4 11c0 16.667 21.667 47.667 65 93c64 65.333 141.667 98 233 98c32.667 0 58.334 -2.33301 77.001 -7c10.667 0 22.667 -2 36 -6l20.5 -6c9 -2.66699 18.167 -6 27.5 -10
c32 -12 77.667 -41.667 137 -89c31.333 -24 63.833 -51.333 97.5 -82s72.167 -68 115.5 -112c64 -64 118.333 -96 163 -96l62 -4h45v-249h-184l-74 -10l-91 -4l-101 -1l-229 -5l-63 1l-58 1l-212 7l-120 3l-176 8h-50v249z" />
    <glyph glyph-name="x" unicode="&#xf25b;" horiz-adv-x="593" 
d="M487 1222v-118h-272v-1568h272v-106h-387v1792h387z" />
    <glyph glyph-name="fnhaa" unicode="&#xf25c;" horiz-adv-x="1154" 
d="M1199 0l-294.003 -0.00292969c-95.333 0 -164.666 15 -207.999 45c-20 15.333 -35 34.666 -45 57.999c-9.33301 24.667 -14 54.334 -14 89.001v59l1 28c0 10.667 1.33301 20.334 4 29.001v22c0 9.33301 0.666992 16 2 20l7 41l-51 -3l-34 -6l-42 -11
c-97.333 -25.333 -175.666 -66.666 -234.999 -123.999c-84.667 -82.667 -127 -190.667 -127 -324c0 -105.333 27 -195.666 81 -270.999c70 -95.333 176.333 -143 319 -143s283 15 421 45l163 34c6 -10.667 -16.667 -37.667 -68 -81c-42 -35.333 -93 -72.333 -153 -111
l-100 -64l-50 -21l-68 -19c-49.333 -12 -100.666 -18 -153.999 -18c-41.333 0 -77.333 2.16699 -108 6.5s-58 11.833 -82 22.5c-82 28 -149.667 80.667 -203 158c-30.667 43.333 -54.667 93 -72 149s-26 114.333 -26 175c0 61.333 7 124 21 188s35.667 123.667 65 179
l88 135l91 136c-4 10.667 -29.667 16 -77 16c-34.667 0 -69.334 -5.33301 -104.001 -16c-18.667 -4 -38.5 -12.333 -59.5 -25s-46.5 -30 -76.5 -52c-15.333 -12 -28 -18.667 -38 -20l16 31l9 18l10 18l40 71c66 86 122.333 140.333 169 163l31 12l38 11c24 6 47 9 69 9
c16 0 91.667 -11.333 227 -34l99 -14l88 -5h37l34 3h13l18 2l136 14l-66 -193l-215 -25l-6 -25l-3 -31c0 -22 2.33301 -39.333 7 -52s15.334 -25.667 32.001 -39c15.333 -8.66699 36.333 -13 63 -13h28h19l17 2h316v-249z" />
    <glyph glyph-name="z" unicode="&#xf25d;" horiz-adv-x="593" 
d="M102 1222v-118h271v-1568h-271v-106h387v1792h-387z" />
    <glyph glyph-name="braceleft" unicode="&#xf25e;" horiz-adv-x="324" 
d="M216 51c0 -32.667 -8.33301 -63.667 -25 -93c-4 -9.33301 -8.66699 -16.666 -14 -21.999l-16 -21l-27 -28l-24 -21l-17 19l32 30l10 13l11 14l16 34c4 11.333 6 22.666 6 33.999v13c-25.333 0 -43.333 5.33301 -54 16s-16 24.667 -16 42c0 8.66699 5 21 15 37l18 11l22 5
c10 0 24.667 -8 44 -24l14 -25l4 -22z" />
    <glyph glyph-name="tatweelnarrow" unicode="&#xf25f;" horiz-adv-x="226" 
d="M0 0h276v249h-276v-249z" />
    <glyph glyph-name="haa" unicode="&#xf260;" horiz-adv-x="1154" 
d="M937 360l-79 6.99902h-29h-12c-6.66699 0 -12 0.666992 -16 2c-50 0 -87 -2.33301 -111 -7c-11.333 0 -27 -2 -47 -6l-28 -6c-8 -1.33301 -14 -3 -18 -5l-15 -6c-77.333 -22 -156.666 -77 -237.999 -165c-92 -100 -138 -202.667 -138 -308
c0 -106 39.167 -193.833 117.5 -263.5s189.166 -104.5 332.499 -104.5c93.333 0 203.666 13.333 330.999 40l163 34c4 -4 -6 -19.667 -30 -47l-35 -34l-40 -32l-199 -133c-14.667 -10 -32 -19 -52 -27c-14 -5.33301 -39.333 -12.666 -76 -21.999l-28 -5l-56 -9l-41 -4
l-41 -1c-76.667 0 -139.334 9.66699 -188.001 29c-76 30 -139.333 84.333 -190 163c-54 91.333 -81 202.333 -81 333l1 44l3 42l6 41c0.666992 6 2 13 4 21s4.33301 16.667 7 26c8 31.333 17.333 61 28 89c2 7.33301 4.33301 14.666 7 21.999
c0.666992 2.66699 4 9.66699 10 21c6 14 14 29 24 45l190 280l-4 2l-17 5l-19 3l-34 1c-23.333 0 -44.666 -1 -63.999 -3s-37 -5.33301 -53 -10c-32.667 -8 -61.667 -22.333 -87 -43l-32 -27l-31 -27l-5 11c0 20 18 66 54 138c46.667 82.667 89.667 138.334 129 167.001
c16.667 8 37.5 15 62.5 21s51.167 9 78.5 9l39 -1h26l20 -4l65 -7l92 -13c144.667 -16.667 253.334 -25 326.001 -25l149 7z" />
    <glyph glyph-name="inkhaa" unicode="&#xf261;" horiz-adv-x="1313" 
d="M0 249l45.001 -0.000976562l193 -16l67 -1h27l36 -4l128 -11l42 -1l46 -1h95h44h15h13h11l36 1c14 0 25 1.33301 33 4c37.333 0 59.666 6 66.999 18c13.333 20 -45.334 80.333 -176.001 181c-73.333 54 -139 81 -197 81l-39 -1c-16.667 0 -34.667 -2.33301 -54 -7
c-32.667 -5.33301 -66.667 -14.666 -102 -27.999l-22 -6l-12 -2l-13 3l-4 11c0 16.667 21.667 47.667 65 93c64 65.333 141.667 98 233 98c32.667 0 58.334 -2.33301 77.001 -7c10.667 0 22.667 -2 36 -6l20.5 -6c9 -2.66699 18.167 -6 27.5 -10
c32 -12 77.667 -41.667 137 -89c31.333 -24 63.833 -51.333 97.5 -82s72.167 -68 115.5 -112c64 -64 118.333 -96 163 -96l62 -4v-168c0 -35.333 -19.667 -60 -59 -74c-25.333 -6 -56 -11 -92 -15s-79.333 -6 -130 -6l-169 -3l-184 -3l-63 1l-58 1l-212 7l-120 3l-176 8h-50
v249zM548.001 1172l228 -93l-84 -185l-226 93z" />
    <glyph glyph-name="midkhaa" unicode="&#xf262;" horiz-adv-x="1313" 
d="M0 249l45.001 -0.000976562l193 -16l67 -1h27l36 -4l128 -11l42 -1l46 -1h95h44h15h13h11l36 1c14 0 25 1.33301 33 4c37.333 0 59.666 6 66.999 18c13.333 20 -45.334 80.333 -176.001 181c-73.333 54 -139 81 -197 81l-39 -1c-16.667 0 -34.667 -2.33301 -54 -7
c-32.667 -5.33301 -66.667 -14.666 -102 -27.999l-22 -6l-12 -2l-13 3l-4 11c0 16.667 21.667 47.667 65 93c64 65.333 141.667 98 233 98c32.667 0 58.334 -2.33301 77.001 -7c10.667 0 22.667 -2 36 -6l20.5 -6c9 -2.66699 18.167 -6 27.5 -10
c32 -12 77.667 -41.667 137 -89c31.333 -24 63.833 -51.333 97.5 -82s72.167 -68 115.5 -112c64 -64 118.333 -96 163 -96l62 -4h45v-249h-184l-74 -10l-91 -4l-101 -1l-229 -5l-63 1l-58 1l-212 7l-120 3l-176 8h-50v249zM548.001 1172l228 -93l-84 -185l-226 93z" />
    <glyph glyph-name="fnkhaa" unicode="&#xf263;" horiz-adv-x="1154" 
d="M1199 0l-294.003 -0.00292969c-95.333 0 -164.666 15 -207.999 45c-20 15.333 -35 34.666 -45 57.999c-9.33301 24.667 -14 54.334 -14 89.001v59l1 28c0 10.667 1.33301 20.334 4 29.001v22c0 9.33301 0.666992 16 2 20l7 41l-51 -3l-34 -6l-42 -11
c-97.333 -25.333 -175.666 -66.666 -234.999 -123.999c-84.667 -82.667 -127 -190.667 -127 -324c0 -105.333 27 -195.666 81 -270.999c70 -95.333 176.333 -143 319 -143s283 15 421 45l163 34c6 -10.667 -16.667 -37.667 -68 -81c-42 -35.333 -93 -72.333 -153 -111
l-100 -64l-50 -21l-68 -19c-49.333 -12 -100.666 -18 -153.999 -18c-41.333 0 -77.333 2.16699 -108 6.5s-58 11.833 -82 22.5c-82 28 -149.667 80.667 -203 158c-30.667 43.333 -54.667 93 -72 149s-26 114.333 -26 175c0 61.333 7 124 21 188s35.667 123.667 65 179
l88 135l91 136c-4 10.667 -29.667 16 -77 16c-34.667 0 -69.334 -5.33301 -104.001 -16c-18.667 -4 -38.5 -12.333 -59.5 -25s-46.5 -30 -76.5 -52c-15.333 -12 -28 -18.667 -38 -20l16 31l9 18l10 18l40 71c66 86 122.333 140.333 169 163l31 12l38 11c24 6 47 9 69 9
c16 0 91.667 -11.333 227 -34l99 -14l88 -5h37l34 3h13l18 2l136 14l-66 -193l-215 -25l-6 -25l-3 -31c0 -22 2.33301 -39.333 7 -52s15.334 -25.667 32.001 -39c15.333 -8.66699 36.333 -13 63 -13h28h19l17 2h316v-249zM436.997 1179l228 -93l-83 -185l-227 92z" />
    <glyph glyph-name="khaa" unicode="&#xf264;" horiz-adv-x="1154" 
d="M937 360l-79 6.99902h-29h-12c-6.66699 0 -12 0.666992 -16 2c-50 0 -87 -2.33301 -111 -7c-11.333 0 -27 -2 -47 -6l-28 -6c-8 -1.33301 -14 -3 -18 -5l-15 -6c-77.333 -22 -156.666 -77 -237.999 -165c-92 -100 -138 -202.667 -138 -308
c0 -106 39.167 -193.833 117.5 -263.5s189.166 -104.5 332.499 -104.5c93.333 0 203.666 13.333 330.999 40l163 34c4 -4 -6 -19.667 -30 -47l-35 -34l-40 -32l-199 -133c-14.667 -10 -32 -19 -52 -27c-14 -5.33301 -39.333 -12.666 -76 -21.999l-28 -5l-56 -9l-41 -4
l-41 -1c-76.667 0 -139.334 9.66699 -188.001 29c-76 30 -139.333 84.333 -190 163c-54 91.333 -81 202.333 -81 333l1 44l3 42l6 41c0.666992 6 2 13 4 21s4.33301 16.667 7 26c8 31.333 17.333 61 28 89c2 7.33301 4.33301 14.666 7 21.999
c0.666992 2.66699 4 9.66699 10 21c6 14 14 29 24 45l190 280l-4 2l-17 5l-19 3l-34 1c-23.333 0 -44.666 -1 -63.999 -3s-37 -5.33301 -53 -10c-32.667 -8 -61.667 -22.333 -87 -43l-32 -27l-31 -27l-5 11c0 20 18 66 54 138c46.667 82.667 89.667 138.334 129 167.001
c16.667 8 37.5 15 62.5 21s51.167 9 78.5 9l39 -1h26l20 -4l65 -7l92 -13c144.667 -16.667 253.334 -25 326.001 -25l149 7zM385 999.999l194 -81l-72 -163l-190 81z" />
    <glyph glyph-name="dal" unicode="&#xf265;" horiz-adv-x="769" 
d="M573 781l39 -54.002c12 -16 22.333 -33.667 31 -53c12 -25.333 24 -54.666 36 -87.999l38 -111l12 -69l13 -89c12 -84 18 -150.333 18 -199c0 -73.333 -10.333 -113.333 -31 -120l-265 -57l-41 -8l-47 -8l-66 -4l-49 3c-18 2 -32 5.66699 -42 11
c-22 7.33301 -43.667 22.333 -65 45c-22.667 26.667 -34 71.667 -34 135l3 84c2 19.333 7 43.666 15 72.999c10 48 20.667 72 32 72c0 -8.66699 0.666992 -13.667 2 -15l7 -46c4 -39.333 11.333 -66.666 22 -81.999c8 -10 24.667 -20.333 50 -31l39 -6l45 -3l42 1h18l27 4
l48 7c16.667 2 27 3.33301 31 4c8.66699 3.33301 15 5.33301 19 6c70 16 105 27.333 105 34l-12 63c-3.33301 17.333 -6 28 -8 32c-1.33301 6.66699 -5 16.334 -11 29.001c-6 21.333 -15 43.333 -27 66c-10 23.333 -21 45.333 -33 66l-28 46l-42 60z" />
    <glyph glyph-name="fndal" unicode="&#xf266;" horiz-adv-x="769" 
d="M573 781l39 -54.002c12 -16 22.333 -33.667 31 -53c12 -25.333 24 -54.666 36 -87.999l38 -111l11 -60l12 -62l14 -104h61v-249h-82l-269 -59l-38 -6l-39 -7l-39 -5l-36 -2c-36.667 0 -66.667 4.33301 -90 13c-22.667 6 -46 22.667 -70 50c-21.333 23.333 -32 67 -32 131
l3 84c2 19.333 7 43.666 15 72.999c10 48 20.667 72 32 72c0 -8.66699 0.666992 -13.667 2 -15l7 -46c4 -39.333 11.333 -66.666 22 -81.999c8 -10 24.667 -20.333 50 -31l39 -6l45 -3l42 1h18l27 4l48 7c16.667 2 27 3.33301 31 4c8.66699 3.33301 15 5.33301 19 6
c70 16 105 27.333 105 34l-12 63c-3.33301 17.333 -6 28 -8 32c-1.33301 6.66699 -5 16.334 -11 29.001c-6 21.333 -15 43.333 -27 66c-10 23.333 -21 45.333 -33 66l-28 46l-42 60z" />
    <glyph glyph-name="thal" unicode="&#xf267;" horiz-adv-x="769" 
d="M573 781l39 -54.002c12 -16 22.333 -33.667 31 -53c12 -25.333 24 -54.666 36 -87.999l38 -111l12 -69l13 -89c12 -84 18 -150.333 18 -199c0 -73.333 -10.333 -113.333 -31 -120l-265 -57l-41 -8l-47 -8l-66 -4l-49 3c-18 2 -32 5.66699 -42 11
c-22 7.33301 -43.667 22.333 -65 45c-22.667 26.667 -34 71.667 -34 135l3 84c2 19.333 7 43.666 15 72.999c10 48 20.667 72 32 72c0 -8.66699 0.666992 -13.667 2 -15l7 -46c4 -39.333 11.333 -66.666 22 -81.999c8 -10 24.667 -20.333 50 -31l39 -6l45 -3l42 1h18l27 4
l48 7c16.667 2 27 3.33301 31 4c8.66699 3.33301 15 5.33301 19 6c70 16 105 27.333 105 34l-12 63c-3.33301 17.333 -6 28 -8 32c-1.33301 6.66699 -5 16.334 -11 29.001c-6 21.333 -15 43.333 -27 66c-10 23.333 -21 45.333 -33 66l-28 46l-42 60zM335 1154l197 -86
l-75 -172l-190 86z" />
    <glyph glyph-name="fnthal" unicode="&#xf268;" horiz-adv-x="769" 
d="M573 781l39 -54.002c12 -16 22.333 -33.667 31 -53c12 -25.333 24 -54.666 36 -87.999l38 -111l11 -60l12 -62l14 -104h61v-249h-82l-269 -59l-38 -6l-39 -7l-39 -5l-36 -2c-36.667 0 -66.667 4.33301 -90 13c-22.667 6 -46 22.667 -70 50c-21.333 23.333 -32 67 -32 131
l3 84c2 19.333 7 43.666 15 72.999c10 48 20.667 72 32 72c0 -8.66699 0.666992 -13.667 2 -15l7 -46c4 -39.333 11.333 -66.666 22 -81.999c8 -10 24.667 -20.333 50 -31l39 -6l45 -3l42 1h18l27 4l48 7c16.667 2 27 3.33301 31 4c8.66699 3.33301 15 5.33301 19 6
c70 16 105 27.333 105 34l-12 63c-3.33301 17.333 -6 28 -8 32c-1.33301 6.66699 -5 16.334 -11 29.001c-6 21.333 -15 43.333 -27 66c-10 23.333 -21 45.333 -33 66l-28 46l-42 60zM335 1154l197 -86l-75 -172l-190 86z" />
    <glyph glyph-name="ra" unicode="&#xf269;" horiz-adv-x="758" 
d="M557 496l-107.002 -227c18.667 -11.333 38 -28 58 -50l74 -85c19.333 -24.667 34.333 -48.167 45 -70.5s16 -40.5 16 -54.5c0 -6 -2.33301 -15.667 -7 -29c-60 -112 -128.667 -194.333 -206 -247c-64 -42 -132 -63 -204 -63c-63.333 0 -129.666 18 -198.999 54
c-62 33.333 -93 52 -93 56c-2 -2 -3 -5 -3 -9c0 -24.667 27.667 -73.667 83 -147c78 -102 167.667 -165.333 269 -190l34 -4c76 0 154.333 40.667 235 122c91.333 90 150.333 204.667 177 344l16 110c4 32 6 64 6 96c0 104.667 -22.667 190.667 -68 258
c-5.33301 10 -19 26.667 -41 50c-19.333 22 -47.666 50.667 -84.999 86z" />
    <glyph glyph-name="fnra" unicode="&#xf26a;" horiz-adv-x="758" 
d="M557 496l-107.001 -227.002c18.667 -11.333 38 -28 58 -50l74 -85c19.333 -24.667 34.333 -48.167 45 -70.5s16 -40.5 16 -54.5c0 -6 -2.33301 -15.667 -7 -29c-60 -112 -128.667 -194.333 -206 -247c-64 -42 -132 -63 -204 -63c-63.333 0 -129.666 18 -198.999 54
c-62 33.333 -93 52 -93 56c-2 -2 -3 -5 -3 -9c0 -24.667 27.667 -73.667 83 -147c78 -102 167.667 -165.333 269 -190l34 -4c76 0 154.333 40.667 235 122c91.333 90 150.333 204.667 177 344l16 104h58v249h-72l-7 24c-2 8.66699 -5.66699 17.334 -11 26.001
c-2 8.66699 -5.66699 17.334 -11 26.001c-4 9.33301 -11 20.333 -21 33c-2 5.33301 -10.333 17 -25 35l-36 44l-35 34z" />
    <glyph glyph-name="zain" unicode="&#xf26b;" horiz-adv-x="758" 
d="M557 496l-107.002 -227c18.667 -11.333 38 -28 58 -50l74 -85c19.333 -24.667 34.333 -48.167 45 -70.5s16 -40.5 16 -54.5c0 -6 -2.33301 -15.667 -7 -29c-60 -112 -128.667 -194.333 -206 -247c-64 -42 -132 -63 -204 -63c-63.333 0 -129.666 18 -198.999 54
c-62 33.333 -93 52 -93 56c-2 -2 -3 -5 -3 -9c0 -24.667 27.667 -73.667 83 -147c78 -102 167.667 -165.333 269 -190l34 -4c76 0 154.333 40.667 235 122c91.333 90 150.333 204.667 177 344l16 110c4 32 6 64 6 96c0 104.667 -22.667 190.667 -68 258
c-5.33301 10 -19 26.667 -41 50c-19.333 22 -47.666 50.667 -84.999 86zM309.998 1075l217 -97l-81 -193l-213 95z" />
    <glyph glyph-name="fnzain" unicode="&#xf26c;" horiz-adv-x="758" 
d="M557 496l-107.001 -227.002c18.667 -11.333 38 -28 58 -50l74 -85c19.333 -24.667 34.333 -48.167 45 -70.5s16 -40.5 16 -54.5c0 -6 -2.33301 -15.667 -7 -29c-60 -112 -128.667 -194.333 -206 -247c-64 -42 -132 -63 -204 -63c-63.333 0 -129.666 18 -198.999 54
c-62 33.333 -93 52 -93 56c-2 -2 -3 -5 -3 -9c0 -24.667 27.667 -73.667 83 -147c78 -102 167.667 -165.333 269 -190l34 -4c76 0 154.333 40.667 235 122c91.333 90 150.333 204.667 177 344l16 104h58v249h-72l-7 24c-2 8.66699 -5.66699 17.334 -11 26.001
c-2 8.66699 -5.66699 17.334 -11 26.001c-4 9.33301 -11 20.333 -21 33c-2 5.33301 -10.333 17 -25 35l-36 44l-35 34zM309.999 1075l217 -97l-81 -193l-213 95z" />
    <glyph glyph-name="inseen" unicode="&#xf26d;" horiz-adv-x="1437" 
d="M0 249l44.999 0.000976562h66h42h29l24 2c17.333 2 33 9 47 21c4.66699 4.66699 7 22 7 52v26l-1 19l-1 16v12l-1 17c0 6 -1.33301 12.667 -4 20l148 157l6 -30v-20l3 -32v-24v-12c0 -5.33301 -0.666992 -10.666 -2 -15.999l-10 -52c-4 -32.667 -16 -74 -36 -124l25 -10
l43 -20l56 -2l87 -2h178l44 3c10 2 22 7 36 15c18 11.333 27 27 27 47l-3 107l154 160l3 -21c0 -15.333 0.666992 -24.666 2 -27.999v-18v-15l-2 -17v-12c0 -4 -0.666992 -8.66699 -2 -14l-8 -38c0 -11.333 -3.66699 -28 -11 -50
c-2.66699 -10.667 -5.66699 -21.334 -9 -32.001s-7.66602 -22.334 -12.999 -35.001c-2 -6 21.333 -20.333 70 -43l35 -12l41 -11l37 -5l38 -2c32 0 54.833 2 68.5 6s23.5 18.667 29.5 44c0 20.667 -7 54 -21 100c-11.333 40 -21 63.333 -29 70l142 165l23 -93l18 -128l5 -66
l2 -61v-73c0 -82 -2.33301 -131 -7 -147c-2 -14.667 -10.667 -25.334 -26 -32.001c-14.667 -5.33301 -34 -10.333 -58 -15l-43 -4l-24 -1c-78 0 -164 13.667 -258 41l-56 17l-27 9l-46 17c-20 -12 -45.333 -25.333 -76 -40c-26 -10.667 -56.667 -20 -92 -28l-69 -9l-76 -3
c-114 0 -190 6.33301 -228 19l-54 23l-41 22l-32 -16l-70 -29l-27 -8l-21 -4l-52 -2h-45v249z" />
    <glyph glyph-name="midseen" unicode="&#xf26e;" horiz-adv-x="1437" 
d="M0 249h44.999h66h42h29l24 2c17.333 2 33 9 47 21c4.66699 4.66699 7 22 7 52v26l-1 19l-1 16v12l-1 17c0 6 -1.33301 12.667 -4 20l148 157l6 -30v-20l3 -32v-24v-12c0 -5.33301 -0.666992 -10.666 -2 -15.999l-10 -52c-4 -32.667 -16 -74 -36 -124l25 -10l43 -20l56 -2
l87 -2h178l44 3c10 2 22 7 36 15c18 11.333 27 27 27 47l-3 107l154 160l3 -21c0 -15.333 0.666992 -24.666 2 -27.999v-18v-15l-2 -17v-12c0 -4 -0.666992 -8.66699 -2 -14l-8 -38c0 -11.333 -3.66699 -28 -11 -50c-2.66699 -10.667 -5.66699 -21.334 -9 -32.001
s-7.66602 -22.334 -12.999 -35.001c-2 -6 21.333 -20.333 70 -43l35 -12l41 -11l37 -5l38 -2c32 0 54.833 2 68.5 6s23.5 18.667 29.5 44c0 20.667 -7 54 -21 100c-11.333 40 -21 63.333 -29 70l142 165l23 -93l18 -128l5 -66l2 -61l-2 -14h56v-249h-68l-15 11
c-8 0 -14.333 -1.33301 -19 -4l-57 -11l-56 -5c-74 0 -158.333 13.667 -253 41l-73 21l-58 22c-20 -12 -45.333 -25.333 -76 -40c-26 -10.667 -56.667 -20 -92 -28l-69 -9l-76 -3c-114 0 -190 6.33301 -228 19l-54 23l-41 22l-32 -16l-70 -29l-27 -8l-21 -4l-52 -2h-45v249z
" />
    <glyph glyph-name="fnseen" unicode="&#xf26f;" horiz-adv-x="1833" 
d="M991 0c0 -6.66699 -2.33203 -18 -6.99902 -34l-8 -26l-6 -18l-8 -19c-52 -132.667 -113.333 -226.334 -184 -281.001c-28.667 -21.333 -81.334 -44 -158.001 -68l-48 -12l-53 -10l-54 -7l-58 -2c-94 0 -173 18 -237 54c-73.333 42 -122.333 111.333 -147 208l-11 65
l-5 69c0 114 29.333 228.667 88 344c48 93.333 84.333 140 109 140c-18 -43.333 -41.333 -103.666 -70 -180.999c-13.333 -38.667 -24.333 -76.5 -33 -113.5s-13 -65.5 -13 -85.5c0 -35.333 5 -69.333 15 -102s30 -62 60 -88c23.333 -24 60.166 -43.333 110.499 -58
s102.5 -22 156.5 -22c38 0 76.333 2.16699 115 6.5s75 12.166 109 23.499c18.667 4.66699 37.5 10.334 56.5 17.001s42.5 16.667 70.5 30c45.333 20 71 37.333 77 52l4 37c0 77.333 -23.333 170 -70 278l-27 63c-7.33301 16.667 -22.333 44 -45 82l158 194l52 -104l16 -43
l14 -38l13 -47l16 -60l201 3c22 0 39.333 6.66699 52 20c5.33301 11.333 10.666 28.666 15.999 51.999c0 18 0.666992 28 2 30v16l-2 24c0 6 -1.33301 11.333 -4 16l160 172c4.66699 -4.66699 7 -20.334 7 -47.001c0 -29.333 -4 -65 -12 -107
c-3.33301 -19.333 -5.5 -30.833 -6.5 -34.5s-4.5 -14.334 -10.5 -32.001s-15 -38.5 -27 -62.5c-2 -6 22 -21 72 -45s99.667 -36 149 -36c30 0 54.333 4 73 12s30 24.333 34 49l-1 25c0 8.66699 -1.33301 17.334 -4 26.001l-8 26l-12 27
c-12.667 36.667 -22.667 59.334 -30 68.001l152 165l12 -49l8 -44c14 -79.333 21 -164.333 21 -255l-3 -14h50v-249h-102l-76 -5l-39 -2c-66 0 -149 15 -249 45l-56 18c-28 8 -52.333 17.333 -73 28c-33.333 -27.333 -81.666 -51.666 -144.999 -72.999
c-16 -3.33301 -35.167 -6.33301 -57.5 -9s-42.166 -4 -59.499 -4h-21z" />
    <glyph glyph-name="seen" unicode="&#xf270;" horiz-adv-x="1833" 
d="M991 0c0 -6.66699 -2.33203 -18.001 -6.99902 -34.001l-8 -26l-6 -18l-8 -19c-52 -132.667 -113.333 -226.334 -184 -281.001c-28.667 -21.333 -81.334 -44 -158.001 -68l-48 -12l-53 -10l-54 -7l-58 -2c-94 0 -173 18 -237 54c-73.333 42 -122.333 111.333 -147 208
l-11 65l-5 69c0 114 29.333 228.667 88 344c48 93.333 84.333 140 109 140c-18 -43.333 -41.333 -103.666 -70 -180.999c-13.333 -38.667 -24.333 -76.5 -33 -113.5s-13 -65.5 -13 -85.5c0 -35.333 5 -69.333 15 -102s30 -62 60 -88c23.333 -24 60.166 -43.333 110.499 -58
s102.5 -22 156.5 -22c38 0 76.333 2.16699 115 6.5s75 12.166 109 23.499c18.667 4.66699 37.5 10.334 56.5 17.001s42.5 16.667 70.5 30c45.333 20 71 37.333 77 52l4 37c0 77.333 -23.333 170 -70 278l-27 63c-7.33301 16.667 -22.333 44 -45 82l158 194l52 -104l16 -43
l14 -38l13 -47l16 -60l201 3c22 0 39.333 6.66699 52 20c5.33301 11.333 10.666 28.666 15.999 51.999c0 18 0.666992 28 2 30v16l-2 24c0 6 -1.33301 11.333 -4 16l160 172c4.66699 -4.66699 7 -20.334 7 -47.001c0 -29.333 -4 -65 -12 -107
c-3.33301 -19.333 -5.5 -30.833 -6.5 -34.5s-4.5 -14.334 -10.5 -32.001s-15 -38.5 -27 -62.5c-2 -6 22 -21 72 -45s99.667 -36 149 -36c30 0 54.333 4 73 12s30 24.333 34 49l-1 25c0 8.66699 -1.33301 17.334 -4 26.001l-8 26l-12 27
c-12.667 36.667 -22.667 59.334 -30 68.001l152 165l12 -49l8 -44c14 -79.333 21 -164.333 21 -255l-1 -72l-1 -60v-12l-1 -31l-3 -41c-2 -15.333 -12 -28 -30 -38l-62 -14l-67 -4c-43.333 0 -83.666 3.33301 -120.999 10l-30 5
c-7.33301 0.666992 -12.333 1.33398 -15 2.00098s-9 2.66699 -19 6l-73 22c-24.667 6 -66.334 22 -125.001 48c-33.333 -27.333 -81.666 -51.666 -144.999 -72.999c-16 -3.33301 -35.167 -6.33301 -57.5 -9s-42.166 -4 -59.499 -4h-21z" />
    <glyph glyph-name="insheen" unicode="&#xf271;" horiz-adv-x="1437" 
d="M0 249l44.999 0.000976562h66h42h29l24 2c17.333 2 33 9 47 21c4.66699 4.66699 7 22 7 52v26l-1 19l-1 16v12l-1 17c0 6 -1.33301 12.667 -4 20l148 157l6 -30v-20l3 -32v-24v-12c0 -5.33301 -0.666992 -10.666 -2 -15.999l-10 -52c-4 -32.667 -16 -74 -36 -124l25 -10
l43 -20l56 -2l87 -2h178l44 3c10 2 22 7 36 15c18 11.333 27 27 27 47l-3 107l154 160l3 -21c0 -15.333 0.666992 -24.666 2 -27.999v-18v-15l-2 -17v-12c0 -4 -0.666992 -8.66699 -2 -14l-8 -38c0 -11.333 -3.66699 -28 -11 -50
c-2.66699 -10.667 -5.66699 -21.334 -9 -32.001s-7.66602 -22.334 -12.999 -35.001c-2 -6 21.333 -20.333 70 -43l35 -12l41 -11l37 -5l38 -2c32 0 54.833 2 68.5 6s23.5 18.667 29.5 44c0 20.667 -7 54 -21 100c-11.333 40 -21 63.333 -29 70l142 165l23 -93l18 -128l5 -66
l2 -61v-73c0 -82 -2.33301 -131 -7 -147c-2 -14.667 -10.667 -25.334 -26 -32.001c-14.667 -5.33301 -34 -10.333 -58 -15l-43 -4l-24 -1c-78 0 -164 13.667 -258 41l-56 17l-27 9l-46 17c-20 -12 -45.333 -25.333 -76 -40c-26 -10.667 -56.667 -20 -92 -28l-69 -9l-76 -3
c-114 0 -190 6.33301 -228 19l-54 23l-41 22l-32 -16l-70 -29l-27 -8l-21 -4l-52 -2h-45v249zM940.999 1193l-74 -125l167 -97l73 124zM879.999 960.001l-79 -127l183 -109l157 249l178 -104l-79 -127z" />
    <glyph glyph-name="midsheen" unicode="&#xf272;" horiz-adv-x="1335" 
d="M0 249h44.999h66h42h29l24 2c17.333 2 33 9 47 21c4.66699 4.66699 7 22 7 52v26l-1 19l-1 16v12l-1 17c0 6 -1.33301 12.667 -4 20l148 157l6 -30v-20l3 -32v-24v-12c0 -5.33301 -0.666992 -10.666 -2 -15.999l-10 -52c-4 -32.667 -16 -74 -36 -124l25 -10l43 -20l56 -2
l87 -2h178l44 3c10 2 22 7 36 15c18 11.333 27 27 27 47l-3 107l154 160l3 -21c0 -15.333 0.666992 -24.666 2 -27.999v-18v-15l-2 -17v-12c0 -4 -0.666992 -8.66699 -2 -14l-8 -38c0 -11.333 -3.66699 -28 -11 -50c-2.66699 -10.667 -5.66699 -21.334 -9 -32.001
s-7.66602 -22.334 -12.999 -35.001c-2 -6 21.333 -20.333 70 -43l35 -12l41 -11l37 -5l38 -2c32 0 54.833 2 68.5 6s23.5 18.667 29.5 44c0 20.667 -7 54 -21 100c-11.333 40 -21 63.333 -29 70l142 165l23 -93l18 -128l5 -66l2 -61l-2 -14h56v-249h-68l-15 11
c-8 0 -14.333 -1.33301 -19 -4l-57 -11l-56 -5c-74 0 -158.333 13.667 -253 41l-73 21l-58 22c-20 -12 -45.333 -25.333 -76 -40c-26 -10.667 -56.667 -20 -92 -28l-69 -9l-76 -3c-114 0 -190 6.33301 -228 19l-54 23l-41 22l-32 -16l-70 -29l-27 -8l-21 -4l-52 -2h-45v249z
M940.999 1193l-74 -125l167 -97l73 124zM879.999 960l-79 -127l183 -109l157 249l178 -104l-79 -127z" />
    <glyph glyph-name="fnsheen" unicode="&#xf273;" horiz-adv-x="1833" 
d="M991 0c0 -6.66699 -2.33203 -18 -6.99902 -34l-8 -26l-6 -18l-8 -19c-52 -132.667 -113.333 -226.334 -184 -281.001c-28.667 -21.333 -81.334 -44 -158.001 -68l-48 -12l-53 -10l-54 -7l-58 -2c-94 0 -173 18 -237 54c-73.333 42 -122.333 111.333 -147 208l-11 65
l-5 69c0 114 29.333 228.667 88 344c48 93.333 84.333 140 109 140c-18 -43.333 -41.333 -103.666 -70 -180.999c-13.333 -38.667 -24.333 -76.5 -33 -113.5s-13 -65.5 -13 -85.5c0 -35.333 5 -69.333 15 -102s30 -62 60 -88c23.333 -24 60.166 -43.333 110.499 -58
s102.5 -22 156.5 -22c38 0 76.333 2.16699 115 6.5s75 12.166 109 23.499c18.667 4.66699 37.5 10.334 56.5 17.001s42.5 16.667 70.5 30c45.333 20 71 37.333 77 52l4 37c0 77.333 -23.333 170 -70 278l-27 63c-7.33301 16.667 -22.333 44 -45 82l158 194l52 -104l16 -43
l14 -38l13 -47l16 -60l201 3c22 0 39.333 6.66699 52 20c5.33301 11.333 10.666 28.666 15.999 51.999c0 18 0.666992 28 2 30v16l-2 24c0 6 -1.33301 11.333 -4 16l160 172c4.66699 -4.66699 7 -20.334 7 -47.001c0 -29.333 -4 -65 -12 -107
c-3.33301 -19.333 -5.5 -30.833 -6.5 -34.5s-4.5 -14.334 -10.5 -32.001s-15 -38.5 -27 -62.5c-2 -6 22 -21 72 -45s99.667 -36 149 -36c30 0 54.333 4 73 12s30 24.333 34 49l-1 25c0 8.66699 -1.33301 17.334 -4 26.001l-8 26l-12 27
c-12.667 36.667 -22.667 59.334 -30 68.001l152 165l12 -49l8 -44c14 -79.333 21 -164.333 21 -255l-3 -14h50v-249h-102l-76 -5l-39 -2c-66 0 -149 15 -249 45l-56 18c-28 8 -52.333 17.333 -73 28c-33.333 -27.333 -81.666 -51.666 -144.999 -72.999
c-16 -3.33301 -35.167 -6.33301 -57.5 -9s-42.166 -4 -59.499 -4h-21zM1349 1193l-75 -125l168 -97l72 124zM1288 960l-80 -127l184 -109l156 249l179 -104l-80 -127z" />
    <glyph glyph-name="sheen" unicode="&#xf274;" horiz-adv-x="1833" 
d="M991 0c0 -6.66699 -2.33203 -18.001 -6.99902 -34.001l-8 -26l-6 -18l-8 -19c-52 -132.667 -113.333 -226.334 -184 -281.001c-28.667 -21.333 -81.334 -44 -158.001 -68l-48 -12l-53 -10l-54 -7l-58 -2c-94 0 -173 18 -237 54c-73.333 42 -122.333 111.333 -147 208
l-11 65l-5 69c0 114 29.333 228.667 88 344c48 93.333 84.333 140 109 140c-18 -43.333 -41.333 -103.666 -70 -180.999c-13.333 -38.667 -24.333 -76.5 -33 -113.5s-13 -65.5 -13 -85.5c0 -35.333 5 -69.333 15 -102s30 -62 60 -88c23.333 -24 60.166 -43.333 110.499 -58
s102.5 -22 156.5 -22c38 0 76.333 2.16699 115 6.5s75 12.166 109 23.499c18.667 4.66699 37.5 10.334 56.5 17.001s42.5 16.667 70.5 30c45.333 20 71 37.333 77 52l4 37c0 77.333 -23.333 170 -70 278l-27 63c-7.33301 16.667 -22.333 44 -45 82l158 194l52 -104l16 -43
l14 -38l13 -47l16 -60l201 3c22 0 39.333 6.66699 52 20c5.33301 11.333 10.666 28.666 15.999 51.999c0 18 0.666992 28 2 30v16l-2 24c0 6 -1.33301 11.333 -4 16l160 172c4.66699 -4.66699 7 -20.334 7 -47.001c0 -29.333 -4 -65 -12 -107
c-3.33301 -19.333 -5.5 -30.833 -6.5 -34.5s-4.5 -14.334 -10.5 -32.001s-15 -38.5 -27 -62.5c-2 -6 22 -21 72 -45s99.667 -36 149 -36c30 0 54.333 4 73 12s30 24.333 34 49l-1 25c0 8.66699 -1.33301 17.334 -4 26.001l-8 26l-12 27
c-12.667 36.667 -22.667 59.334 -30 68.001l152 165l12 -49l8 -44c14 -79.333 21 -164.333 21 -255l-1 -72l-1 -60v-12l-1 -31l-3 -41c-2 -15.333 -12 -28 -30 -38l-62 -14l-67 -4c-43.333 0 -83.666 3.33301 -120.999 10l-30 5
c-7.33301 0.666992 -12.333 1.33398 -15 2.00098s-9 2.66699 -19 6l-73 22c-24.667 6 -66.334 22 -125.001 48c-33.333 -27.333 -81.666 -51.666 -144.999 -72.999c-16 -3.33301 -35.167 -6.33301 -57.5 -9s-42.166 -4 -59.499 -4h-21zM1349 1193l-75 -125l168 -97l72 124z
M1288 959.999l-80 -127l184 -109l156 249l179 -104l-80 -127z" />
    <glyph glyph-name="insad" unicode="&#xf275;" horiz-adv-x="1788" 
d="M1319 453c-92.667 0 -188.999 -34 -288.999 -102c-16 -11.333 -32.667 -25 -50 -41l-63 -61l205 -23l243 -9c87.333 0 155.166 4 203.499 12s75.5 23.667 81.5 47c0 14 -9 30 -27 48s-46.667 38.333 -86 61c-77.333 45.333 -150 68 -218 68zM0.000976562 249
l49.998 0.000976562l38 -1l45 -1h18c21.333 0 38 1.5 50 4.5s21 6.5 27 10.5l21 14l2 23v38v20l-1 18l-1 19v12c0 12.667 -1.66699 20.667 -5 24l150 156l2 -32v-36l-2 -54l-3 -33l-5 -37c0 -10 -7.33301 -32.667 -22 -68l-13 -52c0 -7.33301 25.667 -14.333 77 -21l142 -9
l125 9c38 0 100.667 35.667 188 107l251 213c46.667 37.333 86.834 65.5 120.501 84.5s59.834 28.5 78.501 28.5c99.333 0 198 -37.667 296 -113c80.667 -62.667 132 -127.667 154 -195l3 -22c0 -28.667 -8.33301 -71 -25 -127c-22 -72.667 -45.667 -126.334 -71 -161.001
c-20 -30 -73.333 -52 -160 -66l-139 -13l-91 -2l-67 -3l-55 1l-60 1l-56 1l-43 1l-32 1l-519 6l-30 1h-11l-19 4l-29 4l-28 10l-111 43l-38 -19l-48 -20l-51 -13l-37 -5h-18h-48v249z" />
    <glyph glyph-name="midsad" unicode="&#xf276;" horiz-adv-x="1788" 
d="M1319 453c-92.667 0 -188.999 -34 -288.999 -102c-16 -11.333 -32.667 -25 -50 -41l-63 -61l205 -23l243 -9c87.333 0 155.166 4 203.499 12s75.5 23.667 81.5 47c0 14 -9 30 -27 48s-46.667 38.333 -86 61c-77.333 45.333 -150 68 -218 68zM0.000976562 249h49.998
l38 -1l45 -1h18c21.333 0 38 1.5 50 4.5s21 6.5 27 10.5l21 14l2 23v38v20l-1 18l-1 19v12c0 12.667 -1.66699 20.667 -5 24l150 156l2 -32v-36l-2 -54l-3 -33l-5 -37c0 -10 -7.33301 -32.667 -22 -68l-13 -52c0 -7.33301 25.667 -14.333 77 -21l142 -9l125 9
c38 0 100.667 35.667 188 107l251 213c46.667 37.333 86.834 65.5 120.501 84.5s59.834 28.5 78.501 28.5c99.333 0 198 -37.667 296 -113c80.667 -62.667 132 -127.667 154 -195l4 -25v-20l-5 -20l-7 -26l-12 -38h65v-249h-126l-36 43l-26 -12l-22 -8l-74 -18l-89 -14h-35
l-36 -2l-119 -7l-88 2l-82 2h-45h-14c-26.667 0 -43 1 -49 3l-519 6l-30 1h-11l-19 4l-29 4l-28 10l-111 43l-38 -19l-48 -20l-51 -13l-37 -5h-18h-48v249z" />
    <glyph glyph-name="fnsad" unicode="&#xf277;" horiz-adv-x="2218" 
d="M1740 453c-92.667 0 -189 -34 -289 -102l-51 -42l-63 -60l206 -23l242 -9c90 0 159 4 207 12s74.333 23.667 79 47c0 11.333 -9 27 -27 47l-37 29l-50 33c-76.667 45.333 -149 68 -217 68zM993 2c0 -22.667 -18.665 -75.334 -55.998 -158.001
c-48 -102 -101 -176 -159 -222c-28.667 -21.333 -81.334 -44 -158.001 -68l-48 -12l-53 -10l-54 -7l-58 -2c-94 0 -173 18 -237 54c-73.333 42 -122.333 111.333 -147 208l-11 65l-5 69c0 114 29.333 228.667 88 344c48 93.333 84.333 140 109 140
c-18 -43.333 -41.333 -103.666 -70 -180.999c-13.333 -38.667 -24.333 -76.5 -33 -113.5s-13 -65.5 -13 -85.5c0 -35.333 5 -69.333 15 -102s30 -62 60 -88c23.333 -24 60.166 -43.333 110.499 -58s102.5 -22 156.5 -22c38 0 76.333 2.16699 115 6.5s75 12.166 109 23.499
c18.667 4.66699 37.5 10.334 56.5 17.001s42.5 16.667 70.5 30c45.333 20 71 37.333 77 52l4 37c0 77.333 -23.333 170 -70 278l-27 63c-7.33301 16.667 -22.333 44 -45 82l158 194l52 -104c7.33301 -14.667 17.333 -41 30 -79l16 -54l15 -50l125 7c32 0 96.667 37 194 111
l245 206c46 37.333 86.167 65.5 120.5 84.5s60.5 28.5 78.5 28.5c99.333 0 198 -37.667 296 -113c80.667 -62.667 132 -127.667 154 -195l2 -23l-1 -24l-4 -21l-7 -41l-6 -20h75v-249h-127l-40 48l-24 -12l-22 -11l-62 -19l-76 -13l-149 -11c-52.667 0 -80 -0.666992 -82 -2
l-126 2l-80 1l-67 1z" />
    <glyph glyph-name="sad" unicode="&#xf278;" horiz-adv-x="2218" 
d="M1740 453c-92.667 0 -189 -34 -289 -102l-51 -42l-63 -60l206 -23l242 -9c90 0 159 4 207 12s74.333 23.667 79 47c0 11.333 -9 27 -27 47l-37 29l-50 33c-76.667 45.333 -149 68 -217 68zM993 2c0 -22.667 -18.665 -75.333 -55.998 -158c-48 -102 -101 -176 -159 -222
c-28.667 -21.333 -81.334 -44 -158.001 -68l-48 -12l-53 -10l-54 -7l-58 -2c-94 0 -173 18 -237 54c-73.333 42 -122.333 111.333 -147 208l-11 65l-5 69c0 114 29.333 228.667 88 344c48 93.333 84.333 140 109 140c-18 -43.333 -41.333 -103.666 -70 -180.999
c-13.333 -38.667 -24.333 -76.5 -33 -113.5s-13 -65.5 -13 -85.5c0 -35.333 5 -69.333 15 -102s30 -62 60 -88c23.333 -24 60.166 -43.333 110.499 -58s102.5 -22 156.5 -22c38 0 76.333 2.16699 115 6.5s75 12.166 109 23.499c18.667 4.66699 37.5 10.334 56.5 17.001
s42.5 16.667 70.5 30c45.333 20 71 37.333 77 52l4 37c0 77.333 -23.333 170 -70 278l-27 63c-7.33301 16.667 -22.333 44 -45 82l158 194l52 -104l16 -41l16 -40l15 -50l14 -57l125 9c19.333 0 43.5 8.16699 72.5 24.5s67.167 43.833 114.5 82.5l85 71l84 71l83 71
c46 37.333 86.167 65.5 120.5 84.5s60.5 28.5 78.5 28.5c99.333 0 198 -37.667 296 -113c80.667 -62.667 132 -127.667 154 -195l3 -22c0 -28.667 -8.33301 -71 -25 -127c-4.66699 -18 -10 -35.333 -16 -52s-12.333 -31.334 -19 -44.001l-18 -38l-20 -29
c-19.333 -28 -83.333 -51.667 -192 -71l-62 -6l-62 -4l-179 -3h-32h-25l-40 1l-42 1h-67z" />
    <glyph glyph-name="indad" unicode="&#xf279;" horiz-adv-x="1788" 
d="M1319 453c-92.667 0 -188.999 -34 -288.999 -102c-16 -11.333 -32.667 -25 -50 -41l-63 -61l205 -23l243 -9c87.333 0 155.166 4 203.499 12s75.5 23.667 81.5 47c0 14 -9 30 -27 48s-46.667 38.333 -86 61c-77.333 45.333 -150 68 -218 68zM0.000976562 249
l49.998 0.000976562l38 -1l45 -1h18c21.333 0 38 1.5 50 4.5s21 6.5 27 10.5l21 14l2 23v38v20l-1 18l-1 19v12c0 12.667 -1.66699 20.667 -5 24l150 156l2 -32v-36l-2 -54l-3 -33l-5 -37c0 -10 -7.33301 -32.667 -22 -68l-13 -52c0 -7.33301 25.667 -14.333 77 -21l142 -9
l125 9c38 0 100.667 35.667 188 107l251 213c46.667 37.333 86.834 65.5 120.501 84.5s59.834 28.5 78.501 28.5c99.333 0 198 -37.667 296 -113c80.667 -62.667 132 -127.667 154 -195l3 -22c0 -28.667 -8.33301 -71 -25 -127c-22 -72.667 -45.667 -126.334 -71 -161.001
c-20 -30 -73.333 -52 -160 -66l-139 -13l-91 -2l-67 -3l-55 1l-60 1l-56 1l-43 1l-32 1l-519 6l-30 1h-11l-19 4l-29 4l-28 10l-111 43l-38 -19l-48 -20l-51 -13l-37 -5h-18h-48v249zM1165 1156l236 -90l-88 -181l-229 90z" />
    <glyph glyph-name="middad" unicode="&#xf27a;" horiz-adv-x="1788" 
d="M1319 453c-92.667 0 -188.999 -34 -288.999 -102c-16 -11.333 -32.667 -25 -50 -41l-63 -61l205 -23l243 -9c87.333 0 155.166 4 203.499 12s75.5 23.667 81.5 47c0 14 -9 30 -27 48s-46.667 38.333 -86 61c-77.333 45.333 -150 68 -218 68zM0.000976562 249h49.998
l38 -1l45 -1h18c21.333 0 38 1.5 50 4.5s21 6.5 27 10.5l21 14l2 23v38v20l-1 18l-1 19v12c0 12.667 -1.66699 20.667 -5 24l150 156l2 -32v-36l-2 -54l-3 -33l-5 -37c0 -10 -7.33301 -32.667 -22 -68l-13 -52c0 -7.33301 25.667 -14.333 77 -21l142 -9l125 9
c38 0 100.667 35.667 188 107l251 213c46.667 37.333 86.834 65.5 120.501 84.5s59.834 28.5 78.501 28.5c99.333 0 198 -37.667 296 -113c80.667 -62.667 132 -127.667 154 -195l4 -25v-20l-5 -20l-7 -26l-12 -38h65v-249h-126l-36 43l-26 -12l-22 -8l-74 -18l-89 -14h-35
l-36 -2l-119 -7l-88 2l-82 2h-45h-14c-26.667 0 -43 1 -49 3l-519 6l-30 1h-11l-19 4l-29 4l-28 10l-111 43l-38 -19l-48 -20l-51 -13l-37 -5h-18h-48v249zM1165 1156l236 -90l-88 -181l-229 90z" />
    <glyph glyph-name="f27b" unicode="&#xf27b;" horiz-adv-x="1078" 
d="M984 1624l-60 -53.001c-24 -22 -43 -41.333 -57 -58c-14 -14 -30 -33 -48 -57l-60 -82c-42 -60 -81 -133 -117 -219l-23 -67l-21 -78h194l-194 -227l-37 30l129 149h-147l17 79c18 78 41.333 143.667 70 197c43.333 93.333 96 178 158 254c-72 -60 -144 -139 -216 -237
l-28 -45l-30 -51l-57 -109l-35 -88h-130l115 -150l-38 -28l-174 226h193c6.66699 21.333 17.667 48 33 80l19 40l22 39l42 72l23 35l18 25l51 65l47 54c84.667 92.667 189.667 173.334 315 242.001zM1014 670.999l-158 -95v-209l-227 194l30 37l149 -129v133l115 69l-115 70
v126l-150 -115l-28 38l226 174v-196zM668 660.999c0 -50 -18.1689 -92.999 -54.502 -128.999s-79.5 -54 -129.5 -54c-51.333 0 -94.666 17.667 -129.999 53s-53 78.666 -53 129.999s17.833 94.833 53.5 130.5s78.834 53.5 129.501 53.5c47.333 0 89.833 -17.833 127.5 -53.5
s56.5 -79.167 56.5 -130.5zM339.998 561l-227 -194v209l-159 95l159 97v196l226 -174l-28 -38l-150 115v-126l-115 -70l115 -69v-133l149 129zM983.998 -290l-26 -38.9971c-58 30.667 -113.333 66.167 -166 106.5s-102 85.5 -148 135.5c-56.667 60.667 -117 144 -181 250
l-40 78l-35 83h-193l174 226l38 -28l-115 -151h130l33 -84c31.333 -75.333 68.666 -142.333 111.999 -201l47 -65l51 -62c26.667 -30.667 65 -67.334 115 -110.001c-54.667 69.333 -105 151.666 -151 246.999l-38 96l-31 100l-17 79h147l-129 150l37 30l194 -227h-194
c4 -24 9.16699 -46.833 15.5 -68.5s15.5 -46.834 27.5 -75.501c26 -70 65 -145 117 -225l21 -30l26 -33l54 -64c38.667 -42.667 80.334 -82 125.001 -118zM619.998 661.003c0 36 -13.667 67.333 -41 94c-26 28 -57.667 42 -95 42c-35.333 0 -66.666 -13.167 -93.999 -39.5
s-41 -58.5 -41 -96.5c0 -32 13.167 -62.667 39.5 -92s58.166 -44 95.499 -44c32 0 63.333 13.333 94 40c28 27.333 42 59.333 42 96z" />
    </font>
</defs>
</svg>
