<?xml version="1.0" standalone="no"?>
<!DOCTYPE svg PUBLIC "-//W3C//DTD SVG 1.1//EN" "http://www.w3.org/Graphics/SVG/1.1/DTD/svg11.dtd" >
<svg>
<metadata>
Created by FontForge 20090914 at Sat Sep 14 01:53:33 2013
 By www-data
Copyright (c) Boutros International, 2004. All rights reserved.
</metadata>
<defs>
<font id="GESSTwoMedium-Medium" horiz-adv-x="0" >
  <font-face 
    font-family="GE SS Two Medium"
    font-weight="500"
    font-stretch="normal"
    units-per-em="1000"
    panose-1="2 10 5 3 2 1 2 2 2 4"
    ascent="800"
    descent="-200"
    bbox="-114 -411 1378 981"
    underline-thickness="50"
    underline-position="-50"
    unicode-range="U+0020-U+FEFF"
  />
<missing-glyph horiz-adv-x="500" 
d="M63 0h375v750h-375v-750zM125 63v625h250v-625h-250z" />
    <glyph glyph-name="alefmaddaabovearabic" unicode="&#x627;&#x653;" horiz-adv-x="214" 
d="M182 0v646h-111v-646h111zM226 731l-9 35c-14.667 -18.667 -30 -28 -46 -28c-10.667 0 -28.334 8.33301 -53.001 25s-42.667 25 -54 25c-18 0 -35 -14 -51 -42l9 -34c13.333 18 27.333 27 42 27c16 0 35.333 -8.33301 58 -25s39.334 -25 50.001 -25c18 0 36 14 54 42z
" />
    <glyph glyph-name="alefhamzaabovearabic" unicode="&#x627;&#x654;" horiz-adv-x="214" 
d="M182 0v646h-111v-646h111zM210 697v46h-81c-12 7.33301 -18 19.666 -18 36.999c0 10 3.16699 18.833 9.5 26.5s14.5 11.5 24.5 11.5c16 0 25.333 -7.33301 28 -22l36 19c-14 29.333 -35 44 -63 44c-22 0 -40.5 -7.66699 -55.5 -23s-22.5 -34.666 -22.5 -57.999
c0 -4 3 -15.667 9 -35h-40v-46h173z" />
    <glyph glyph-name="wawhamzaabovearabic" unicode="&#x648;&#x654;" horiz-adv-x="525" 
d="M493 14v211.001c0 67.333 -19.667 122.5 -59 165.5s-91.666 64.5 -156.999 64.5c-63.333 0 -115 -21 -155 -63s-60 -96.667 -60 -164c0 -66.667 19.833 -121.334 59.5 -164.001s91.5 -64 155.5 -64c51.333 0 86.666 17 105.999 51c-2 -82.667 -37.667 -125 -107 -127v-89
c144.667 0 217 59.667 217 179zM378 223.001c0 -34 -9.5 -62.833 -28.5 -86.5s-43.167 -35.5 -72.5 -35.5c-30 0 -54.667 12.333 -74 37s-29 54.667 -29 90c0 34.667 9.16699 64.167 27.5 88.5s41.833 36.5 70.5 36.5c32 0 57.667 -11.833 77 -35.5s29 -55.167 29 -94.5z
M376 511.001v63h-96c-12 5.33301 -18 17 -18 35c0 25.333 9.66699 38 29 38c12.667 0 22 -8.66699 28 -26l56 26c-17.333 39.333 -45.333 59 -84 59c-26.667 0 -49 -9.5 -67 -28.5s-27 -42.5 -27 -70.5c0 -8.66699 1.66699 -19.667 5 -33h-48v-63h222z" />
    <glyph glyph-name="alefhamzabelowarabic" unicode="&#x627;&#x655;" horiz-adv-x="214" 
d="M182 0v646h-111v-646h111zM214 -205l-0.000976562 45.999h-81c-12 7.33301 -18 20 -18 38c0 10.667 3.16699 19.834 9.5 27.501s14.5 11.5 24.5 11.5c16 0 25.333 -7.33301 28 -22l36 17c-14 30.667 -35 46 -63 46c-21.333 0 -39.666 -8 -54.999 -24s-23 -35.667 -23 -59
c0 -4 3 -15.667 9 -35h-40v-46h173z" />
    <glyph glyph-name="yehhamzaabovearabic" unicode="&#x64a;&#x654;" horiz-adv-x="759" 
d="M727 176l0.000976562 107.001h-247c19.333 45.333 46.666 76.666 81.999 93.999c29.333 14 71.333 21 126 21v104c-108 0 -191.167 -28.333 -249.5 -85s-87.5 -137.667 -87.5 -243h264c-12 -155.333 -90.333 -233 -235 -233c-76.667 0 -135.334 23.333 -176.001 70
c-40 44 -60 103 -60 177v99h-112v-111c0 -98 33 -179.333 99 -244c66.667 -65.333 148.334 -98 245.001 -98h7c96 0 177.333 32.667 244 98c66.667 64.667 100 146 100 244zM282.001 357.001v67h-126c-9.33301 11.333 -14 26 -14 44c0 38.667 15 58 45 58
c20.667 0 34.667 -10.667 42 -32l47 32c-17.333 39.333 -48.333 59 -93 59c-30.667 0 -56 -10.667 -76 -32s-30 -48 -30 -80c0 -18.667 3.33301 -35 10 -49h-54v-67h249z" />
    <glyph glyph-name="shaddadammatanarabic" unicode="&#x64c;&#x651;" arabic-form="isolated" 
d="M173 925c0 14 -4.49707 26.833 -13.4971 38.5s-21.833 17.5 -38.5 17.5c-14 0 -25.167 -5 -33.5 -15s-12.5 -21.667 -12.5 -35c0 -20 9 -38 27 -54c-6.66699 -6 -17.334 -11.5 -32.001 -16.5s-27.334 -7.5 -38.001 -7.5c12 12.667 18 27.667 18 45
c0 29.333 -12.667 44 -38 44c-20.667 0 -34.334 -10.333 -41.001 -31c9.33301 7.33301 18.333 11 27 11c18.667 0 28 -9.66699 28 -29c0 -20.667 -7 -35.667 -21 -45c2.66699 -5.33301 7 -13 13 -23c48.667 0 86.667 11 114 33s41 44.333 41 67zM207.003 752l-17.001 77.998
l-32 -8l14 -67c0.666992 -2.66699 1 -5.66699 1 -9c0 -10 -4.33301 -15 -13 -15c-17.333 0 -28 10 -32 30l-11 53l-32 -8l11 -52c0.666992 -2.66699 1 -6.66699 1 -12c0 -9.33301 -2.66699 -16.666 -8 -21.999s-10.666 -8 -15.999 -8c-7.33301 0 -12.333 6 -15 18l-15 68
l-31 -6l16 -78c5.33301 -25.333 19.333 -38 42 -38c30.667 0 46.667 18 48 54c13.333 -22 28 -33 44 -33c14.667 0 26 3.33301 34 10s12 15.334 12 26.001c0 8 -0.333008 14.333 -1 19zM124.002 956.998c6.66699 0 12.667 -2.66699 18 -8s8 -11.333 8 -18
c0 -14.667 -10 -28 -30 -40c-14 8.66699 -21 22 -21 40c0 17.333 8.33301 26 25 26z" />
    <glyph glyph-name="shaddakasratanarabic" unicode="&#x64d;&#x651;" arabic-form="isolated" 
d="M204 880l-16.001 78l-32 -7l15 -68v-9c0 -10 -4.33301 -15 -13 -15c-17.333 0 -28 10.333 -32 31l-11 52l-33 -7l12 -53c0.666992 -2 1 -6 1 -12c0 -8.66699 -2.66699 -15.667 -8 -21s-10.666 -8 -15.999 -8c-6.66699 0 -11.667 5.66699 -15 17l-15 69l-31 -7l16 -77
c5.33301 -25.333 19.333 -38 42 -38c30.667 0 46.667 17.667 48 53c13.333 -22 28 -33 44 -33c14.667 0 26.167 3.5 34.5 10.5s12.5 15.5 12.5 25.5c0 6 -1 12.333 -3 19zM230.999 809l-154 -36c-20 -6.66699 -33 -19.334 -39 -38.001c92 19.333 140.333 29.333 145 30
c30 6.66699 46 21.334 48 44.001zM218.999 746l-154 -35.999c-20 -7.33301 -33 -20 -39 -38l74.5 16l52.5 11.5c10.667 2.33301 17 3.5 19 3.5c29.333 7.33301 45 21.666 47 42.999z" />
    <glyph glyph-name="shaddafathaarabic" unicode="&#x64e;&#x651;" arabic-form="isolated" 
d="M223 885l-154.001 -37.002c-19.333 -7.33301 -32.333 -19.666 -39 -36.999c92.667 19.333 141.334 29.333 146.001 30c28 6.66699 43.667 21.334 47 44.001zM234.999 740.998l-16 75.998l-32 -6l15 -68c0.666992 -2 1 -5 1 -9c0 -9.33301 -4.66699 -14 -14 -14
c-16.667 0 -27 10 -31 30l-11 53l-34 -8l11 -52c1.33301 -6.66699 2 -10.667 2 -12c0 -9.33301 -2.5 -16.666 -7.5 -21.999s-10.5 -8 -16.5 -8c-7.33301 0 -12 6 -14 18l-15 68l-32 -7l16 -77c5.33301 -25.333 19.666 -38 42.999 -38c14.667 0 26.167 4.83301 34.5 14.5
s12.833 22.834 13.5 39.501c12.667 -22.667 27.334 -34 44.001 -34c14.667 0 26 3.66699 34 11s12 16 12 26c0 4.66699 -1 11 -3 19z" />
    <glyph glyph-name="shaddadammaarabicX" unicode="&#x64f;&#x651;" arabic-form="isolated" 
d="M185 916c0 14 -4.66699 26.832 -14 38.499s-22 17.5 -38 17.5c-14.667 0 -26.167 -5 -34.5 -15s-12.5 -21.667 -12.5 -35c0 -20 9 -37.667 27 -53c-7.33301 -7.33301 -21.333 -14.166 -42 -20.499s-39 -9.5 -55 -9.5l14 -23c47.333 0 85 11 113 33s42 44.333 42 67z
M226 746.999l-16.001 75.998l-32 -7l15 -67c0.666992 -2.66699 1 -5.66699 1 -9c0 -10 -4.66699 -15 -14 -15c-17.333 0 -28 10 -32 30l-11 53l-32 -8l11 -51c0.666992 -3.33301 1 -7.33301 1 -12c0 -9.33301 -2.66699 -16.666 -8 -21.999s-10.666 -8 -15.999 -8
c-6.66699 0 -11.667 5.66699 -15 17l-14 68l-32 -6l16 -77c5.33301 -25.333 19.333 -38 42 -38c30.667 0 46.667 18 48 54c12.667 -22.667 27.667 -34 45 -34c14.667 0 26 3.33301 34 10s12 15.334 12 26.001c0 5.33301 -1 12 -3 20zM134.999 947.997
c7.33301 0 13.5 -2.66602 18.5 -7.99902s7.5 -11.333 7.5 -18c0 -14.667 -10 -28 -30 -40c-14 9.33301 -21 22.666 -21 39.999s8.33301 26 25 26z" />
    <glyph glyph-name="shaddakasraarabic" unicode="&#x650;&#x651;" arabic-form="isolated" 
d="M230 806l-16.001 76.999l-32 -7l14 -68c0.666992 -2 1 -4.66699 1 -8c0 -10 -4.33301 -15 -13 -15c-17.333 0 -28 10 -32 30l-11 53l-32 -7l11 -53c0.666992 -2.66699 1 -6.66699 1 -12c0 -9.33301 -2.66699 -16.5 -8 -21.5s-10.666 -7.5 -15.999 -7.5
c-6.66699 0 -11.667 5.66699 -15 17l-15 68l-31 -7l16 -77c4.66699 -24.667 18.667 -37 42 -37c30.667 0 46.667 17.667 48 53c13.333 -22 28 -33 44 -33c14.667 0 26 3.33301 34 10s12 15.334 12 26.001c0 2 -0.666992 8.33301 -2 19zM257.999 741.999l-154 -37.001
c-20 -7.33301 -33 -20 -39 -38l74.5 16l52.5 11.5c10.667 2.33301 17 3.5 19 3.5c28 6.66699 43.667 21.334 47 44.001z" />
    <glyph glyph-name="alefwithfathatanfinal" unicode="&#xfe8e;&#x64b;" horiz-adv-x="346" arabic-form="final" 
d="M248 817l-155 -35.999c-20 -6.66699 -33 -19.334 -39 -38.001l10 2l69 14.5l49.5 10.5c9.66699 2 15.5 3.33301 17.5 4c28.667 6.66699 44.667 21 48 43zM236 755.001l-155.001 -36c-20 -6.66699 -33 -19.334 -39 -38.001c92.667 19.333 141.334 29.333 146.001 30
c28.667 6.66699 44.667 21.334 48 44.001zM365.999 0.000976562v113.999h-66c-42 0 -70.667 5.66699 -86 17c-21.333 15.333 -32 47.333 -32 96v418h-111v-463c0 -55.333 13.333 -98.666 40 -129.999c28.667 -34.667 70 -52 124 -52h131z" />
    <glyph glyph-name="alefwithfathatanisolated" unicode="&#x627;&#x64b;" horiz-adv-x="214" arabic-form="isolated" 
d="M182 0v646h-111v-646h111zM238 817l-155.001 -35.998c-20 -6.66699 -33 -19.334 -39 -38.001c92.667 19.333 141.334 29.666 146.001 30.999c28.667 6.66699 44.667 21 48 43zM225.999 755.002l-155.001 -36c-20 -6.66699 -33 -19.334 -39 -38.001
c92.667 19.333 141.334 29.333 146.001 30c28.667 6.66699 44.667 21.334 48 44.001z" />
    <glyph glyph-name="allahisolated" unicode="&#xfedf;&#xfee0;&#xfeea;" horiz-adv-x="1223" arabic-form="isolated" 
d="M872 808h-33v-69c0 -14 -4.66699 -21 -14 -21c-18.667 0 -28 12.333 -28 37v53h-33v-53c0 -24.667 -9.33301 -37 -28 -37c-8 0 -12.667 7 -14 21v69h-33v-78c0 -31.333 15.333 -47 46 -47c23.333 0 39 14.333 47 43c8.66699 -28.667 24 -43 46 -43
c29.333 0 44 15.667 44 47v78zM1190 181v463.999h-111v-426c0 -42.667 -5.16699 -70.834 -15.5 -84.501s-30.166 -20.5 -59.499 -20.5h-180c16.667 18.667 25 57.334 25 116.001v405h-111v-411c0 -41.333 -6 -70 -18 -86s-32.333 -24 -61 -24h-61
c-74.667 0 -112 40 -112 120v317h-247c-64 0 -114.5 -21.667 -151.5 -65s-55.5 -102.666 -55.5 -177.999c0 -70 18.667 -126.667 56 -170s87.666 -65 150.999 -65c50 0 92.667 25 128 75c11.333 -44.667 33.5 -80.5 66.5 -107.5s71.167 -40.5 114.5 -40.5h474
c112 -0 168 60.333 168 181zM370 318.999c0 -44 -10.6689 -80.5 -32.002 -109.5s-49.666 -43.5 -84.999 -43.5c-32.667 0 -59.167 13.833 -79.5 41.5s-30.5 61.5 -30.5 101.5c0 46.667 11.333 84.167 34 112.5s53.334 42.5 92.001 42.5h101v-145z" />
    <glyph glyph-name="lamalefmaddaaboveisolatedarabi" unicode="&#xfedf;&#xfe82;" horiz-adv-x="580" arabic-form="isolated" 
d="M546 645h-108.999v-413c0 -45.333 -9.33301 -77.333 -28 -96c-14.667 -14.667 -37.334 -22 -68.001 -22l-125 460h-118l126 -460h-153v-114h299c54 -0 96.833 14.333 128.5 43s47.5 66.667 47.5 114v488zM265.001 662l-9 35c-14.667 -18.667 -30 -28 -46 -28
c-10.667 0 -28.334 8.33301 -53.001 25s-42.667 25 -54 25c-18 0 -35 -14 -51 -42l9 -34c12.667 18 26.667 27 42 27c16 0 35.333 -8.33301 58 -25s39.334 -25 50.001 -25c18 0 36 14 54 42z" />
    <glyph glyph-name="lamalefmaddaabovefinalarabic" unicode="&#xfee0;&#xfe82;" horiz-adv-x="678" arabic-form="final" 
d="M697 0l0.000976562 114h-155c2.66699 12.667 4 27 4 43v488h-109v-413c0 -45.333 -9.33301 -77.333 -28 -96c-14.667 -14.667 -37.334 -22 -68.001 -22l-125 460h-118l126 -460h-153v-114h626zM265.001 662l-9 35c-14.667 -18.667 -30 -28 -46 -28
c-10.667 0 -28.334 8.33301 -53.001 25s-42.667 25 -54 25c-18 0 -35 -14 -51 -42l9 -34c12.667 18 26.667 27 42 27c16 0 35.333 -8.33301 58 -25s39.334 -25 50.001 -25c18 0 36 14 54 42z" />
    <glyph glyph-name="lamalefhamzaaboveisolatedarabi" unicode="&#xfedf;&#xfe84;" horiz-adv-x="580" arabic-form="isolated" 
d="M546 645h-108.999v-413c0 -45.333 -9.33301 -77.333 -28 -96c-14.667 -14.667 -37.334 -22 -68.001 -22l-125 460h-118l126 -460h-153v-114h299c54 -0 96.833 14.333 128.5 43s47.5 66.667 47.5 114v488zM244.001 622v46h-81c-12 6.66699 -18 19 -18 37
c0 10 3.16699 18.833 9.5 26.5s14.5 11.5 24.5 11.5c16 0 25.333 -7.33301 28 -22l36 19c-14 29.333 -35 44 -63 44c-22 0 -40.5 -7.66699 -55.5 -23s-22.5 -34.666 -22.5 -57.999c0 -4.66699 3 -16.334 9 -35.001h-40v-46h173z" />
    <glyph glyph-name="lamalefhamzaabovefinalarabicX" unicode="&#xfee0;&#xfe84;" horiz-adv-x="678" arabic-form="final" 
d="M697 0l0.000976562 114h-155c2.66699 12.667 4 27 4 43v488h-109v-413c0 -45.333 -9.33301 -77.333 -28 -96c-14.667 -14.667 -37.334 -22 -68.001 -22l-125 460h-118l126 -460h-153v-114h626zM244.001 622v46h-81c-12 6.66699 -18 19 -18 37
c0 10 3.16699 18.833 9.5 26.5s14.5 11.5 24.5 11.5c16 0 25.333 -7.33301 28 -22l36 19c-14 29.333 -35 44 -63 44c-22 0 -40.5 -7.66699 -55.5 -23s-22.5 -34.666 -22.5 -57.999c0 -4.66699 3 -16.334 9 -35.001h-40v-46h173z" />
    <glyph glyph-name="lamalefhamzabelowisolatedarabi" unicode="&#xfedf;&#xfe88;" horiz-adv-x="580" arabic-form="isolated" 
d="M546 645h-108.999v-413c0 -45.333 -9.33301 -77.333 -28 -96c-14.667 -14.667 -37.334 -22 -68.001 -22l-125 460h-118l126 -460h-153v-114h299c54 -0 96.833 14.333 128.5 43s47.5 66.667 47.5 114v488zM250.001 -205l-0.000976562 45.999h-81
c-12 7.33301 -18 20 -18 38c0 10.667 3.16699 19.834 9.5 27.501s14.5 11.5 24.5 11.5c16 0 25.333 -7.33301 28 -22l36 17c-14 30.667 -35 46 -63 46c-21.333 0 -39.666 -8 -54.999 -24s-23 -35.667 -23 -59c0 -4 3 -15.667 9 -35h-40v-46h173z" />
    <glyph glyph-name="lamalefhamzabelowfinalarabicX" unicode="&#xfee0;&#xfe88;" horiz-adv-x="678" arabic-form="final" 
d="M697 0l0.000976562 114h-155c2.66699 12.667 4 27 4 43v488h-109v-413c0 -45.333 -9.33301 -77.333 -28 -96c-14.667 -14.667 -37.334 -22 -68.001 -22l-125 460h-118l126 -460h-153v-114h626zM250.001 -205l-0.000976562 45.999h-81c-12 7.33301 -18 20 -18 38
c0 10.667 3.16699 19.834 9.5 27.501s14.5 11.5 24.5 11.5c16 0 25.333 -7.33301 28 -22l36 17c-14 30.667 -35 46 -63 46c-21.333 0 -39.666 -8 -54.999 -24s-23 -35.667 -23 -59c0 -4 3 -15.667 9 -35h-40v-46h173z" />
    <glyph glyph-name="lamalefisolatedarabic" unicode="&#xfedf;&#xfe8e;" horiz-adv-x="580" arabic-form="isolated" 
d="M546 645h-108.999v-413c0 -45.333 -9.33301 -77.333 -28 -96c-14.667 -14.667 -37.334 -22 -68.001 -22l-125 460h-118l126 -460h-153v-114h299c54 -0 96.833 14.333 128.5 43s47.5 66.667 47.5 114v488z" />
    <glyph glyph-name="lamaleffinalarabic" unicode="&#xfee0;&#xfe8e;" horiz-adv-x="678" arabic-form="final" 
d="M698 0l0.000976562 114h-156c2.66699 12.667 4 27 4 43v488h-109v-413c0 -45.333 -9.33301 -77.333 -28 -96c-14.667 -14.667 -37.334 -22 -68.001 -22l-125 460h-118l126 -460h-153v-114h627z" />
    <glyph glyph-name="hamzaarabic" unicode="&#x621;" horiz-adv-x="519" arabic-form="isolated" 
d="M486 0l0.000976562 113.999h-214c-16.667 18.667 -25 44 -25 76c0 26.667 6 48.667 18 66c14 20.667 33.667 31 59 31c36 0 59.667 -18 71 -54l80 55c-14 32 -34.833 57 -62.5 75s-58.834 27 -93.501 27c-52.667 0 -96.667 -18.667 -132 -56
c-34 -37.333 -51 -82.666 -51 -135.999c0 -29.333 5.66699 -57.333 17 -84h-91v-114h424z" />
    <glyph glyph-name="alefarabic" unicode="&#x627;" horiz-adv-x="214" arabic-form="isolated" 
d="M182 0v646h-111v-646h111z" />
    <glyph glyph-name="beharabic" unicode="&#x628;" horiz-adv-x="901" arabic-form="isolated" 
d="M868 454h-109.999v-217c0 -51.333 -14 -86 -42 -104c-18.667 -12.667 -53.667 -19 -105 -19h-274c-60.667 0 -106.334 10.667 -137.001 32c-38 26 -57 71.667 -57 137v171h-111v-171c0 -188.667 106 -283 318 -283h363c49.333 0 87.5 14.167 114.5 42.5
s40.5 67.5 40.5 117.5v294zM542.001 -219v112h-110v-112h110z" />
    <glyph glyph-name="tehmarbutaarabic" unicode="&#x629;" horiz-adv-x="531" arabic-form="isolated" 
d="M506 242c0 72 -22.167 131.167 -66.5 177.5s-100.833 69.5 -169.5 69.5s-125.5 -22.667 -170.5 -68s-67.5 -103.666 -67.5 -174.999c0 -70.667 22.333 -129.334 67 -176.001s101.667 -70 171 -70c70 0 126.833 23 170.5 69s65.5 103.667 65.5 173zM391 242
c0 -41.333 -10.833 -75.166 -32.5 -101.499s-50.167 -39.5 -85.5 -39.5c-36 0 -65.833 14 -89.5 42s-35.5 62.667 -35.5 104s10.667 75.333 32 102s50 40 86 40c37.333 0 67.5 -13.833 90.5 -41.5s34.5 -62.834 34.5 -105.501zM228 581v111h-110v-111h110zM418 581v111h-110
v-111h110z" />
    <glyph glyph-name="teharabic" unicode="&#x62a;" horiz-adv-x="901" arabic-form="isolated" 
d="M868 454h-109.999v-217c0 -51.333 -14 -86 -42 -104c-18.667 -12.667 -53.667 -19 -105 -19h-274c-60.667 0 -106.334 10.667 -137.001 32c-38 26 -57 71.667 -57 137v171h-111v-171c0 -188.667 106 -283 318 -283h363c49.333 0 87.5 14.167 114.5 42.5
s40.5 67.5 40.5 117.5v294zM598.001 455v111h-109v-111h109zM408.001 455v111h-109v-111h109z" />
    <glyph glyph-name="theharabic" unicode="&#x62b;" horiz-adv-x="901" arabic-form="isolated" 
d="M868 454h-109.999v-217c0 -51.333 -14 -86 -42 -104c-18.667 -12.667 -53.667 -19 -105 -19h-274c-60.667 0 -106.334 10.667 -137.001 32c-38 26 -57 71.667 -57 137v171h-111v-171c0 -188.667 106 -283 318 -283h363c49.333 0 87.5 14.167 114.5 42.5
s40.5 67.5 40.5 117.5v294zM505.001 612v112h-109v-112h109zM598.001 455v111h-109v-111h109zM408.001 455v111h-109v-111h109z" />
    <glyph glyph-name="jeemarabic" unicode="&#x62c;" horiz-adv-x="543" arabic-form="isolated" 
d="M376 27v111h-110v-111h110zM511 305c0 66 -20.333 125.667 -61 179c-50 66 -125.667 99 -227 99c-30.667 0 -59.334 -5.66699 -86.001 -17v-96c18.667 10.667 44.667 16 78 16c50 0 89.333 -12.5 118 -37.5s47.667 -64.833 57 -119.5h-123
c-70 0 -125.333 -19.333 -166 -58c-46 -43.333 -69 -106.333 -69 -189s27.667 -146 83 -190c48.667 -38 114.667 -57 198 -57h80v117h-121c-35.333 0 -65.666 11.667 -90.999 35c-24.667 22.667 -37 52.667 -37 90c0 42 11.833 75.333 35.5 100s54.5 37 92.5 37h239v91z" />
    <glyph glyph-name="haharabic" unicode="&#x62d;" horiz-adv-x="543" arabic-form="isolated" 
d="M511 305c0 66 -20.333 125.667 -61 179c-50 66 -125.667 99 -227 99c-30.667 0 -59.334 -5.66699 -86.001 -17v-96c18.667 10.667 44.667 16 78 16c50 0 89.333 -12.5 118 -37.5s47.667 -64.833 57 -119.5h-123c-70 0 -125.333 -19.333 -166 -58
c-46 -43.333 -69 -106.333 -69 -189s27.667 -146 83 -190c48.667 -38 114.667 -57 198 -57h80v117h-121c-35.333 0 -65.666 11.667 -90.999 35c-24.667 22.667 -37 52.667 -37 90c0 42 11.833 75.333 35.5 100s54.5 37 92.5 37h239v91z" />
    <glyph glyph-name="khaharabic" unicode="&#x62e;" horiz-adv-x="543" arabic-form="isolated" 
d="M349 645v112h-110v-112h110zM511 305c0 66 -20.333 125.667 -61 179c-50 66 -125.667 99 -227 99c-30.667 0 -59.334 -5.66699 -86.001 -17v-96c18.667 10.667 44.667 16 78 16c50 0 89.333 -12.5 118 -37.5s47.667 -64.833 57 -119.5h-123
c-70 0 -125.333 -19.333 -166 -58c-46 -43.333 -69 -106.333 -69 -189s27.667 -146 83 -190c48.667 -38 114.667 -57 198 -57h80v117h-121c-35.333 0 -65.666 11.667 -90.999 35c-24.667 22.667 -37 52.667 -37 90c0 42 11.833 75.333 35.5 100s54.5 37 92.5 37h239v91z" />
    <glyph glyph-name="dalarabic" unicode="&#x62f;" horiz-adv-x="569" arabic-form="isolated" 
d="M537 0l-0.000976562 114c-1.33301 171.333 -68.666 279.333 -201.999 324c-23.333 8 -43.333 12.667 -60 14c-18.667 1.33301 -53.334 2 -104.001 2v-102c40.667 0 74.334 -3 101.001 -9c101.333 -22 152 -98.333 152 -229h-362v-114h475z" />
    <glyph glyph-name="thalarabic" unicode="&#x630;" horiz-adv-x="569" arabic-form="isolated" 
d="M332 548v111h-109v-111h109zM537 0l-0.000976562 114c-1.33301 171.333 -68.666 279.333 -201.999 324c-23.333 8 -43.333 12.667 -60 14c-18.667 1.33301 -53.334 2 -104.001 2v-102c40.667 0 74.334 -3 101.001 -9c101.333 -22 152 -98.333 152 -229h-362v-114h475z
" />
    <glyph glyph-name="reharabic" unicode="&#x631;" horiz-adv-x="325" arabic-form="isolated" 
d="M293 454l-112 0.000976562v-382c0 -94.667 -46.333 -142 -139 -142v-96c86.667 0 150.167 20.167 190.5 60.5s60.5 105.166 60.5 194.499v365z" />
    <glyph glyph-name="zainarabic" unicode="&#x632;" horiz-adv-x="325" arabic-form="isolated" 
d="M292 546v111h-110v-111h110zM293 454l-112 0.000976562v-382c0 -94.667 -46.333 -142 -139 -142v-96c86.667 0 150.167 20.167 190.5 60.5s60.5 105.166 60.5 194.499v365z" />
    <glyph glyph-name="seenarabic" unicode="&#x633;" horiz-adv-x="1273" arabic-form="isolated" 
d="M1231 238v215.999h-113v-230c0 -73.333 -28.333 -110 -85 -110h-109c15.333 16.667 23 57.334 23 122.001v218h-113v-229c0 -74 -28.333 -111 -85 -111h-90c3.33301 22 5 42.667 5 62v278h-113v-265c0 -65.333 -16.333 -121.333 -49 -168
c-39.333 -53.333 -90.333 -80 -153 -80c-63.333 0 -114.666 26.667 -153.999 80c-33.333 47.333 -50 103.333 -50 168v265h-113v-278c0 -96 31.667 -177.333 95 -244c61.333 -65.333 135.333 -98 222 -98c87.333 0 161.666 34 222.999 102c18 18.667 33.667 40 47 64h418
c50.667 0 93.667 17.667 129 53c43.333 43.333 65 105 65 185z" />
    <glyph glyph-name="sheenarabic" unicode="&#x634;" horiz-adv-x="1273" arabic-form="isolated" 
d="M1231 238v215.999h-113v-230c0 -73.333 -28.333 -110 -85 -110h-109c15.333 16.667 23 57.334 23 122.001v218h-113v-229c0 -74 -28.333 -111 -85 -111h-90c3.33301 22 5 42.667 5 62v278h-113v-265c0 -65.333 -16.333 -121.333 -49 -168
c-39.333 -53.333 -90.333 -80 -153 -80c-63.333 0 -114.666 26.667 -153.999 80c-33.333 47.333 -50 103.333 -50 168v265h-113v-278c0 -96 31.667 -177.333 95 -244c61.333 -65.333 135.333 -98 222 -98c87.333 0 161.666 34 222.999 102c18 18.667 33.667 40 47 64h418
c50.667 0 93.667 17.667 129 53c43.333 43.333 65 105 65 185zM945 702.999v112h-110v-112h110zM1038 545.999v111h-109v-111h109zM849 545.999v111h-109v-111h109z" />
    <glyph glyph-name="sadarabic" unicode="&#x635;" horiz-adv-x="1269" arabic-form="isolated" 
d="M1224 0c3.33301 41.333 4.99902 76.001 4.99902 104.001c0 234.667 -86 352 -258 352c-54 0 -107.5 -16.333 -160.5 -49s-101.833 -79.334 -146.5 -140.001v187h-113v-265c0 -70.667 -19 -129.667 -57 -177s-86.333 -71 -145 -71c-59.333 0 -108.166 23.667 -146.499 71
s-57.5 106.333 -57.5 177v265h-113v-278c0 -94 31 -174.5 93 -241.5s136.667 -100.5 224 -100.5c56 0 107.5 14.167 154.5 42.5s85.5 69.5 115.5 123.5h605zM1113 114.001l-445.998 0.000976562c31.333 70 74.166 127.833 128.499 173.5s109.166 68.5 164.499 68.5
c47.333 0 85 -18.833 113 -56.5s42 -88.834 42 -153.501z" />
    <glyph glyph-name="dadarabic" unicode="&#x636;" horiz-adv-x="1269" arabic-form="isolated" 
d="M1224 0c3.33301 41.333 4.99902 76.001 4.99902 104.001c0 234.667 -86 352 -258 352c-54 0 -107.5 -16.333 -160.5 -49s-101.833 -79.334 -146.5 -140.001v187h-113v-265c0 -70.667 -19 -129.667 -57 -177s-86.333 -71 -145 -71c-59.333 0 -108.166 23.667 -146.499 71
s-57.5 106.333 -57.5 177v265h-113v-278c0 -94 31 -174.5 93 -241.5s136.667 -100.5 224 -100.5c56 0 107.5 14.167 154.5 42.5s85.5 69.5 115.5 123.5h605zM1113 114.001l-445.998 0.000976562c31.333 70 74.166 127.833 128.499 173.5s109.166 68.5 164.499 68.5
c47.333 0 85 -18.833 113 -56.5s42 -88.834 42 -153.501zM1012 546.002v111h-110v-111h110z" />
    <glyph glyph-name="taharabic" unicode="&#x637;" horiz-adv-x="811" arabic-form="isolated" 
d="M32 114v-114h742c3.33301 41.333 5 76 5 104c0 234.667 -86.333 352 -259 352c-106.667 0 -204.667 -57.667 -294 -173l13 362h-111v-531h-96zM217 114c31.333 70 74.168 127.833 128.501 173.5s109.166 68.5 164.499 68.5c48 0 85.833 -19 113.5 -57s41.5 -89 41.5 -153
l-2 -32h-446z" />
    <glyph glyph-name="zaharabic" unicode="&#x638;" horiz-adv-x="811" arabic-form="isolated" 
d="M774 0c3.33301 41.333 5 76 5 104c0 234.667 -86.333 352 -259 352c-106.667 0 -204.667 -57.667 -294 -173l13 362h-111v-531h-96v-114h742zM663 114h-445.998c31.333 70 74.166 127.833 128.499 173.5s109.166 68.5 164.499 68.5c48 0 85.833 -19 113.5 -57
s41.5 -89 41.5 -153zM552.002 546v111h-109v-111h109z" />
    <glyph glyph-name="ainarabic" unicode="&#x639;" horiz-adv-x="591" arabic-form="isolated" 
d="M559 201l0.000976562 111h-204c-18.667 6.66699 -34.834 22.167 -48.501 46.5s-20.5 49.833 -20.5 76.5c0 34.667 9.16699 63 27.5 85s42.833 33 73.5 33c38 0 65.333 -18 82 -54l84 40c-34 70.667 -88.667 106 -164 106c-59.333 0 -108.5 -19.833 -147.5 -59.5
s-58.5 -90.5 -58.5 -152.5c0 -40 12.333 -81.667 37 -125c-57.333 -9.33301 -103 -35.333 -137 -78s-51 -95 -51 -157c0 -72 25.167 -129.833 75.5 -173.5s115.5 -65.5 195.5 -65.5h171v111h-179c-48 0 -86 11.167 -114 33.5s-42 52.833 -42 91.5c0 87.333 52 131 156 131
h264z" />
    <glyph glyph-name="ghainarabic" unicode="&#x63a;" horiz-adv-x="591" arabic-form="isolated" 
d="M559 201l0.000976562 111h-204c-18.667 6.66699 -34.834 22.167 -48.501 46.5s-20.5 49.833 -20.5 76.5c0 34.667 9.16699 63 27.5 85s42.833 33 73.5 33c38 0 65.333 -18 82 -54l84 40c-34 70.667 -88.667 106 -164 106c-59.333 0 -108.5 -19.833 -147.5 -59.5
s-58.5 -90.5 -58.5 -152.5c0 -40 12.333 -81.667 37 -125c-57.333 -9.33301 -103 -35.333 -137 -78s-51 -95 -51 -157c0 -72 25.167 -129.833 75.5 -173.5s115.5 -65.5 195.5 -65.5h171v111h-179c-48 0 -86 11.167 -114 33.5s-42 52.833 -42 91.5c0 87.333 52 131 156 131
h264zM443.001 722v111h-109v-111h109z" />
    <glyph glyph-name="feharabic" unicode="&#x641;" horiz-adv-x="951" arabic-form="isolated" 
d="M750 546v111h-110v-111h110zM918 230c0 66.667 -21 122.332 -63 166.999s-95.667 67 -161 67c-66 0 -120.167 -21.667 -162.5 -65s-63.5 -98.666 -63.5 -165.999c0 -38 9.33301 -78 28 -120v1h-159c-68 0 -117.333 13.167 -148 39.5s-46 69.5 -46 129.5v151h-111v-151
c0 -188.667 102.333 -283 307 -283h355c66.667 0 120.667 21.667 162 65s62 98.333 62 165zM803 229.998c0 -37.333 -9.5 -67.833 -28.5 -91.5s-45.167 -35.5 -78.5 -35.5c-32.667 0 -59.5 12.5 -80.5 37.5s-31.5 56.167 -31.5 93.5c0 38.667 9.66699 69.667 29 93
s45.333 35 78 35s59.5 -12.5 80.5 -37.5s31.5 -56.5 31.5 -94.5z" />
    <glyph glyph-name="qafarabic" unicode="&#x642;" horiz-adv-x="731" arabic-form="isolated" 
d="M699 162c0 72 -0.333008 109.667 -1 113c0 66 -19 117.667 -57 155s-89 56 -153 56c-63.333 0 -113.333 -19.167 -150 -57.5s-55 -90.5 -55 -156.5s18.833 -118.167 56.5 -156.5s88.167 -57.5 151.5 -57.5c36.667 0 68.667 9.33301 96 28
c-14.667 -44.667 -42.667 -81 -84 -109s-87.333 -42 -138 -42c-68.667 0 -123.667 21.667 -165 65s-62 101.333 -62 174v174h-106v-186c0 -92.667 32 -170.5 96 -233.5s144 -94.5 240 -94.5c92.667 0 171 31.667 235 95s96 141 96 233zM594 268
c0 -36.667 -9.33301 -66.667 -28 -90s-43.667 -35 -75 -35s-56.5 12.167 -75.5 36.5s-28.5 55.833 -28.5 94.5c0 36.667 9.83301 67.667 29.5 93s44.167 38 73.5 38c30 0 54.833 -12.667 74.5 -38s29.5 -58.333 29.5 -99zM449 546v111h-110v-111h110zM639 546v111h-110v-111
h110z" />
    <glyph glyph-name="kafarabic" unicode="&#x643;" horiz-adv-x="901" arabic-form="isolated" 
d="M868 645h-109.999v-408c0 -51.333 -14 -86 -42 -104c-18.667 -12.667 -53.667 -19 -105 -19h-274c-60.667 0 -106.334 10.667 -137.001 32c-38 26 -57 71.667 -57 137v171h-111v-171c0 -188.667 106 -283 318 -283h363c49.333 0 87.5 14.167 114.5 42.5
s40.5 67.5 40.5 117.5v485zM579.001 389v67h-126c-9.33301 11.333 -14 26.333 -14 45c0 38 15 57 45 57c20.667 0 34.667 -10.667 42 -32l47 32c-16.667 40 -47.334 60 -92.001 60c-31.333 0 -57.166 -10.833 -77.499 -32.5s-30.5 -48.5 -30.5 -80.5
c0 -16.667 3.66699 -33 11 -49h-54v-67h249z" />
    <glyph glyph-name="lamarabic" unicode="&#x644;" horiz-adv-x="696" arabic-form="isolated" 
d="M664 176l-0.000976562 468.999h-113v-456c0 -70 -19 -128.833 -57 -176.5s-86.333 -71.5 -145 -71.5c-60 0 -109 23.833 -147 71.5s-57 106.5 -57 176.5v85h-113v-98c0 -94 31 -174.5 93 -241.5s136.667 -100.5 224 -100.5c86.667 0 160.834 33.833 222.501 101.5
s92.5 147.834 92.5 240.501z" />
    <glyph glyph-name="meemarabic" unicode="&#x645;" horiz-adv-x="805" arabic-form="isolated" 
d="M771 220c0 66.667 -20.833 122.499 -62.5 167.499s-95.5 67.5 -161.5 67.5h-282c-73.333 0 -130.5 -24 -171.5 -72s-61.5 -112.667 -61.5 -194v-355h112v332c0 54 11 96.667 33 128s52 47 90 47h82c-18.667 -33.333 -28 -72.666 -28 -117.999
c0 -66 21.167 -121.333 63.5 -166s96.5 -67 162.5 -67c65.333 0 119 21.833 161 65.5s63 98.5 63 164.5zM656 219.999c0 -37.333 -9.83398 -67.833 -29.501 -91.5s-45.167 -35.5 -76.5 -35.5c-33.333 0 -60.666 12.667 -81.999 38s-32 56.333 -32 93
c0 37.333 9.5 68 28.5 92s45.167 36 78.5 36c34 0 61.333 -12.5 82 -37.5s31 -56.5 31 -94.5z" />
    <glyph glyph-name="noonarabic" unicode="&#x646;" horiz-adv-x="696" arabic-form="isolated" 
d="M664 176v278h-113v-265c0 -65.333 -16.333 -121.333 -49 -168c-39.333 -53.333 -90.333 -80 -153 -80c-63.333 0 -114.666 26.667 -153.999 80c-33.333 47.333 -50 103.333 -50 168v265h-113v-278c0 -96 31.667 -177.333 95 -244c61.333 -65.333 135.333 -98 222 -98
c87.333 0 161.666 34 222.999 102c61.333 67.333 92 147.333 92 240zM406 546v111h-110v-111h110z" />
    <glyph glyph-name="heharabic" unicode="&#x647;" horiz-adv-x="531" arabic-form="isolated" 
d="M506 242c0 72 -22.167 131.167 -66.5 177.5s-100.833 69.5 -169.5 69.5s-125.5 -22.667 -170.5 -68s-67.5 -103.666 -67.5 -174.999c0 -70.667 22.333 -129.334 67 -176.001s101.667 -70 171 -70c70 0 126.833 23 170.5 69s65.5 103.667 65.5 173zM391 242
c0 -41.333 -10.833 -75.166 -32.5 -101.499s-50.167 -39.5 -85.5 -39.5c-36 0 -65.833 14 -89.5 42s-35.5 62.667 -35.5 104s10.667 75.333 32 102s50 40 86 40c37.333 0 67.5 -13.833 90.5 -41.5s34.5 -62.834 34.5 -105.501z" />
    <glyph glyph-name="wawarabic" unicode="&#x648;" horiz-adv-x="525" arabic-form="isolated" 
d="M493 14v211.001c0 67.333 -19.667 122.5 -59 165.5s-91.666 64.5 -156.999 64.5c-63.333 0 -115 -21 -155 -63s-60 -96.667 -60 -164c0 -66.667 19.833 -121.334 59.5 -164.001s91.5 -64 155.5 -64c51.333 0 86.666 17 105.999 51c-2 -82.667 -37.667 -125 -107 -127v-89
c144.667 0 217 59.667 217 179zM378 223.001c0 -34 -9.5 -62.833 -28.5 -86.5s-43.167 -35.5 -72.5 -35.5c-30 0 -54.667 12.333 -74 37s-29 54.667 -29 90c0 34.667 9.16699 64.167 27.5 88.5s41.833 36.5 70.5 36.5c32 0 57.667 -11.833 77 -35.5s29 -55.167 29 -94.5z
" />
    <glyph glyph-name="alefmaksuraarabic" unicode="&#x649;" horiz-adv-x="759" arabic-form="isolated" 
d="M727 283l-247 0.000976562c18 42.667 42.167 72.5 72.5 89.5s75.5 25.5 135.5 25.5v104c-108 0 -191.167 -28.333 -249.5 -85s-87.5 -137.667 -87.5 -243h264c-12 -155.333 -90.667 -233 -236 -233c-72.667 0 -130 22.333 -172 67s-63 104.667 -63 180v99h-112v-111
c0 -96.667 33.167 -177.834 99.5 -243.501s147.833 -98.5 244.5 -98.5h7c96 0 177.333 33 244 99s100 147 100 243v107z" />
    <glyph glyph-name="yeharabic" unicode="&#x64a;" horiz-adv-x="759" arabic-form="isolated" 
d="M727 176v107.001h-247c19.333 45.333 46.666 76.666 81.999 93.999c29.333 14 71.333 21 126 21v104c-108 0 -191.167 -28.333 -249.5 -85s-87.5 -137.667 -87.5 -243h264c-12 -155.333 -90.667 -233 -236 -233c-76 0 -134.333 23.333 -175 70c-40 44 -60 103 -60 177v99
h-112v-111c0 -98 33 -179.333 99 -244c66.667 -65.333 148.334 -98 245.001 -98h7c96 0 177.333 32.667 244 98c66.667 64.667 100 146 100 244zM526 -386.999v111h-110v-111h110zM337 -386.999v111h-110v-111h110z" />
    <glyph glyph-name="fathatanarabic" unicode="&#xfe70;" arabic-form="isolated" 
d="M218 804l-155 -35.999c-20 -6.66699 -33 -19.334 -39 -38.001l10 2l69 14.5l49.5 10.5c9.66699 2 15.5 3.33301 17.5 4c28.667 6.66699 44.667 21 48 43zM206 742.001l-155.001 -36c-20 -6.66699 -33 -19.334 -39 -38.001c92.667 19.333 141.334 29.333 146.001 30
c28.667 6.66699 44.667 21.334 48 44.001z" />
    <glyph glyph-name="dammatanarabic" unicode="&#xfe72;" arabic-form="isolated" 
d="M214 767c0 14.667 -4.66406 27.832 -13.9971 39.499s-22.333 17.5 -39 17.5c-14 0 -25.167 -5.16699 -33.5 -15.5s-12.5 -21.833 -12.5 -34.5c0 -21.333 9.33301 -39.333 28 -54c-6.66699 -6 -17.334 -11.667 -32.001 -17s-27.334 -8 -38.001 -8
c11.333 13.333 17 28.666 17 45.999c0 29.333 -12.333 44 -37 44c-20.667 0 -34.334 -10.333 -41.001 -31c9.33301 7.33301 18.666 11 27.999 11c17.333 0 26 -9.66699 26 -29c0 -21.333 -7 -36.666 -21 -45.999c2 -2.66699 6.33301 -10 13 -22
c48.667 0 86.834 10.833 114.501 32.5s41.5 43.834 41.5 66.501zM164.003 799.998c6.66699 0 12.833 -2.66895 18.5 -8.00195s8.5 -11.666 8.5 -18.999c0 -14 -10.333 -27.333 -31 -40c-14 8.66699 -21 22.334 -21 41.001c0 17.333 8.33301 26 25 26z" />
    <glyph glyph-name="kasratanarabic" unicode="&#xfe74;" arabic-form="isolated" 
d="M214 -275l-155 -35.999c-18.667 -6.66699 -31.667 -19.334 -39 -38.001l10 2l69 14.5l49.5 10.5c9.66699 2 15.5 3.33301 17.5 4c28.667 6.66699 44.667 21 48 43zM202 -336.999l-155.001 -36c-18.667 -6.66699 -31.667 -19.334 -39 -38.001
c92.667 19.333 141.334 29.333 146.001 30c28.667 6.66699 44.667 21.334 48 44.001z" />
    <glyph glyph-name="fathaarabic" unicode="&#xfe76;" arabic-form="isolated" 
d="M214 739l-155.001 -36.001c-19.333 -7.33301 -32.333 -19.666 -39 -36.999c92.667 19.333 141.334 29.333 146.001 30c28.667 6.66699 44.667 21 48 43z" />
    <glyph glyph-name="dammaarabic" unicode="&#xfe78;" arabic-form="isolated" 
d="M192 768c0 14 -4.66504 26.832 -13.998 38.499s-22.333 17.5 -39 17.5c-14 0 -24.333 -4 -31 -12c-10.667 -10.667 -16 -23 -16 -37c0 -21.333 9.33301 -39.333 28 -54c-6.66699 -6 -20.334 -12.333 -41.001 -19c-19.333 -6.66699 -38.333 -10 -57 -10
c8 -13.333 12.667 -21.333 14 -24c17.333 0 38.666 3.66699 63.999 11c30 8.66699 52.833 21.334 68.5 38.001s23.5 33.667 23.5 51zM142.002 799.999c6.66699 0 12.833 -2.5 18.5 -7.5s8.5 -10.833 8.5 -17.5c0 -16 -10.333 -29.333 -31 -40c-14 8.66699 -21 22 -21 40
c0 16.667 8.33301 25 25 25z" />
    <glyph glyph-name="kasraarabic" unicode="&#xfe7a;" arabic-form="isolated" 
d="M203 -273l-154 -36c-20 -7.33301 -33 -20 -39 -38l74.5 16l52.5 11.5c10.667 2.33301 17 3.5 19 3.5c28 6.66699 43.667 21 47 43z" />
    <glyph glyph-name="shaddaarabic" unicode="&#xfe7c;" arabic-form="isolated" 
d="M219 741l-14.999 77l-33 -6l14 -69c0.666992 -2 1 -4.66699 1 -8c0 -10 -4.33301 -15 -13 -15c-16.667 0 -27 10.333 -31 31l-11 52l-33 -7l11 -53c1.33301 -5.33301 2 -9.33301 2 -12c0 -6.66699 -2.5 -13.167 -7.5 -19.5s-10.5 -9.5 -16.5 -9.5
c-6.66699 0 -11.667 5.66699 -15 17l-15 69l-32 -8l16 -76c5.33301 -25.333 19.666 -38 42.999 -38c30 0 46 17.667 48 53c13.333 -22 28 -33 44 -33c14.667 0 26 3.5 34 10.5s12 15.5 12 25.5c0 4.66699 -1 11 -3 19z" />
    <glyph glyph-name="sukunarabic" unicode="&#xfe7e;" arabic-form="isolated" 
d="M157 752c-8 37.333 -29.668 56.001 -65.001 56.001c-22.667 0 -40 -6 -52 -18s-18 -27.667 -18 -47c0 -24.667 6.33301 -43.667 19 -57s28.334 -20 47.001 -20c22.667 0 40.167 6.16699 52.5 18.5s18.5 28.5 18.5 48.5c0 3.33301 -0.666992 9.66602 -2 18.999z
M88.999 783.001c11.333 0 20.5 -5.50098 27.5 -16.501s10.5 -23.167 10.5 -36.5c0 -25.333 -11.333 -38 -34 -38c-12.667 0 -22.5 5.33301 -29.5 16s-10.5 23.334 -10.5 38.001c0 24.667 12 37 36 37z" />
    <glyph glyph-name="alefwaslaisolated" unicode="&#x671;" horiz-adv-x="214" arabic-form="isolated" 
d="M182 0v646h-111v-646h111zM234 701c0 80.667 -24 124 -72 130h-7c-12.667 0 -26.667 -4.66699 -42 -14c-24 -15.333 -44.667 -42.333 -62 -81v59l-24 1v-64h-28v-31h235zM199 730l-129.001 1c28.667 44.667 57.334 67 86.001 67c28.667 -0.666992 43 -22 43 -64v-4z" />
    <glyph glyph-name="peharabic" unicode="&#x67e;" horiz-adv-x="901" arabic-form="isolated" 
d="M868 454h-109.999v-217c0 -51.333 -14 -86 -42 -104c-18.667 -12.667 -53.667 -19 -105 -19h-274c-60.667 0 -106.334 10.667 -137.001 32c-38 26 -57 71.667 -57 137v171h-111v-171c0 -188.667 106 -283 318 -283h363c49.333 0 87.5 14.167 114.5 42.5
s40.5 67.5 40.5 117.5v294zM620.001 -178v112h-110v-112h110zM431.001 -178v112h-110v-112h110zM527.001 -336v112h-109v-112h109z" />
    <glyph glyph-name="tcheharabic" unicode="&#x686;" horiz-adv-x="543" arabic-form="isolated" 
d="M407 91v80h-79v-80h79zM272 91v80h-78v-80h78zM340 -21v79h-78v-79h78zM511 305c0 66 -20.333 125.667 -61 179c-50 66 -125.667 99 -227 99c-30.667 0 -59.334 -5.66699 -86.001 -17v-96c18.667 10.667 44.667 16 78 16c50 0 89.333 -12.5 118 -37.5
s47.667 -64.833 57 -119.5h-123c-70 0 -125.333 -19.333 -166 -58c-46 -43.333 -69 -106.333 -69 -189s27.667 -146 83 -190c48.667 -38 114.667 -57 198 -57h80v117h-121c-35.333 0 -65.666 11.667 -90.999 35c-24.667 22.667 -37 52.667 -37 90
c0 42 11.833 75.333 35.5 100s54.5 37 92.5 37h239v91z" />
    <glyph glyph-name="jeharabic" unicode="&#x698;" horiz-adv-x="325" arabic-form="isolated" 
d="M293 454l-112 0.000976562v-382c0 -94.667 -46.333 -142 -139 -142v-96c86.667 0 150.167 20.167 190.5 60.5s60.5 105.166 60.5 194.499v365zM103 546.001v112h-110v-112h110zM292 546.001v112h-110v-112h110zM199 705.001v111h-110v-111h110z" />
    <glyph glyph-name="veharabic" unicode="&#x6a4;" horiz-adv-x="951" arabic-form="isolated" 
d="M751 703v112h-109v-112h109zM845 546v111h-110v-111h110zM656 546v111h-110v-111h110zM918 230c0 66.667 -21 122.332 -63 166.999s-95.667 67 -161 67c-66 0 -120.167 -21.667 -162.5 -65s-63.5 -98.666 -63.5 -165.999c0 -38 9.33301 -78 28 -120v1h-159
c-68 0 -117.333 13.167 -148 39.5s-46 69.5 -46 129.5v151h-111v-151c0 -188.667 102.333 -283 307 -283h355c66.667 0 120.667 21.667 162 65s62 98.333 62 165zM803 229.998c0 -37.333 -9.5 -67.833 -28.5 -91.5s-45.167 -35.5 -78.5 -35.5
c-32.667 0 -59.5 12.5 -80.5 37.5s-31.5 56.167 -31.5 93.5c0 38.667 9.66699 69.667 29 93s45.333 35 78 35s59.5 -12.5 80.5 -37.5s31.5 -56.5 31.5 -94.5z" />
    <glyph glyph-name="alefwaslafinal" unicode="&#x671;" horiz-adv-x="346" arabic-form="final" 
d="M366 0v113.999h-66c-42 0 -70.667 5.66699 -86 17c-21.333 15.333 -32 47.333 -32 96v418h-111v-463c0 -55.333 13.333 -98.666 40 -129.999c28.667 -34.667 70 -52 124 -52h131zM234 700.999c0 80.667 -24 124 -72 130h-7c-12.667 0 -26.667 -4.66699 -42 -14
c-24 -15.333 -44.667 -42.333 -62 -81v59l-24 1v-64h-28v-31h235zM199 729.999l-129.001 1c28.667 44.667 57.334 67 86.001 67c28.667 -0.666992 43 -22 43 -64v-4z" />
    <glyph glyph-name="pehfinalarabic" unicode="&#x67e;" horiz-adv-x="1020" arabic-form="final" 
d="M1032 0l0.000976562 113.999h-189c16.667 18.667 25 57.334 25 116.001v224h-112v-230c0 -36 -4 -61.333 -12 -76c-10.667 -22.667 -33 -34 -67 -34h-340c-60.667 0 -106.334 10.667 -137.001 32c-38 26 -57 71.667 -57 137v171h-111v-171c0 -188.667 106 -283 318 -283
h682zM636.001 -178.001v112h-110v-112h110zM446.001 -178.001v112h-109v-112h109zM543.001 -336.001v112h-110v-112h110z" />
    <glyph glyph-name="pehinitialarabic" unicode="&#x67e;" horiz-adv-x="301" arabic-form="initial" 
d="M268 181l0.000976562 273h-112v-235c0 -36 -2.66699 -60 -8 -72c-10.667 -22 -34.334 -33 -71.001 -33h-85v-114h108c112 -0 168 60.333 168 181zM264.001 -178v112h-110v-112h110zM74.001 -178v112h-110v-112h110zM171.001 -336v112h-110v-112h110z" />
    <glyph glyph-name="pehmedialarabic" unicode="&#x67e;" horiz-adv-x="431" arabic-form="medial" 
d="M278 -178v112h-109v-112h109zM89 -178v112h-110v-112h110zM185 -336v112h-109v-112h109zM446 0v113.999h-192c16 18.667 24 57.334 24 116.001v224h-111v-230c0 -36 -4 -61.333 -12 -76c-12 -22.667 -34.333 -34 -67 -34h-104v-114h462z" />
    <glyph glyph-name="vehfinalarabic" unicode="&#x6a4;" horiz-adv-x="1072" arabic-form="final" 
d="M810 781v111h-109v-111h109zM904 622v112h-110v-112h110zM714 622v112h-110v-112h110zM1093 0l0.00195312 114.001h-106c-50.667 0 -81.667 3.66699 -93 11c30.667 24 55 55.333 73 94c16 34 24 69.333 24 106c0 25.333 -4.33301 47 -13 65c-21.333 48 -50 85 -86 111
c-38.667 28.667 -83.334 43 -134.001 43c-50 0 -94.5 -13.667 -133.5 -41s-67.833 -65 -86.5 -113c-8 -20 -12 -43 -12 -69c0 -36.667 8 -71.334 24 -104.001c17.333 -37.333 41.333 -68 72 -92c-11.333 -7.33301 -42.333 -11 -93 -11h-192
c-60.667 0 -106.334 10.667 -137.001 32c-38 26 -57 71.667 -57 137v151h-111v-151c0 -188.667 106 -283 318 -283h186c95.333 -0 169.333 18.333 222 55c50.667 -36.667 125 -55 223 -55h112zM820.002 203.001c-15.333 -11.333 -36.001 -23.666 -62.001 -36.999
c-19.333 9.33301 -39.666 21.666 -60.999 36.999c-44 32 -66 74.667 -66 128c0 35.333 10.333 64.333 31 87c23.333 25.333 55.333 38 96 38s72.667 -12.667 96 -38c21.333 -23.333 32 -52.333 32 -87c0 -54 -22 -96.667 -66 -128z" />
    <glyph glyph-name="vehinitialarabic" unicode="&#x6a4;" horiz-adv-x="599" arabic-form="initial" 
d="M400 703v112h-110v-112h110zM493 546v111h-109v-111h109zM304 546v111h-109v-111h109zM567 230c0 66.667 -21 122.334 -63 167.001s-95.667 67 -161 67c-66.667 0 -121 -21.5 -163 -64.5s-63 -98.5 -63 -166.5c0 -42.667 9.66699 -82.334 29 -119.001h-159v-114h356
c66.667 0 120.667 21.667 162 65s62 98.333 62 165zM452 230c0 -37.333 -9.83301 -67.833 -29.5 -91.5s-45.5 -35.5 -77.5 -35.5c-32.667 0 -59.667 12.667 -81 38s-32 56.333 -32 93c0 38.667 9.83301 69.667 29.5 93s45.5 35 77.5 35c33.333 0 60.5 -12.5 81.5 -37.5
s31.5 -56.5 31.5 -94.5z" />
    <glyph glyph-name="vehmedialarabic" unicode="&#x6a4;" horiz-adv-x="642" arabic-form="medial" 
d="M286 622v112h-110v-112h110zM475 622v112h-110v-112h110zM382 781v111h-110v-111h110zM661 0v114.001h-104c-50.667 0 -81.667 3.66699 -93 11c32 24.667 56.333 56 73 94c16 34 24 69.333 24 106c0 67.333 -23.5 120.666 -70.5 159.999s-101.167 59 -162.5 59
c-50 0 -94.5 -13.667 -133.5 -41s-67.833 -65 -86.5 -113c-8 -20 -12 -43 -12 -69c0 -35.333 7.66699 -70 23 -104c17.333 -37.333 42 -68 74 -92c-12.667 -7.33301 -43.667 -11 -93 -11h-117v-114h123c96 -0 169.667 18.333 221 55c52.667 -36.667 127 -55 223 -55h111z
M389 203.001c-14 -10.667 -34.333 -23 -61 -37c-21.333 10 -42 22.333 -62 37c-44 32 -66 74.667 -66 128c0 34.667 10.667 63.667 32 87c23.333 25.333 55.333 38 96 38s72.667 -12.667 96 -38c20.667 -22.667 31 -51.667 31 -87c0 -54 -22 -96.667 -66 -128z" />
    <glyph glyph-name="tchehfinalarabic" unicode="&#x686;" horiz-adv-x="689" arabic-form="final" 
d="M407 91v80h-79v-80h79zM272 91v80h-78v-80h78zM340 -21v79h-78v-79h78zM706 0v114h-26c-36 0 -67.667 11.333 -95 34c-40 31.333 -64.667 83.666 -74 156.999c-11.333 95.333 -40.833 165.5 -88.5 210.5s-114.167 67.5 -199.5 67.5
c-30.667 0 -59.334 -5.66699 -86.001 -17v-96c18.667 10.667 44.667 16 78 16c50 0 89.333 -12.5 118 -37.5s47.667 -64.833 57 -119.5h-123c-70 0 -125.333 -19.333 -166 -58c-46 -43.333 -69 -106.333 -69 -189s27.667 -146 83 -190c48.667 -38 114.667 -57 198 -57h80
v117h-121c-35.333 0 -65.666 11.667 -90.999 35c-24.667 22.667 -37 52.667 -37 90c0 42 11.833 75.333 35.5 100s54.5 37 92.5 37h135c9.33301 -49.333 35 -94.666 77 -135.999c54 -52 119.333 -78 196 -78h26z" />
    <glyph glyph-name="tchehinitialarabic" unicode="&#x686;" horiz-adv-x="715" arabic-form="initial" 
d="M498 -178v112h-110v-112h110zM309 -178v112h-110v-112h110zM405 -336v112h-110v-112h110zM683 70c0 156.667 -47.333 266.332 -142 328.999c-53.333 36.667 -117.333 55 -192 55c-44.667 0 -88.667 -9.33301 -132 -28c-39.333 -17.333 -75 -41 -107 -71
c26 -39.333 44 -68.666 54 -87.999c24 27.333 54 48.333 90 63c30 12.667 58 19 84 19c74 0 131.333 -25.333 172 -76c34.667 -43.333 52 -96.333 52 -159h-583v-114h704v70z" />
    <glyph glyph-name="tchehmedialarabic" unicode="&#x686;" horiz-adv-x="774" arabic-form="medial" 
d="M515 -178v112h-109v-112h109zM325 -178v112h-109v-112h109zM422 -336v112h-109v-112h109zM787 0v113.999h-106c-8.66699 138.667 -58.667 236 -150 292c-52 32 -112.667 48 -182 48c-44.667 0 -88.667 -9.33301 -132 -28c-39.333 -17.333 -75 -41 -107 -71
c26 -39.333 44 -68.666 54 -87.999c24 27.333 54 48.333 90 63c30 12.667 58 19 84 19c74 0 131.333 -25.333 172 -76c34.667 -43.333 52 -96.333 52 -159h-578v-114h803z" />
    <glyph glyph-name="jehfinalarabic" unicode="&#x698;" horiz-adv-x="443" arabic-form="final" 
d="M465 0l-0.00195312 114h-172v340h-112v-382c0 -94.667 -46.333 -142 -139 -142v-96c68.667 0 124.334 14.333 167.001 43s68.334 69.667 77.001 123h179zM102.998 546v112h-110v-112h110zM291.998 546v112h-110v-112h110zM198.998 705v111h-110v-111h110z" />
    <glyph glyph-name="alefmaksurainitialarabic" unicode="&#x6cc;" horiz-adv-x="308" arabic-form="initial" 
d="M276 181l0.000976562 273h-112v-235c0 -35.333 -2.66699 -59.333 -8 -72c-10.667 -22 -34.334 -33 -71.001 -33h-94v-114h118c111.333 -0 167 60.333 167 181zM84.001 -219v112h-110v-112h110zM273.001 -219v112h-110v-112h110z" />
    <glyph glyph-name="alefmaksuramedialarabic" unicode="&#x6cc;" horiz-adv-x="432" arabic-form="medial" 
d="M276 -219v112h-110v-112h110zM87 -219v112h-110v-112h110zM446 0v113.999h-192c16 18.667 24 57.334 24 116.001v224h-111v-230c0 -36 -4 -61.333 -12 -76c-12 -22.667 -34.333 -34 -67 -34h-104v-114h462z" />
    <glyph glyph-name="alefmaddaabovefinalarabic" unicode="&#x622;" horiz-adv-x="346" arabic-form="final" 
d="M226 731l-9 35c-14.667 -18.667 -30 -28 -46 -28c-10.667 0 -28.334 8.33301 -53.001 25s-42.667 25 -54 25c-18 0 -35 -14 -51 -42l9 -34c13.333 18 27.333 27 42 27c16 0 35.333 -8.33301 58 -25s39.334 -25 50.001 -25c18 0 36 14 54 42zM366 0v113.999h-66
c-42 0 -70.667 5.66699 -86 17c-21.333 15.333 -32 47.333 -32 96v418h-111v-463c0 -55.333 13.333 -98.666 40 -129.999c28.667 -34.667 70 -52 124 -52h131z" />
    <glyph glyph-name="alefhamzaabovefinalarabic" unicode="&#x623;" horiz-adv-x="346" arabic-form="final" 
d="M210 697v46h-81c-12 7.33301 -18 19.666 -18 36.999c0 10 3.16699 18.833 9.5 26.5s14.5 11.5 24.5 11.5c16 0 25.333 -7.33301 28 -22l36 19c-14 29.333 -35 44 -63 44c-22 0 -40.5 -7.66699 -55.5 -23s-22.5 -34.666 -22.5 -57.999c0 -4 3 -15.667 9 -35h-40v-46h173z
M366 0v113.999h-66c-42 0 -70.667 5.66699 -86 17c-21.333 15.333 -32 47.333 -32 96v418h-111v-463c0 -55.333 13.333 -98.666 40 -129.999c28.667 -34.667 70 -52 124 -52h131z" />
    <glyph glyph-name="wawhamzaabovefinalarabic" unicode="&#x624;" horiz-adv-x="621" arabic-form="final" 
d="M376 511v63h-96c-12 5.33301 -18 17 -18 35c0 25.333 9.66699 38 29 38c12.667 0 22 -8.66699 28 -26l56 26c-17.333 39.333 -45.333 59 -84 59c-26.667 0 -49 -9.5 -67 -28.5s-27 -42.5 -27 -70.5c0 -8.66699 1.66699 -19.667 5 -33h-48v-63h222zM631 0
l-0.000976562 114h-137v116c0 65.333 -19.5 119.166 -58.5 161.499s-88.833 63.5 -149.5 63.5c-64 0 -117.333 -20.667 -160 -62s-64 -94.666 -64 -159.999s21.333 -120.5 64 -165.5s94.334 -67.5 155.001 -67.5h107c-15.333 -51.333 -52.333 -77 -111 -77v-88
c130 0 202.667 55 218 165h136zM381.999 114h-99.001c-30 0 -55.333 12.167 -76 36.5s-31 53.833 -31 88.5c0 34 9.83301 61.333 29.5 82s45.834 31 78.501 31c28 0 50.5 -9.16699 67.5 -27.5s27.167 -42.833 30.5 -73.5v-137z" />
    <glyph glyph-name="alefhamzabelowfinalarabic" unicode="&#x625;" horiz-adv-x="346" arabic-form="final" 
d="M250 -205l-0.000976562 45.999h-81c-12 7.33301 -18 20 -18 38c0 10.667 3.16699 19.834 9.5 27.501s14.5 11.5 24.5 11.5c16 0 25.333 -7.33301 28 -22l36 17c-14 30.667 -35 46 -63 46c-21.333 0 -39.666 -8 -54.999 -24s-23 -35.667 -23 -59c0 -4 3 -15.667 9 -35h-40
v-46h173zM365.999 -0.000976562v113.999h-66c-42 0 -70.667 5.66699 -86 17c-21.333 15.333 -32 47.333 -32 96v418h-111v-463c0 -55.333 13.333 -98.666 40 -129.999c28.667 -34.667 70 -52 124 -52h131z" />
    <glyph glyph-name="yehhamzaabovefinalarabic" unicode="&#x626;" horiz-adv-x="896" arabic-form="final" 
d="M281 357v67h-126c-9.33301 11.333 -14 26 -14 44c0 38.667 15 58 45 58c20.667 0 34.667 -10.667 42 -32l47 32c-17.333 39.333 -48 59 -92 59c-31.333 0 -56.833 -10.667 -76.5 -32s-29.5 -48 -29.5 -80c0 -18 3 -34.333 9 -49h-53v-67h248zM909 114
l-41.999 0.000976562c-28.667 0 -53.5 8 -74.5 24s-41.833 42.667 -62.5 80c-44 79.333 -110 119 -198 119h-44v-102c4 0.666992 10 1 18 1c31.333 0 56 -9.83301 74 -29.5s27 -45.167 27 -76.5c0 -51.333 -22 -95.5 -66 -132.5s-98 -55.5 -162 -55.5
c-72.667 0 -130 22.667 -172 68s-63 106.666 -63 183.999v99h-112v-112c0 -98 33.167 -180.333 99.5 -247s147.833 -100 244.5 -100c82.667 0 154.167 23 214.5 69s98.5 107.667 114.5 185c23.333 -35.333 48.166 -58.833 74.499 -70.5s69.5 -17.5 129.5 -17.5v114z" />
    <glyph glyph-name="yehhamzaaboveinitialarabic" unicode="&#x626;" horiz-adv-x="302" arabic-form="initial" 
d="M268 455l-0.000976562 67h-126c-9.33301 11.333 -14 26 -14 44c0 38 15 57 45 57c21.333 0 35.333 -10.333 42 -31l47 31c-16.667 40.667 -47 61 -91 61c-31.333 0 -57.166 -10.667 -77.499 -32s-30.5 -48 -30.5 -80c0 -19.333 3.33301 -36 10 -50h-54v-67h249z
M267.999 181l0.000976562 216h-112v-178c0 -35.333 -2.66699 -59.333 -8 -72c-10.667 -22 -34.334 -33 -71.001 -33h-85v-114h108c112 -0 168 60.333 168 181z" />
    <glyph glyph-name="yehhamzaabovemedialarabic" unicode="&#x626;" horiz-adv-x="431" arabic-form="medial" 
d="M278 455l1.00098 66.999h-126c-10 10.667 -15 25.334 -15 44.001c0 37.333 15 56 45 56c22 0 36.333 -10 43 -30l47 31c-16.667 40 -47.334 60 -92.001 60c-31.333 0 -57 -10.667 -77 -32s-30 -48 -30 -80c0 -18 3 -34.333 9 -49h-53v-67h248zM446.001 -0.000976562
v113.999h-192c16 18.667 24 57.334 24 116.001v167h-111v-173c0 -36 -4 -61.333 -12 -76c-12 -22.667 -34.333 -34 -67 -34h-104v-114h462z" />
    <glyph glyph-name="aleffinalarabic" unicode="&#x627;" horiz-adv-x="346" arabic-form="final" 
d="M366 0v113.999h-66c-42 0 -70.667 5.66699 -86 17c-21.333 15.333 -32 47.333 -32 96v418h-111v-463c0 -55.333 13.333 -98.666 40 -129.999c28.667 -34.667 70 -52 124 -52h131z" />
    <glyph glyph-name="behfinalarabic" unicode="&#x628;" horiz-adv-x="1020" arabic-form="final" 
d="M1032 0l0.000976562 113.999h-189c16.667 18.667 25 57.334 25 116.001v224h-112v-230c0 -36 -4 -61.333 -12 -76c-10.667 -22.667 -33 -34 -67 -34h-340c-60.667 0 -106.334 10.667 -137.001 32c-38 26 -57 71.667 -57 137v171h-111v-171c0 -188.667 106 -283 318 -283
h682zM542.001 -219.001v112h-110v-112h110z" />
    <glyph glyph-name="behinitialarabic" unicode="&#x628;" horiz-adv-x="301" arabic-form="initial" 
d="M267 181l0.000976562 273h-111v-235c0 -35.333 -2.66699 -59.333 -8 -72c-10.667 -22 -34.334 -33 -71.001 -33h-85v-114h108c111.333 -0 167 60.333 167 181zM266.001 -219v112h-109v-112h109z" />
    <glyph glyph-name="behmedialarabic" unicode="&#x628;" horiz-adv-x="431" arabic-form="medial" 
d="M277 -220v112h-110v-112h110zM446 0v113.999h-192c16 18.667 24 57.334 24 116.001v224h-111v-230c0 -36 -4 -61.333 -12 -76c-12 -22.667 -34.333 -34 -67 -34h-104v-114h462z" />
    <glyph glyph-name="tehmarbutafinalarabic" unicode="&#x629;" horiz-adv-x="656" arabic-form="final" 
d="M669 0l0.000976562 113.999h-71c-74.667 0 -112 40 -112 120v317h-247c-64 0 -114.5 -21.667 -151.5 -65s-55.5 -102.666 -55.5 -177.999c0 -70 18.667 -126.667 56 -170s87.666 -65 150.999 -65c50 0 92.667 25 128 75c11.333 -44.667 33.5 -80.5 66.5 -107.5
s71.167 -40.5 114.5 -40.5h121zM370.001 318.999c0 -44 -10.6689 -80.5 -32.002 -109.5s-49.666 -43.5 -84.999 -43.5c-32.667 0 -59.167 13.833 -79.5 41.5s-30.5 61.5 -30.5 101.5c0 46.667 11.333 84.167 34 112.5s53.334 42.5 92.001 42.5h101v-145zM287.999 631.999
v112h-110v-112h110zM476.999 631.999v112h-110v-112h110z" />
    <glyph glyph-name="tehfinalarabic" unicode="&#x62a;" horiz-adv-x="1020" arabic-form="final" 
d="M1032 0l0.000976562 113.999h-189c16.667 18.667 25 57.334 25 116.001v224h-112v-230c0 -36 -4 -61.333 -12 -76c-10.667 -22.667 -33 -34 -67 -34h-340c-60.667 0 -106.334 10.667 -137.001 32c-38 26 -57 71.667 -57 137v171h-111v-171c0 -188.667 106 -283 318 -283
h682zM412.001 454.999v111h-110v-111h110zM602.001 454.999v111h-110v-111h110z" />
    <glyph glyph-name="tehinitialarabic" unicode="&#x62a;" horiz-adv-x="308" arabic-form="initial" 
d="M276 181l0.000976562 273h-112v-235c0 -35.333 -2.66699 -59.333 -8 -72c-10.667 -22 -34.334 -33 -71.001 -33h-94v-114h118c111.333 -0 167 60.333 167 181zM84.001 546v111h-110v-111h110zM273.001 546v111h-110v-111h110z" />
    <glyph glyph-name="tehmedialarabic" unicode="&#x62a;" horiz-adv-x="431" arabic-form="medial" 
d="M88 547v111h-110v-111h110zM278 547v111h-110v-111h110zM446 0v113.999h-192c16 18.667 24 57.334 24 116.001v224h-111v-230c0 -36 -4 -61.333 -12 -76c-12 -22.667 -34.333 -34 -67 -34h-104v-114h462z" />
    <glyph glyph-name="thehfinalarabic" unicode="&#x62b;" horiz-adv-x="1020" arabic-form="final" 
d="M1034 0l0.000976562 113.999h-191c16.667 18.667 25 57.334 25 116.001v224h-112v-230c0 -36 -4 -61.333 -12 -76c-10.667 -22.667 -33 -34 -67 -34h-340c-60.667 0 -106.334 10.667 -137.001 32c-38 26 -57 71.667 -57 137v171h-111v-171c0 -188.667 106 -283 318 -283
h684zM505.001 611.999v112h-109v-112h109zM598.001 454.999v111h-109v-111h109zM408.001 454.999v111h-109v-111h109z" />
    <glyph glyph-name="thehinitialarabic" unicode="&#x62b;" horiz-adv-x="308" arabic-form="initial" 
d="M276 181l0.000976562 273h-112v-235c0 -36 -2.66699 -60 -8 -72c-10.667 -22 -34.334 -33 -71.001 -33h-98v-114h122c111.333 -0 167 60.333 167 181zM185.001 690v99h-108v-99h108zM273.001 546v99h-108v-99h108zM100.001 546v99h-108v-99h108z" />
    <glyph glyph-name="thehmedialarabic" unicode="&#x62b;" horiz-adv-x="431" arabic-form="medial" 
d="M446 0v113.999h-192c16 18.667 24 57.334 24 116.001v224h-111v-230c0 -36 -4 -61.333 -12 -76c-12 -22.667 -34.333 -34 -67 -34h-104v-114h462zM183 702.999v112h-109v-112h109zM277 545.999v111h-110v-111h110zM87 545.999v111h-110v-111h110z" />
    <glyph glyph-name="jeemfinalarabic" unicode="&#x62c;" horiz-adv-x="689" arabic-form="final" 
d="M364 27v111h-110v-111h110zM706 0v114h-26c-36 0 -67.667 11.333 -95 34c-40 31.333 -64.667 83.666 -74 156.999c-11.333 95.333 -40.833 165.5 -88.5 210.5s-114.167 67.5 -199.5 67.5c-30.667 0 -59.334 -5.66699 -86.001 -17v-96c18.667 10.667 44.667 16 78 16
c50 0 89.333 -12.5 118 -37.5s47.667 -64.833 57 -119.5h-123c-70 0 -125.333 -19.333 -166 -58c-46 -43.333 -69 -106.333 -69 -189s27.667 -146 83 -190c48.667 -38 114.667 -57 198 -57h80v117h-121c-35.333 0 -65.666 11.667 -90.999 35
c-24.667 22.667 -37 52.667 -37 90c0 42 11.833 75.333 35.5 100s54.5 37 92.5 37h135c9.33301 -49.333 35 -94.666 77 -135.999c54 -52 119.333 -78 196 -78h26z" />
    <glyph glyph-name="jeeminitialarabic" unicode="&#x62c;" horiz-adv-x="715" arabic-form="initial" 
d="M402 -220v112h-110v-112h110zM683 70c0 156.667 -47.333 266.332 -142 328.999c-53.333 36.667 -117.333 55 -192 55c-44.667 0 -88.667 -9.33301 -132 -28c-39.333 -17.333 -75 -41 -107 -71c26 -39.333 44 -68.666 54 -87.999c24 27.333 54 48.333 90 63
c30 12.667 58 19 84 19c74 0 131.333 -25.333 172 -76c34.667 -43.333 52 -96.333 52 -159h-583v-114h704v70z" />
    <glyph glyph-name="jeemmedialarabic" unicode="&#x62c;" horiz-adv-x="774" arabic-form="medial" 
d="M402 -219v112h-110v-112h110zM787 0v113.999h-106c-8.66699 138.667 -58.667 236 -150 292c-52 32 -112.667 48 -182 48c-44.667 0 -88.667 -9.33301 -132 -28c-39.333 -17.333 -75 -41 -107 -71c26 -39.333 44 -68.666 54 -87.999c24 27.333 54 48.333 90 63
c30 12.667 58 19 84 19c74 0 131.333 -25.333 172 -76c34.667 -43.333 52 -96.333 52 -159h-578v-114h803z" />
    <glyph glyph-name="hahfinalarabic" unicode="&#x62d;" horiz-adv-x="689" arabic-form="final" 
d="M706 0v114h-26c-36 0 -67.667 11.333 -95 34c-40 31.333 -64.667 83.666 -74 156.999c-11.333 95.333 -40.833 165.5 -88.5 210.5s-114.167 67.5 -199.5 67.5c-30.667 0 -59.334 -5.66699 -86.001 -17v-96c18.667 10.667 44.667 16 78 16c50 0 89.333 -12.5 118 -37.5
s47.667 -64.833 57 -119.5h-123c-70 0 -125.333 -19.333 -166 -58c-46 -43.333 -69 -106.333 -69 -189s27.667 -146 83 -190c48.667 -38 114.667 -57 198 -57h80v117h-121c-35.333 0 -65.666 11.667 -90.999 35c-24.667 22.667 -37 52.667 -37 90
c0 42 11.833 75.333 35.5 100s54.5 37 92.5 37h135c9.33301 -49.333 35 -94.666 77 -135.999c54 -52 119.333 -78 196 -78h26z" />
    <glyph glyph-name="hahinitialarabic" unicode="&#x62d;" horiz-adv-x="715" arabic-form="initial" 
d="M683 70c0 156.667 -47.333 266.332 -142 328.999c-53.333 36.667 -117.333 55 -192 55c-44.667 0 -88.667 -9.33301 -132 -28c-39.333 -17.333 -75 -41 -107 -71c26 -39.333 44 -68.666 54 -87.999c24 27.333 54 48.333 90 63c30 12.667 58 19 84 19
c74 0 131.333 -25.333 172 -76c34.667 -43.333 52 -96.333 52 -159h-583v-114h704v70z" />
    <glyph glyph-name="hahmedialarabic" unicode="&#x62d;" horiz-adv-x="774" arabic-form="medial" 
d="M787 0v113.999h-106c-8.66699 138.667 -58.667 236 -150 292c-52 32 -112.667 48 -182 48c-44.667 0 -88.667 -9.33301 -132 -28c-39.333 -17.333 -75 -41 -107 -71c26 -39.333 44 -68.666 54 -87.999c24 27.333 54 48.333 90 63c30 12.667 58 19 84 19
c74 0 131.333 -25.333 172 -76c34.667 -43.333 52 -96.333 52 -159h-578v-114h803z" />
    <glyph glyph-name="khahfinalarabic" unicode="&#x62e;" horiz-adv-x="689" arabic-form="final" 
d="M706 0v114h-26c-36 0 -67.667 11.333 -95 34c-40 31.333 -64.667 83.666 -74 156.999c-11.333 95.333 -40.833 165.5 -88.5 210.5s-114.167 67.5 -199.5 67.5c-30.667 0 -59.334 -5.66699 -86.001 -17v-96c18.667 10.667 44.667 16 78 16c50 0 89.333 -12.5 118 -37.5
s47.667 -64.833 57 -119.5h-123c-70 0 -125.333 -19.333 -166 -58c-46 -43.333 -69 -106.333 -69 -189s27.667 -146 83 -190c48.667 -38 114.667 -57 198 -57h80v117h-121c-35.333 0 -65.666 11.667 -90.999 35c-24.667 22.667 -37 52.667 -37 90
c0 42 11.833 75.333 35.5 100s54.5 37 92.5 37h135c9.33301 -49.333 35 -94.666 77 -135.999c54 -52 119.333 -78 196 -78h26zM304 645v112h-109v-112h109z" />
    <glyph glyph-name="khahinitialarabic" unicode="&#x62e;" horiz-adv-x="715" arabic-form="initial" 
d="M683 70c0 156.667 -47.333 266.332 -142 328.999c-53.333 36.667 -117.333 55 -192 55c-44.667 0 -88.667 -9.33301 -132 -28c-39.333 -17.333 -75 -41 -107 -71c26 -39.333 44 -68.666 54 -87.999c24 27.333 54 48.333 90 63c30 12.667 58 19 84 19
c74 0 131.333 -25.333 172 -76c34.667 -43.333 52 -96.333 52 -159h-583v-114h704v70zM402 547.998v111h-110v-111h110z" />
    <glyph glyph-name="khahmedialarabic" unicode="&#x62e;" horiz-adv-x="774" arabic-form="medial" 
d="M787 0v113.999h-106c-8.66699 138.667 -58.667 236 -150 292c-52 32 -112.667 48 -182 48c-44.667 0 -88.667 -9.33301 -132 -28c-39.333 -17.333 -75 -41 -107 -71c26 -39.333 44 -68.666 54 -87.999c24 27.333 54 48.333 90 63c30 12.667 58 19 84 19
c74 0 131.333 -25.333 172 -76c34.667 -43.333 52 -96.333 52 -159h-578v-114h803zM402 547.999v111h-110v-111h110z" />
    <glyph glyph-name="dalfinalarabic" unicode="&#x62f;" horiz-adv-x="679" arabic-form="final" 
d="M711 0l-0.000976562 114h-174c-1.33301 171.333 -68.666 279.333 -201.999 324c-23.333 8 -43.333 12.667 -60 14c-18.667 1.33301 -53.334 2 -104.001 2v-102c40.667 0 74.334 -3 101.001 -9c101.333 -22 152 -98.333 152 -229h-362v-114h649z" />
    <glyph glyph-name="thalfinalarabic" unicode="&#x630;" horiz-adv-x="679" arabic-form="final" 
d="M332 548v111h-109v-111h109zM711 0l-0.000976562 114h-174c-1.33301 171.333 -68.666 279.333 -201.999 324c-23.333 8 -43.333 12.667 -60 14c-18.667 1.33301 -53.334 2 -104.001 2v-102c40.667 0 74.334 -3 101.001 -9c101.333 -22 152 -98.333 152 -229h-362v-114
h649z" />
    <glyph glyph-name="rehfinalarabic" unicode="&#x631;" horiz-adv-x="443" arabic-form="final" 
d="M465 0l-0.00195312 114h-172v340h-112v-382c0 -94.667 -46.333 -142 -139 -142v-96c68.667 0 124.334 14.333 167.001 43s68.334 69.667 77.001 123h179z" />
    <glyph glyph-name="zainfinalarabic" unicode="&#x632;" horiz-adv-x="443" arabic-form="final" 
d="M465 0l-0.00195312 114h-172v340h-112v-382c0 -94.667 -46.333 -142 -139 -142v-96c68.667 0 124.334 14.333 167.001 43s68.334 69.667 77.001 123h179zM291.998 546v111h-110v-111h110z" />
    <glyph glyph-name="seenfinalarabic" unicode="&#x633;" horiz-adv-x="1371" arabic-form="final" 
d="M1378 0v114h-171c16.667 35.333 25 76.666 25 123.999v216h-113v-230c0 -73.333 -28.333 -110 -85 -110h-109c15.333 16.667 23 57.334 23 122.001v218h-113v-229c0 -74 -28.333 -111 -85 -111h-91c3.33301 22 5 42.667 5 62v278h-113v-265
c0 -65.333 -16.333 -121.333 -49 -168c-39.333 -53.333 -90.333 -80 -153 -80c-63.333 0 -114.666 26.667 -153.999 80c-33.333 47.333 -50 103.333 -50 168v265h-113v-278c0 -96 31.667 -177.333 95 -244c61.333 -65.333 135.333 -98 222 -98
c87.333 0 161.666 34 222.999 102c18 18.667 33.667 40 47 64h759z" />
    <glyph glyph-name="seeninitialarabic" unicode="&#x633;" horiz-adv-x="873" arabic-form="initial" 
d="M-13 114v-114.002h654c57.333 0 104 21.833 140 65.5s54 101.167 54 172.5v216h-113v-230c0 -73.333 -28.333 -110 -85 -110h-109c15.333 16.667 23 57.334 23 122.001v218h-113v-229c0 -74 -28.333 -111 -85 -111h-104v6c12 18.667 18 57.334 18 116.001v218h-113v-222
c0 -78.667 -28.333 -118 -85 -118h-82z" />
    <glyph glyph-name="seenmedialarabic" unicode="&#x633;" horiz-adv-x="976" arabic-form="medial" 
d="M-22 0l1014 -0.000976562v114h-171c16.667 35.333 25 76.666 25 123.999v216h-113v-230c0 -73.333 -28.333 -110 -85 -110h-109c15.333 16.667 23 57.334 23 122.001v218h-113v-229c0 -74 -28.333 -111 -85 -111h-104v6c12 18.667 18 57.334 18 116.001v218h-113v-222
c0 -78.667 -28.333 -118 -85 -118h-102v-114z" />
    <glyph glyph-name="sheenfinalarabic" unicode="&#x634;" horiz-adv-x="1371" arabic-form="final" 
d="M1378 0v114h-171c16.667 35.333 25 76.666 25 123.999v216h-113v-230c0 -73.333 -28.333 -110 -85 -110h-109c15.333 16.667 23 57.334 23 122.001v218h-113v-229c0 -74 -28.333 -111 -85 -111h-91c3.33301 22 5 42.667 5 62v278h-113v-265
c0 -65.333 -16.333 -121.333 -49 -168c-39.333 -53.333 -90.333 -80 -153 -80c-63.333 0 -114.666 26.667 -153.999 80c-33.333 47.333 -50 103.333 -50 168v265h-113v-278c0 -96 31.667 -177.333 95 -244c61.333 -65.333 135.333 -98 222 -98
c87.333 0 161.666 34 222.999 102c18 18.667 33.667 40 47 64h759zM946 703v112h-110v-112h110zM1039 546v111h-109v-111h109zM850 546v111h-109v-111h109z" />
    <glyph glyph-name="sheeninitialarabic" unicode="&#x634;" horiz-adv-x="873" arabic-form="initial" 
d="M-13 114v-114.002h654c57.333 0 104 21.833 140 65.5s54 101.167 54 172.5v216h-113v-230c0 -73.333 -28.333 -110 -85 -110h-109c15.333 16.667 23 57.334 23 122.001v218h-113v-229c0 -74 -28.333 -111 -85 -111h-104v6c12 18.667 18 57.334 18 116.001v218h-113v-222
c0 -78.667 -28.333 -118 -85 -118h-82zM439 702.998h110v112h-110v-112zM533 545.998h109v111h-109v-111zM344 545.998h109v111h-109v-111z" />
    <glyph glyph-name="sheenmedialarabic" unicode="&#x634;" horiz-adv-x="976" arabic-form="medial" 
d="M-22 0l1014 -0.000976562v114h-171c16.667 35.333 25 76.666 25 123.999v216h-113v-230c0 -73.333 -28.333 -110 -85 -110h-109c15.333 16.667 23 57.334 23 122.001v218h-113v-229c0 -74 -28.333 -111 -85 -111h-104v6c12 18.667 18 57.334 18 116.001v218h-113v-222
c0 -78.667 -28.333 -118 -85 -118h-102v-114zM450 702.999h110v112h-110v-112zM544 545.999h109v111h-109v-111zM355 545.999h109v111h-109v-111z" />
    <glyph glyph-name="sadfinalarabic" unicode="&#x635;" horiz-adv-x="1338" arabic-form="final" 
d="M1345 0l-0.000976562 114h-118c-3.33301 228 -89.333 342 -258 342c-54 0 -107.5 -16.167 -160.5 -48.5s-101.167 -78.5 -144.5 -138.5v185h-113v-265c0 -70.667 -19 -129.667 -57 -177s-86.333 -71 -145 -71c-59.333 0 -108.166 23.667 -146.499 71
s-57.5 106.333 -57.5 177v265h-113v-278c0 -94 31 -174.5 93 -241.5s136.667 -100.5 224 -100.5c56 0 107.5 14.167 154.5 42.5s85.5 69.5 115.5 123.5h726zM1111 114h-445.999c31.333 70 74.166 127.833 128.499 173.5s109.166 68.5 164.499 68.5
c50.667 0 88.834 -22.5 114.501 -67.5s38.5 -103.167 38.5 -174.5z" />
    <glyph glyph-name="sadinitialarabic" unicode="&#x635;" horiz-adv-x="869" arabic-form="initial" 
d="M824 0c3.33301 41.333 5 76 5 104c0 234.667 -86 352 -258 352c-54 0 -107.5 -16.167 -160.5 -48.5s-101.167 -78.5 -144.5 -138.5v137h-112v-174c0 -78.667 -28.333 -118 -85 -118h-82v-114h837zM713 114l-445.998 0.000976562c31.333 70 74.166 127.833 128.499 173.5
s109.166 68.5 164.499 68.5c47.333 0 85 -18.833 113 -56.5s42 -88.834 42 -153.501z" />
    <glyph glyph-name="sadmedialarabic" unicode="&#x635;" horiz-adv-x="939" arabic-form="medial" 
d="M949 0v114.001h-118c-3.33301 228 -89.333 342 -258 342c-54 0 -107.5 -16.333 -160.5 -49s-101.833 -79.334 -146.5 -140.001v139h-112v-174c0 -78.667 -28.333 -118 -85 -118h-112v-114h992zM715 114.001l-445.998 0.000976562c31.333 70 74.166 127.833 128.499 173.5
s109.166 68.5 164.499 68.5c47.333 0 85 -18.833 113 -56.5s42 -88.834 42 -153.501z" />
    <glyph glyph-name="dadfinalarabic" unicode="&#x636;" horiz-adv-x="1338" arabic-form="final" 
d="M1345 0l-0.000976562 114h-118c-3.33301 228 -89.333 342 -258 342c-54 0 -107.5 -16.167 -160.5 -48.5s-101.167 -78.5 -144.5 -138.5v185h-113v-265c0 -70.667 -19 -129.667 -57 -177s-86.333 -71 -145 -71c-59.333 0 -108.166 23.667 -146.499 71
s-57.5 106.333 -57.5 177v265h-113v-278c0 -94 31 -174.5 93 -241.5s136.667 -100.5 224 -100.5c56 0 107.5 14.167 154.5 42.5s85.5 69.5 115.5 123.5h726zM1111 114h-445.999c31.333 70 74.166 127.833 128.499 173.5s109.166 68.5 164.499 68.5
c50.667 0 88.834 -22.5 114.501 -67.5s38.5 -103.167 38.5 -174.5zM1010 546v111h-110v-111h110z" />
    <glyph glyph-name="dadinitialarabic" unicode="&#x636;" horiz-adv-x="869" arabic-form="initial" 
d="M824 0c3.33301 41.333 5 76 5 104c0 234.667 -86 352 -258 352c-54 0 -107.5 -16.167 -160.5 -48.5s-101.167 -78.5 -144.5 -138.5v137h-112v-174c0 -78.667 -28.333 -118 -85 -118h-82v-114h837zM713 114l-445.998 0.000976562c31.333 70 74.166 127.833 128.499 173.5
s109.166 68.5 164.499 68.5c47.333 0 85 -18.833 113 -56.5s42 -88.834 42 -153.501zM612.002 546.001v111h-110v-111h110z" />
    <glyph glyph-name="dadmedialarabic" unicode="&#x636;" horiz-adv-x="939" arabic-form="medial" 
d="M949 0v114.001h-118c-3.33301 228 -89.333 342 -258 342c-54 0 -107.5 -16.333 -160.5 -49s-101.833 -79.334 -146.5 -140.001v139h-112v-174c0 -78.667 -28.333 -118 -85 -118h-112v-114h992zM715 114.001l-445.998 0.000976562c31.333 70 74.166 127.833 128.499 173.5
s109.166 68.5 164.499 68.5c47.333 0 85 -18.833 113 -56.5s42 -88.834 42 -153.501zM614.002 546.002v111h-110v-111h110z" />
    <glyph glyph-name="tahfinalarabic" unicode="&#x637;" horiz-adv-x="876" arabic-form="final" 
d="M32 114l-0.000976562 -114h855v114h-113c-2 228 -87.667 342 -257 342c-107.333 0 -205.666 -57.667 -294.999 -173l13 362h-111v-531h-92zM212.999 114c31.333 70 74.168 127.833 128.501 173.5s109.166 68.5 164.499 68.5c48 0 85.833 -19 113.5 -57
s41.5 -89 41.5 -153l-2 -32h-446z" />
    <glyph glyph-name="tahinitialarabic" unicode="&#x637;" horiz-adv-x="850" arabic-form="initial" 
d="M813 0c3.33301 41.333 5 76 5 104c0 234.667 -86.333 352 -259 352c-106 0 -203.667 -57.667 -293 -173l12 362h-110v-531h-184v-114h829zM703 114h-448c34.667 72.667 78.5 131.167 131.5 175.5s107.167 66.5 162.5 66.5c48 0 85.667 -19 113 -57s41 -89 41 -153v-32z
" />
    <glyph glyph-name="tahmedialarabic" unicode="&#x637;" horiz-adv-x="935" arabic-form="medial" 
d="M946 0l-0.000976562 114h-113c-3.33301 228 -89.666 342 -258.999 342c-106.667 0 -205 -57.667 -295 -173l14 362h-110v-531h-194v-114h957zM716.999 114l-447 0.000976562c33.333 71.333 76.833 129.5 130.5 174.5s108.167 67.5 163.5 67.5
c48 0 85.667 -18.833 113 -56.5s41 -88.834 41 -153.501c0 -14 -0.333008 -24.667 -1 -32z" />
    <glyph glyph-name="zahfinalarabic" unicode="&#x638;" horiz-adv-x="876" arabic-form="final" 
d="M887 0l-0.000976562 114h-113c-2 228 -87.667 342 -257 342c-107.333 0 -205.666 -57.667 -294.999 -173l13 362h-111v-531h-92v-114h855zM658.999 114l-445.998 0.000976562c31.333 70 74.166 127.833 128.499 173.5s109.166 68.5 164.499 68.5
c48 0 85.833 -19 113.5 -57s41.5 -89 41.5 -153c0 -4.66699 -0.666992 -14.334 -2 -29.001v-3zM549.001 546.001v111h-110v-111h110z" />
    <glyph glyph-name="zahinitialarabic" unicode="&#x638;" horiz-adv-x="850" arabic-form="initial" 
d="M813 0c3.33301 41.333 5 76 5 104c0 234.667 -86.333 352 -259 352c-106 0 -203.667 -57.667 -293 -173l12 362h-110v-531h-184v-114h829zM703 114h-448c34.667 72.667 78.5 131.167 131.5 175.5s107.167 66.5 162.5 66.5c48 0 85.667 -19 113 -57s41 -89 41 -153v-32z
M591 546v111h-110v-111h110z" />
    <glyph glyph-name="zahmedialarabic" unicode="&#x638;" horiz-adv-x="935" arabic-form="medial" 
d="M956 0l-0.000976562 114h-123c-3.33301 228 -89.666 342 -258.999 342c-106.667 0 -205 -57.667 -295 -173l14 362h-110v-531h-204v-114h977zM716.999 114l-447 0.000976562c33.333 71.333 76.833 129.5 130.5 174.5s108.167 67.5 163.5 67.5
c48 0 85.667 -18.833 113 -56.5s41 -88.834 41 -153.501c0 -14 -0.333008 -24.667 -1 -32zM610.999 546.001v111h-109v-111h109z" />
    <glyph glyph-name="ainfinalarabic" unicode="&#x639;" horiz-adv-x="744" arabic-form="final" 
d="M755 0v114.001h-27c-44.667 0 -82.167 17.5 -112.5 52.5s-49.166 83.167 -56.499 144.5h-91c-15.333 0 -34 0.166992 -56 0.5s-36 0.5 -42 0.5h-15c-18.667 6.66699 -34.834 22.167 -48.501 46.5s-20.5 49.833 -20.5 76.5c0 34.667 9.16699 63 27.5 85s42.833 33 73.5 33
c38 0 65.333 -18 82 -54l84 40c-34 70.667 -88.667 106 -164 106c-59.333 0 -108.5 -19.833 -147.5 -59.5s-58.5 -90.5 -58.5 -152.5c0 -48.667 12.333 -90.334 37 -125.001c-57.333 -9.33301 -103 -35.333 -137 -78s-51 -95 -51 -157c0 -74.667 24.333 -133.167 73 -175.5
s114.667 -63.5 198 -63.5h171v111h-179c-48 0 -86 11.167 -114 33.5s-42 52.833 -42 91.5c0 87.333 52 131 156 131h163c15.333 -56 48.833 -103.5 100.5 -142.5s108.5 -58.5 170.5 -58.5h26z" />
    <glyph glyph-name="aininitialarabic" unicode="&#x639;" horiz-adv-x="576" arabic-form="initial" 
d="M544 0v113.999h-282c-24 26.667 -36 62.334 -36 107.001c0 38.667 9 71 27 97c20 29.333 48.333 44 85 44c52.667 0 87.667 -25.667 105 -77l96 46c-16.667 40 -42.5 71.5 -77.5 94.5s-74.5 34.5 -118.5 34.5c-68 0 -123.333 -23.333 -166 -70s-64 -103.667 -64 -171
c0 -38 7.33301 -73 22 -105h-145v-114h554z" />
    <glyph glyph-name="ainmedialarabic" unicode="&#x639;" horiz-adv-x="724" arabic-form="medial" 
d="M738 0l-0.000976562 114h-188c-22.667 0 -37.334 0.666992 -44.001 2c-13.333 2.66699 -26.666 11 -39.999 25c36 24.667 74.333 62 115 112c38.667 48 62.334 85 71.001 111c-80.667 69.333 -175.667 104 -285 104c-94 0 -184.333 -27.333 -271 -82v-106
c38 -9.33301 77.333 -27.333 118 -54c42 -26.667 70.333 -51.334 85 -74.001c-23.333 -15.333 -47.333 -25.666 -72 -30.999c-18 -4.66699 -44 -7 -78 -7h-166v-114h168c74 0 147.667 24 221 72c17.333 -19.333 38.666 -35.333 63.999 -48c30.667 -16 60.334 -24 89.001 -24
h213zM514.999 331c-13.333 -20 -31.999 -42 -55.999 -66c-28 -26.667 -52.333 -45 -73 -55c-50 58 -106.667 98 -170 120c51.333 27.333 102.666 41 153.999 41c52 0 100.333 -13.333 145 -40z" />
    <glyph glyph-name="ghainfinalarabic" unicode="&#x63a;" horiz-adv-x="744" arabic-form="final" 
d="M443 722v111h-109v-111h109zM755 0v114.001h-27c-44.667 0 -82.167 17.5 -112.5 52.5s-49.166 83.167 -56.499 144.5h-91c-15.333 0 -34 0.166992 -56 0.5s-36 0.5 -42 0.5h-15c-18.667 6.66699 -34.834 22.167 -48.501 46.5s-20.5 49.833 -20.5 76.5
c0 34.667 9.16699 63 27.5 85s42.833 33 73.5 33c38 0 65.333 -18 82 -54l84 40c-34 70.667 -88.667 106 -164 106c-59.333 0 -108.5 -19.833 -147.5 -59.5s-58.5 -90.5 -58.5 -152.5c0 -48.667 12.333 -90.334 37 -125.001c-57.333 -9.33301 -103 -35.333 -137 -78
s-51 -95 -51 -157c0 -74.667 24.333 -133.167 73 -175.5s114.667 -63.5 198 -63.5h171v111h-179c-48 0 -86 11.167 -114 33.5s-42 52.833 -42 91.5c0 87.333 52 131 156 131h163c15.333 -56 48.833 -103.5 100.5 -142.5s108.5 -58.5 170.5 -58.5h26z" />
    <glyph glyph-name="ghaininitialarabic" unicode="&#x63a;" horiz-adv-x="576" arabic-form="initial" 
d="M544 0v113.999h-282c-24 26.667 -36 62.334 -36 107.001c0 38.667 9 71 27 97c20 29.333 48.333 44 85 44c52.667 0 87.667 -25.667 105 -77l96 46c-16.667 40 -42.5 71.5 -77.5 94.5s-74.5 34.5 -118.5 34.5c-68 0 -123.333 -23.333 -166 -70s-64 -103.667 -64 -171
c0 -38 7.33301 -73 22 -105h-145v-114h554zM395 547.999v111h-110v-111h110z" />
    <glyph glyph-name="ghainmedialarabic" unicode="&#x63a;" horiz-adv-x="724" arabic-form="medial" 
d="M735 0l-0.000976562 114h-185c-22.667 0 -37.334 0.666992 -44.001 2c-13.333 2.66699 -26.666 11 -39.999 25c36 24.667 74.333 62 115 112c38.667 48 62.334 85 71.001 111c-80.667 69.333 -175.667 104 -285 104c-94 0 -184.333 -27.333 -271 -82v-106
c38 -9.33301 77.333 -27.333 118 -54c42 -26.667 70.333 -51.334 85 -74.001c-23.333 -15.333 -47.333 -25.666 -72 -30.999c-18 -4.66699 -44 -7 -78 -7h-166v-114h168c74 0 147.667 24 221 72c17.333 -19.333 38.666 -35.333 63.999 -48c30.667 -16 60.334 -24 89.001 -24
h210zM514.999 331c-13.333 -20 -31.999 -42 -55.999 -66c-28 -26.667 -52.333 -45 -73 -55c-50 58 -106.667 98 -170 120c51.333 27.333 102.666 41 153.999 41c52 0 100.333 -13.333 145 -40zM423 548v111h-110v-111h110z" />
    <glyph glyph-name="fehfinalarabic" unicode="&#x641;" horiz-adv-x="1072" arabic-form="final" 
d="M1093 0l0.00195312 114.001h-106c-50.667 0 -81.667 3.66699 -93 11c30.667 24 55 55.333 73 94c16 34 24 69.333 24 106c0 25.333 -4.33301 47 -13 65c-21.333 48 -50 85 -86 111c-38.667 28.667 -83.334 43 -134.001 43c-50 0 -94.5 -13.667 -133.5 -41
s-67.833 -65 -86.5 -113c-8 -20 -12 -43 -12 -69c0 -36.667 8 -71.334 24 -104.001c17.333 -37.333 41.333 -68 72 -92c-11.333 -7.33301 -42.333 -11 -93 -11h-192c-60.667 0 -106.334 10.667 -137.001 32c-38 26 -57 71.667 -57 137v151h-111v-151
c0 -188.667 106 -283 318 -283h186c95.333 -0 169.333 18.333 222 55c50.667 -36.667 125 -55 223 -55h112zM820.002 203.001c-15.333 -11.333 -36.001 -23.666 -62.001 -36.999c-19.333 9.33301 -39.666 21.666 -60.999 36.999c-44 32 -66 74.667 -66 128
c0 35.333 10.333 64.333 31 87c23.333 25.333 55.333 38 96 38s72.667 -12.667 96 -38c21.333 -23.333 32 -52.333 32 -87c0 -54 -22 -96.667 -66 -128zM810.001 622.001v112h-109v-112h109z" />
    <glyph glyph-name="fehinitialarabic" unicode="&#x641;" horiz-adv-x="599" arabic-form="initial" 
d="M567 230c0 66.667 -21 122.334 -63 167.001s-95.667 67 -161 67c-66.667 0 -121 -21.5 -163 -64.5s-63 -98.5 -63 -166.5c0 -42.667 9.66699 -82.334 29 -119.001h-159v-114h356c66.667 0 120.667 21.667 162 65s62 98.333 62 165zM452 230
c0 -37.333 -9.83301 -67.833 -29.5 -91.5s-45.5 -35.5 -77.5 -35.5c-32.667 0 -59.667 12.667 -81 38s-32 56.333 -32 93c0 38.667 9.83301 69.667 29.5 93s45.5 35 77.5 35c33.333 0 60.5 -12.5 81.5 -37.5s31.5 -56.5 31.5 -94.5zM397 548v111h-109v-111h109z" />
    <glyph glyph-name="fehmedialarabic" unicode="&#x641;" horiz-adv-x="642" arabic-form="medial" 
d="M377 622v112h-110v-112h110zM661 0v114.001h-104c-50.667 0 -81.667 3.66699 -93 11c32 24.667 56.333 56 73 94c16 34 24 69.333 24 106c0 67.333 -23.5 120.666 -70.5 159.999s-101.167 59 -162.5 59c-50 0 -94.5 -13.667 -133.5 -41s-67.833 -65 -86.5 -113
c-8 -20 -12 -43 -12 -69c0 -35.333 7.66699 -70 23 -104c17.333 -37.333 42 -68 74 -92c-12.667 -7.33301 -43.667 -11 -93 -11h-117v-114h123c96 -0 169.667 18.333 221 55c52.667 -36.667 127 -55 223 -55h111zM389 203.001c-14 -10.667 -34.333 -23 -61 -37
c-21.333 10 -42 22.333 -62 37c-44 32 -66 74.667 -66 128c0 34.667 10.667 63.667 32 87c23.333 25.333 55.333 38 96 38s72.667 -12.667 96 -38c20.667 -22.667 31 -51.667 31 -87c0 -54 -22 -96.667 -66 -128z" />
    <glyph glyph-name="qaffinalarabic" unicode="&#x642;" horiz-adv-x="809" arabic-form="final" 
d="M826 0l-0.00195312 114h-128v161c0 140.667 -69.333 211 -208 211c-67.333 0 -119.666 -21.167 -156.999 -63.5s-56 -98.5 -56 -168.5c0 -79.333 24 -141.5 72 -186.5s114.667 -67.5 200 -67.5c-44.667 -43.333 -106 -65 -184 -65c-68.667 0 -123.667 21.667 -165 65
s-62 101.333 -62 174v174h-106v-186c0 -92.667 32 -170.5 96 -233.5s144 -94.5 240 -94.5c142.667 0 242.334 55.333 299.001 166h159zM593.998 251v-137.002h-45c-51.333 0 -90.5 11.833 -117.5 35.5s-40.5 58.834 -40.5 105.501s8.5 82.834 25.5 108.501
s41.5 38.5 73.5 38.5c69.333 0 104 -50.333 104 -151zM449.998 545.998v111h-110v-111h110zM639.998 545.998v111h-110v-111h110z" />
    <glyph glyph-name="qafinitialarabic" unicode="&#x642;" horiz-adv-x="599" arabic-form="initial" 
d="M492 549v111h-109v-111h109zM302 549v111h-109v-111h109zM567 230c0 66.667 -21 122.334 -63 167.001s-95.667 67 -161 67c-66.667 0 -121 -21.5 -163 -64.5s-63 -98.5 -63 -166.5c0 -42.667 9.66699 -82.334 29 -119.001h-159v-114h356c66.667 0 120.667 21.667 162 65
s62 98.333 62 165zM452 230c0 -37.333 -9.83301 -67.833 -29.5 -91.5s-45.5 -35.5 -77.5 -35.5c-32.667 0 -59.667 12.667 -81 38s-32 56.333 -32 93c0 38.667 9.83301 69.667 29.5 93s45.5 35 77.5 35c33.333 0 60.5 -12.5 81.5 -37.5s31.5 -56.5 31.5 -94.5z" />
    <glyph glyph-name="qafmedialarabic" unicode="&#x642;" horiz-adv-x="642" arabic-form="medial" 
d="M286 622v112h-110v-112h110zM476 622v112h-110v-112h110zM661 0v114.001h-104c-50.667 0 -81.667 3.66699 -93 11c32 24.667 56.333 56 73 94c16 34 24 69.333 24 106c0 67.333 -23.5 120.666 -70.5 159.999s-101.167 59 -162.5 59c-50 0 -94.5 -13.667 -133.5 -41
s-67.833 -65 -86.5 -113c-8 -20 -12 -43 -12 -69c0 -35.333 7.66699 -70 23 -104c17.333 -37.333 42 -68 74 -92c-12.667 -7.33301 -43.667 -11 -93 -11h-117v-114h123c96 -0 169.667 18.333 221 55c52.667 -36.667 127 -55 223 -55h111zM389 203.001
c-14 -10.667 -34.333 -23 -61 -37c-21.333 10 -42 22.333 -62 37c-44 32 -66 74.667 -66 128c0 34.667 10.667 63.667 32 87c23.333 25.333 55.333 38 96 38s72.667 -12.667 96 -38c20.667 -22.667 31 -51.667 31 -87c0 -54 -22 -96.667 -66 -128z" />
    <glyph glyph-name="kaffinalarabic" unicode="&#x643;" horiz-adv-x="1020" arabic-form="final" 
d="M1042 0l0.000976562 113.999h-199c16.667 18.667 25 57.334 25 116.001v415h-112v-421c0 -36 -4 -61.333 -12 -76c-10.667 -22.667 -33 -34 -67 -34h-340c-60.667 0 -106.334 10.667 -137.001 32c-38 26 -57 71.667 -57 137v171h-111v-171c0 -188.667 106 -283 318 -283
h692zM579.001 388.999v67h-126c-9.33301 11.333 -14 26.333 -14 45c0 38 15 57 45 57c20.667 0 34.667 -10.667 42 -32l47 32c-16.667 40 -47.334 60 -92.001 60c-31.333 0 -57.166 -10.833 -77.499 -32.5s-30.5 -48.5 -30.5 -80.5c0 -16.667 3.66699 -33 11 -49h-54v-67
h249z" />
    <glyph glyph-name="kafinitialarabic" unicode="&#x643;" horiz-adv-x="684" arabic-form="initial" 
d="M652 70c0 156.667 -47.333 266.333 -142 329c-53.333 36.667 -117.333 55 -192 55h-49l135 191h-133l-197 -296h231c73.333 0 131 -25.333 173 -76c36 -44 54 -97 54 -159h-549v-114h669v70z" />
    <glyph glyph-name="kafmedialarabic" unicode="&#x643;" horiz-adv-x="757" arabic-form="medial" 
d="M771 0v114h-120c-8.66699 138.667 -58.667 236 -150 292c-52.667 32 -113.667 48 -183 48h-49l135 191h-133l-197 -296h231c73.333 0 131 -25.333 173 -76c36 -44 54 -97 54 -159h-549v-114h788z" />
    <glyph glyph-name="lamfinalarabic" unicode="&#x644;" horiz-adv-x="799" arabic-form="final" 
d="M827 0v114h-169c4 21.333 6 42 6 62v469h-113v-456c0 -70.667 -19 -129.667 -57 -177s-86.333 -71 -145 -71c-60 0 -109 23.833 -147 71.5s-57 106.5 -57 176.5v85h-113v-98c0 -94 31 -174.5 93 -241.5s136.667 -100.5 224 -100.5c55.333 0 107 14.667 155 44
s86.333 70 115 122h208z" />
    <glyph glyph-name="laminitialarabic" unicode="&#x644;" horiz-adv-x="300" arabic-form="initial" 
d="M268 181l0.000976562 464h-112v-426c0 -35.333 -2.66699 -59.333 -8 -72c-10.667 -22 -34.334 -33 -71.001 -33h-95v-114h118c112 -0 168 60.333 168 181z" />
    <glyph glyph-name="lammedialarabic" unicode="&#x644;" horiz-adv-x="431" arabic-form="medial" 
d="M442 0v113.999h-188c16 18.667 24 57.334 24 116.001v415h-111v-421c0 -36 -4 -61.333 -12 -76c-12 -22.667 -34.333 -34 -67 -34h-104v-114h458z" />
    <glyph glyph-name="meemfinalarabic" unicode="&#x645;" horiz-adv-x="955" arabic-form="final" 
d="M978 0l0.000976562 114.002h-50c-43.333 0 -77.333 13.5 -102 40.5s-48.334 79.167 -71.001 156.5c-12.667 43.333 -38 78.166 -76 104.499s-82 39.5 -132 39.5h-280c-74 0 -131.667 -24 -173 -72s-62 -112.667 -62 -194v-355h112v332c0 54 11 96.667 33 128s52 47 90 47
h82c-18.667 -33.333 -28 -72.333 -28 -117c0 -66.667 21.167 -122.334 63.5 -167.001s96.5 -67 162.5 -67c80.667 0 141.667 30.667 183 92c56.667 -54.667 123 -82 199 -82h49zM656.001 220.002c0 -37.333 -10.001 -67.833 -30.001 -91.5s-45.333 -35.5 -76 -35.5
c-33.333 0 -60.666 12.5 -81.999 37.5s-32 56.5 -32 94.5c0 37.333 9.83301 68 29.5 92s45.5 36 77.5 36c34 0 61.333 -12.667 82 -38s31 -57 31 -95z" />
    <glyph glyph-name="meeminitialarabic" unicode="&#x645;" horiz-adv-x="601" arabic-form="initial" 
d="M568 142c0 66.667 -20.999 122.332 -62.999 166.999s-95.667 67 -161 67c-66.667 0 -121 -21.5 -163 -64.5s-63 -98.167 -63 -165.5c0 -6 0.666992 -15 2 -27l1 -5h-138v-114h180c43.333 -59.333 103.666 -89 180.999 -89c66 0 119.833 21.833 161.5 65.5
s62.5 98.834 62.5 165.501zM453.001 141.998c0 -38 -9.83301 -68.667 -29.5 -92s-45.167 -35 -76.5 -35c-33.333 0 -60.666 12.5 -81.999 37.5s-32 56.5 -32 94.5c0 37.333 10.167 68 30.5 92s46.166 36 77.499 36c32.667 0 59.5 -12.667 80.5 -38s31.5 -57 31.5 -95z" />
    <glyph glyph-name="meemmedialarabic" unicode="&#x645;" horiz-adv-x="621" arabic-form="medial" 
d="M638 0l0.000976562 114h-100v29c0 66 -20.667 121.667 -62 167c-40.667 44.667 -94.667 67 -162 67c-66.667 0 -121 -21.667 -163 -65c-41.333 -43.333 -62 -98.333 -62 -165c0 -14.667 0.333008 -25.667 1 -33h-108v-114h153c43.333 -58 103 -87 179 -87
c77.333 0 137.666 29 180.999 87h143zM423.001 144c0 -36 -8.66602 -65.666 -25.999 -88.999c-19.333 -25.333 -46 -38 -80 -38s-61.333 12.667 -82 38s-31 56.333 -31 93c0 35.333 8.66699 64.666 26 87.999c20 26.667 47 40 81 40c35.333 0 63.666 -13.667 84.999 -41
c18 -24.667 27 -55 27 -91z" />
    <glyph glyph-name="noonfinalarabic" unicode="&#x646;" horiz-adv-x="800" arabic-form="final" 
d="M821 0l-0.00195312 114h-163c4 21.333 6 42 6 62v278h-113v-265c0 -65.333 -16.333 -121.333 -49 -168c-39.333 -53.333 -90.333 -80 -153 -80c-63.333 0 -114.666 26.667 -153.999 80c-33.333 47.333 -50 103.333 -50 168v265h-113v-278c0 -96 31.667 -177.333 95 -244
c61.333 -65.333 135.333 -98 222 -98c56.667 0 109.334 15.333 158.001 46c46.667 28.667 84 68.667 112 120h202zM405.998 546v111h-110v-111h110z" />
    <glyph glyph-name="nooninitialarabic" unicode="&#x646;" horiz-adv-x="301" arabic-form="initial" 
d="M268 181l0.000976562 273h-112v-235c0 -35.333 -2.66699 -59.333 -8 -72c-10.667 -22 -34.334 -33 -71.001 -33h-95v-114h118c112 -0 168 60.333 168 181zM266.001 546v111h-109v-111h109z" />
    <glyph glyph-name="noonmedialarabic" unicode="&#x646;" horiz-adv-x="431" arabic-form="medial" 
d="M446 0v113.999h-192c16 18.667 24 57.334 24 116.001v224h-111v-230c0 -36 -4 -61.333 -12 -76c-12 -22.667 -34.333 -34 -67 -34h-104v-114h462zM278 545.999v111h-110v-111h110z" />
    <glyph glyph-name="hehfinalarabic" unicode="&#x647;" horiz-adv-x="656" arabic-form="final" 
d="M669 0l0.000976562 113.999h-71c-74.667 0 -112 40 -112 120v318h-127c-6 -0.666992 -46 -1 -120 -1c-64 0 -114.5 -21.667 -151.5 -65s-55.5 -102.666 -55.5 -177.999c0 -70 18.667 -126.667 56 -170s87.666 -65 150.999 -65c50 0 92.667 25 128 75
c11.333 -44.667 33.5 -80.5 66.5 -107.5s71.167 -40.5 114.5 -40.5h121zM370.001 318.999c0 -44 -10.6689 -80.5 -32.002 -109.5s-49.666 -43.5 -84.999 -43.5c-32.667 0 -59.167 13.833 -79.5 41.5s-30.5 61.5 -30.5 101.5c0 46.667 11.333 84.167 34 112.5
s53.334 42.5 92.001 42.5h101v-145z" />
    <glyph glyph-name="hehinitialarabic" unicode="&#x647;" horiz-adv-x="751" arabic-form="initial" 
d="M708 0c6.66699 38 10 77.6699 10 119.003c0 125.333 -30.833 231.166 -92.5 317.499s-145.834 140.166 -252.501 161.499l-13 -107c72 -14.667 131.333 -55.334 178 -122.001s70 -142.667 70 -228c0 -12 -0.333008 -21 -1 -27h-132c17.333 42 26 76.667 26 104
c0 59.333 -18.167 106.5 -54.5 141.5s-84.166 52.5 -143.499 52.5c-60 0 -108 -17.667 -144 -53s-54 -82.333 -54 -141c0 -27.333 8.66699 -62 26 -104h-147v-114h724zM395 218.003c0 -30.667 -8.66699 -56.167 -26 -76.5s-39.333 -30.5 -66 -30.5s-48.667 10.167 -66 30.5
s-26 45.833 -26 76.5s8.16699 55.834 24.5 75.501s38.833 29.5 67.5 29.5s51.167 -9.83301 67.5 -29.5s24.5 -44.834 24.5 -75.501z" />
    <glyph glyph-name="hehmedialarabic" unicode="&#x647;" horiz-adv-x="789" arabic-form="medial" 
d="M800 0l-0.00195312 114.001h-89c0 127.333 -30.667 234.333 -92 321s-145.666 141 -252.999 163l-14 -107c72 -14.667 131.333 -54.834 178 -120.501s70 -140.834 70 -225.501c0 -13.333 -0.333008 -23.666 -1 -30.999h-132c17.333 42 26 76.667 26 104
c0 59.333 -18 106.5 -54 141.5s-83.667 52.5 -143 52.5s-107.166 -17.5 -143.499 -52.5s-54.5 -82.167 -54.5 -141.5c0 -27.333 8.66699 -62 26 -104h-138v-114h814zM387.998 218.001c0 -30 -8.66699 -55.335 -26 -76.002s-39.333 -31 -66 -31s-48.667 10.167 -66 30.5
s-26 45.833 -26 76.5s8.16699 55.834 24.5 75.501s38.833 29.5 67.5 29.5c27.333 0 49.5 -9.66699 66.5 -29s25.5 -44.666 25.5 -75.999z" />
    <glyph glyph-name="wawfinalarabic" unicode="&#x648;" horiz-adv-x="621" arabic-form="final" 
d="M631 0l-0.000976562 114h-137v116c0 65.333 -19.5 119.166 -58.5 161.499s-88.833 63.5 -149.5 63.5c-64 0 -117.333 -20.667 -160 -62s-64 -94.666 -64 -159.999s21.333 -120.5 64 -165.5s94.334 -67.5 155.001 -67.5h107c-15.333 -51.333 -52.333 -77 -111 -77v-88
c130 0 202.667 55 218 165h136zM381.999 114h-99.001c-30 0 -55.333 12.167 -76 36.5s-31 53.833 -31 88.5c0 34 9.83301 61.333 29.5 82s45.834 31 78.501 31c28 0 50.5 -9.16699 67.5 -27.5s27.167 -42.833 30.5 -73.5v-137z" />
    <glyph glyph-name="alefmaksurafinalarabic" unicode="&#x649;" horiz-adv-x="896" arabic-form="final" 
d="M909 114l-41.999 0.000976562c-28.667 0 -53.5 8 -74.5 24s-41.833 42.667 -62.5 80c-44 79.333 -110 119 -198 119h-44v-102c4 0.666992 10 1 18 1c31.333 0 56 -9.83301 74 -29.5s27 -45.167 27 -76.5c0 -51.333 -22 -95.5 -66 -132.5s-98 -55.5 -162 -55.5
c-72.667 0 -130 22.667 -172 68s-63 106.666 -63 183.999v99h-112v-112c0 -98 33.167 -180.333 99.5 -247s147.833 -100 244.5 -100c82.667 0 154.167 23 214.5 69s98.5 107.667 114.5 185c23.333 -35.333 48.166 -58.833 74.499 -70.5s69.5 -17.5 129.5 -17.5v114z" />
    <glyph glyph-name="yehfinalarabic" unicode="&#x64a;" horiz-adv-x="896" arabic-form="final" 
d="M909 114l-41.999 0.000976562c-28.667 0 -53.5 8 -74.5 24s-41.833 42.667 -62.5 80c-44 79.333 -110 119 -198 119h-44v-102c4 0.666992 10 1 18 1c31.333 0 56 -9.83301 74 -29.5s27 -45.167 27 -76.5c0 -51.333 -22 -95.5 -66 -132.5s-98 -55.5 -162 -55.5
c-72.667 0 -130 22.667 -172 68s-63 106.666 -63 183.999v99h-112v-112c0 -98 33.167 -180.333 99.5 -247s147.833 -100 244.5 -100c82.667 0 154.167 23 214.5 69s98.5 107.667 114.5 185c23.333 -35.333 48.166 -58.833 74.499 -70.5s69.5 -17.5 129.5 -17.5v114z
M526.001 -386.999v111h-110v-111h110zM337.001 -386.999v111h-110v-111h110z" />
    <glyph glyph-name="yehinitialarabic" unicode="&#x64a;" horiz-adv-x="308" arabic-form="initial" 
d="M276 181l0.000976562 273h-112v-235c0 -35.333 -2.66699 -59.333 -8 -72c-10.667 -22 -34.334 -33 -71.001 -33h-94v-114h118c111.333 -0 167 60.333 167 181zM84.001 -219v112h-110v-112h110zM273.001 -219v112h-110v-112h110z" />
    <glyph glyph-name="yehmedialarabic" unicode="&#x64a;" horiz-adv-x="432" arabic-form="medial" 
d="M443 0v113.999h-188c16.667 18.667 25 57.334 25 116.001v224h-111v-230c0 -36 -4 -61.333 -12 -76c-12 -22.667 -34.667 -34 -68 -34h-107v-114h461zM276 -219.001v112h-110v-112h110zM87 -219.001v112h-110v-112h110z" />
    <glyph glyph-name=".notdef" horiz-adv-x="500" 
d="M63 0h375v750h-375v-750zM125 63v625h250v-625h-250z" />
    <glyph glyph-name="space" unicode=" " horiz-adv-x="240" 
 />
    <glyph glyph-name="exclam" unicode="!" horiz-adv-x="230" 
d="M157 402v248.999h-121v-249c0 -0.666992 0.333008 -3.66699 1 -9s2 -15.166 4 -29.499l6 -41.5l23 -160h52l23 160l7 40c3.33301 16.667 5 30 5 40zM157 -0.000976562v127h-121v-127h121z" />
    <glyph glyph-name="quotedbl" unicode="&#x22;" horiz-adv-x="251" 
d="M103 686h-82l27 -272h30zM228 686h-82l27 -272h30z" />
    <glyph glyph-name="dollar" unicode="$" horiz-adv-x="575" 
d="M542 160c0 58.667 -25 102.998 -75 132.998c-28 16.667 -78.333 33.334 -151 50.001v156c25.333 -3.33301 50 -9.66602 74 -18.999c16 -6 36.333 -15 61 -27l62 74c-63.333 38 -129 60.333 -197 67v108h-45v-107c-70 -7.33301 -121.333 -22.333 -154 -45
c-43.333 -31.333 -65 -80.333 -65 -147c0 -86 73.333 -143.333 220 -172v-173c-58.667 5.33301 -116.667 23.333 -174 54l-66 -77c63.333 -40.667 143.333 -66 240 -76v-113h44v113c150.667 14.667 226 81.667 226 201zM272 349.998c-33.333 7.33301 -55.333 14 -66 20
c-24 12 -36 30 -36 54c0 26.667 11 45.667 33 57c14.667 7.33301 37.667 13 69 17v-148zM425 147.998c0 -29.333 -11.666 -51.667 -34.999 -67c-12.667 -8 -37.334 -15.667 -74.001 -23v164c72.667 -10 109 -34.667 109 -74z" />
    <glyph glyph-name="quotesingle" unicode="'" horiz-adv-x="126" 
d="M103 686h-82l27 -272h30z" />
    <glyph glyph-name="parenleft" unicode="(" horiz-adv-x="310" 
d="M310 -97c-50 40 -89.667 95.999 -119 167.999c-28.667 70 -43 146.667 -43 230c0 123.333 30 226.333 90 309c16 22 39.333 49 70 81l-42 47c-52 -39.333 -96.333 -84 -133 -134c-65.333 -91.333 -98 -195.666 -98 -312.999c0 -168 70.667 -310 212 -426l22 -16z" />
    <glyph glyph-name="parenright" unicode=")" horiz-adv-x="368" 
d="M336 295c0 120 -35.667 226.668 -107 320.001c-30.667 38.667 -65.667 74 -105 106c-12 9.33301 -19 15 -21 17l-41 -55c50.667 -40.667 90 -96.667 118 -168c28.667 -70 43 -146.333 43 -229c0 -123.333 -30.333 -226.666 -91 -309.999c-14 -20 -37.333 -46.667 -70 -80
l43 -47c56.667 43.333 100.667 87.666 132 132.999c66 93.333 99 197.666 99 312.999z" />
    <glyph glyph-name="at" unicode="*" horiz-adv-x="342" 
d="M310 136v49l-111 -11l63 95l-43 29l-48 -110l-46 110l-47 -30l64 -95l-110 12v-51l111 7l-63 -96l45 -29l46 108l49 -103l47 24l-66 97z" />
    <glyph glyph-name="plus" unicode="+" horiz-adv-x="636" 
d="M566 240v95h-193v200h-112v-200h-191v-95h191v-199h112v199h193z" />
    <glyph glyph-name="hyphen" unicode="-" horiz-adv-x="443" 
d="M373 230v100h-303v-100h303z" />
    <glyph glyph-name="period" unicode="." horiz-adv-x="207" 
d="M147 0v126h-122v-126h122z" />
    <glyph glyph-name="slash" unicode="/" horiz-adv-x="419" 
d="M419 651h-110l-309 -651h110z" />
    <glyph glyph-name="zero" unicode="0" horiz-adv-x="280" 
d="M210 103v155l-140 69v-154z" />
    <glyph glyph-name="one" unicode="1" horiz-adv-x="251" 
d="M181 0v632l-111 -81v-551h111z" />
    <glyph glyph-name="two" unicode="2" horiz-adv-x="526" 
d="M456 548v98c-33.333 -0.666992 -69.333 -1 -108 -1c-185.333 0 -278 -123 -278 -369v-276h111v336c0 54 13.667 101.667 41 143c30.667 46 72.667 69 126 69h108z" />
    <glyph glyph-name="three" unicode="3" horiz-adv-x="568" 
d="M531 540v101.001h-108v-75c0 -21.333 -0.666992 -37.5 -2 -48.5s-5 -22.667 -11 -35s-15.667 -21 -29 -26s-31.333 -7.5 -54 -7.5c22 7.33301 33 37.666 33 90.999v101h-88v-75c0 -38 -5.66699 -64.667 -17 -80s-36 -23 -74 -23v178h-111v-641h111v361h139
c61.333 0 110.333 14 147 42c42.667 32 64 77.667 64 137z" />
    <glyph glyph-name="four" unicode="4" horiz-adv-x="496" 
d="M447 0l-0.000976562 93.001h-181c-31.333 0 -56.5 9.16699 -75.5 27.5s-28.5 42.5 -28.5 72.5c0 33.333 9.5 59.5 28.5 78.5s44.167 28.5 75.5 28.5h58v75h-54c-26 0 -48 8.33301 -66 25s-27 37 -27 61c0 28.667 7.83301 51.5 23.5 68.5s38.834 25.5 69.501 25.5h155v90
h-174c-54.667 0 -99.5 -14.333 -134.5 -43s-52.5 -66.334 -52.5 -113.001c0 -80 40.667 -132 122 -156c-91.333 -17.333 -137 -67.333 -137 -150c0 -54 20.5 -98 61.5 -132s92.833 -51 155.5 -51h181z" />
    <glyph glyph-name="five" unicode="5" horiz-adv-x="556" 
d="M505 283c0 68.667 -32.665 137.999 -97.998 207.999c-52.667 56.667 -97.667 91.667 -135 105c-34.667 -12.667 -78.334 -49 -131.001 -109c-64 -72.667 -96 -141 -96 -205c0 -75.333 20.667 -134.666 62 -177.999s97.666 -65 168.999 -65
c70.667 0 126.5 22.333 167.5 67s61.5 103.667 61.5 177zM391.002 278.999c0 -42.667 -10.667 -76.5 -32 -101.5s-50 -37.5 -86 -37.5c-36.667 0 -65.667 12.5 -87 37.5s-32 58.833 -32 101.5c0 34 13.333 73.667 40 119s53 75 79 89c28 -15.333 54.667 -45 80 -89
s38 -83.667 38 -119z" />
    <glyph glyph-name="six" unicode="6" horiz-adv-x="526" 
d="M70 548v98c33.333 -0.666992 69.333 -1 108 -1c185.333 0 278 -123 278 -369v-276h-111v336c0 54 -13.667 101.667 -41 143c-30.667 46 -72.667 69 -126 69h-108z" />
    <glyph glyph-name="seven" unicode="7" horiz-adv-x="549" 
d="M349 0l150 645h-122l-98 -521l-115 521h-114l153 -645h146z" />
    <glyph glyph-name="eight" unicode="8" horiz-adv-x="549" 
d="M499 0l-150 645h-146l-153 -645h114l115 522l98 -522h122z" />
    <glyph glyph-name="nine" unicode="9" horiz-adv-x="558" 
d="M488 419c0 64 -21.668 117.667 -65.001 161s-97.666 65 -162.999 65s-118.333 -21 -159 -63c-40.667 -40.667 -61 -94 -61 -160c0 -69.333 17.333 -125.333 52 -168c39.333 -47.333 95.333 -71 168 -71c48.667 0 88 17.667 118 53v-236h110v419zM373.999 411
c0 -34 -8.33398 -62.667 -25.001 -86c-19.333 -27.333 -45.666 -41 -78.999 -41s-60.666 13.667 -81.999 41c-18 24.667 -27 54.667 -27 90s8.33301 64.333 25 87c19.333 27.333 45.666 41 78.999 41c34 0 61.333 -14 82 -42c18 -24.667 27 -54.667 27 -90z" />
    <glyph glyph-name="colon" unicode=":" horiz-adv-x="217" 
d="M147 0v126h-122v-126h122zM147 219v127h-122v-127h122z" />
    <glyph glyph-name="less" unicode="&#x3c;" horiz-adv-x="542" 
d="M477 0l-234 233l234 234h-119l-234 -234l234 -233h119z" />
    <glyph glyph-name="equal" unicode="=" horiz-adv-x="596" 
d="M540 326v96h-485v-96h485zM540 136v97h-485v-97h485z" />
    <glyph glyph-name="greater" unicode="&#x3e;" horiz-adv-x="542" 
d="M418 223l-234 234h-109l234 -234l-234 -233h109z" />
    <glyph glyph-name="bracketleft" unicode="[" horiz-adv-x="254" 
d="M221 -133v67h-89v717h89v67h-189v-851h189z" />
    <glyph glyph-name="backslash" unicode="\" horiz-adv-x="479" 
d="M446 0l-309 651h-109l309 -651h109z" />
    <glyph glyph-name="bracketright" unicode="]" horiz-adv-x="254" 
d="M221 -133v851h-189v-66h90v-717h-90v-68h189z" />
    <glyph glyph-name="underscore" unicode="_" horiz-adv-x="382" 
d="M365 -100v84h-349v-84h349z" />
    <glyph glyph-name="braceleft" unicode="{" horiz-adv-x="375" 
d="M335 -124c0 8 -0.333984 13.332 -1.00098 15.999c-56 0.666992 -95 7.66699 -117 21s-31 38 -27 74v202c0 35.333 -24 68.666 -72 99.999c48 36.667 72 69.667 72 99v202c0 40.667 10 66.667 30 78c18 14 55.667 21 113 21v9c0 12.667 -0.666992 22.334 -2 29.001
c-75.333 0 -129.333 -10.667 -162 -32s-49 -56.333 -49 -105v-202c0 -19.333 -7 -38 -21 -56c-13.333 -17.333 -33.666 -31.666 -60.999 -42.999h-2c56 -36.667 84 -70 84 -100v-202c0 -44.667 14.333 -77 43 -97c26 -22 73.333 -33 142 -33l29 2c0.666992 3.33301 1 9 1 17
z" />
    <glyph glyph-name="bar" unicode="|" horiz-adv-x="132" 
d="M34 -141h63v866h-63v-866z" />
    <glyph glyph-name="braceright" unicode="}" horiz-adv-x="375" 
d="M35 -124c0 8 0.333984 13.332 1.00098 15.999c56 0.666992 95 7.66699 117 21s31 38 27 74v202c0 35.333 24 68.666 72 99.999c-48 36.667 -72 69.667 -72 99v202c0 40.667 -10 66.667 -30 78c-18 14 -55.667 21 -113 21v9c0 12.667 0.666992 22.334 2 29.001
c75.333 0 129.333 -10.667 162 -32s49 -56.333 49 -105v-202c0 -19.333 7 -38 21 -56c13.333 -17.333 33.666 -31.666 60.999 -42.999h2c-56 -36.667 -84 -70 -84 -100v-202c0 -44.667 -14.333 -77 -43 -97c-26 -22 -73.333 -33 -142 -33l-29 2
c-0.666992 3.33301 -1 9 -1 17z" />
    <glyph glyph-name="nbspace" unicode="&#xa0;" horiz-adv-x="623" 
 />
    <glyph glyph-name="guillemotleft" unicode="&#xab;" horiz-adv-x="363" 
d="M313 33c-24 28 -39.667 50.334 -47 67.001c-10.667 21.333 -16 48.666 -16 81.999c0 62 21 112 63 150l-37 38c-67.333 -49.333 -101 -110.333 -101 -183s33 -135.667 99 -189zM167 33.001c-24 27.333 -40 49.668 -48 67.001c-10.667 21.333 -16 48.666 -16 81.999
c0 62 21.333 112 64 150l-38 38c-66.667 -48.667 -100 -109.667 -100 -183c0 -72.667 32.667 -135.667 98 -189z" />
    <glyph glyph-name="guillemotright" unicode="&#xbb;" horiz-adv-x="407" 
d="M374 187c0 72.667 -33 133.666 -99 182.999l-38 -38c42 -38 63 -88 63 -150c0 -32.667 -5 -60 -15 -82c-8.66699 -17.333 -24.667 -39.666 -48 -66.999l40 -35c64.667 52.667 97 115.667 97 189zM229 186.999c0 72.667 -33.667 133.665 -101 182.998l-38 -38
c42.667 -38 64 -88 64 -150c0 -33.333 -5.33301 -60.666 -16 -81.999c-8 -17.333 -24 -39.666 -48 -66.999l40 -35c66 53.333 99 116.333 99 189z" />
    <glyph glyph-name="multiply" unicode="&#xd7;" horiz-adv-x="534" 
d="M464 141l-133 142l133 142l-64 68l-133 -142l-132 142l-65 -68l133 -142l-133 -142l65 -68l132 142l133 -142z" />
    <glyph glyph-name="divide" unicode="&#xf7;" horiz-adv-x="662" 
d="M387 396v124h-112v-124h112zM592 237v103h-522v-103h522zM386 57v124h-111v-124h111z" />
    <glyph glyph-name="commaarabic" unicode="&#x60c;" horiz-adv-x="208" 
d="M148 0v126h-58c0 46 16.667 71 50 75v53c-36.667 -8 -63 -18 -79 -30c-24 -18.667 -36 -47 -36 -85v-139h123z" />
    <glyph glyph-name="semicolonarabic" unicode="&#x61b;" horiz-adv-x="208" 
d="M147 0v126h-122v-126h122zM148 221l-0.000976562 127h-58c0 46 16.667 70.667 50 74v54c-37.333 -8 -63.666 -18.333 -78.999 -31c-24 -18 -36 -46 -36 -84v-140h123z" />
    <glyph glyph-name="questionarabic" unicode="&#x61f;" horiz-adv-x="509" 
d="M483 449c-3.33301 38.667 -9.00195 67.334 -17.002 86.001c-32.667 84.667 -102.667 127 -210 127c-59.333 0 -109.666 -16.667 -150.999 -50c-44 -34.667 -66 -82.334 -66 -143.001c0 -56.667 22.667 -103.667 68 -141l35 -25c25.333 -16 42 -31.333 50 -46
c7.33301 -13.333 11 -34.333 11 -63c0 -14 -0.333008 -22.667 -1 -26h109v23c0 65.333 -8.66699 110.666 -26 135.999c-9.33301 13.333 -25 28 -47 44c-27.333 18.667 -43.666 31.334 -48.999 38.001c-15.333 17.333 -23 37.333 -23 60c0 24.667 9.66699 45.5 29 62.5
s42 25.5 68 25.5c33.333 0 59.833 -11.167 79.5 -33.5s29.5 -51.5 29.5 -87.5zM316.998 0v126h-122v-126h122z" />
    <glyph glyph-name="tatweelarabic" unicode="&#x640;" horiz-adv-x="198" 
d="M206 0v114h-221v-114h221z" />
    <glyph glyph-name="maddaabove" unicode="&#x653;" 
d="M196 731l-9 35c-14.667 -18.667 -30 -28 -46 -28c-10.667 0 -28.334 8.33301 -53.001 25s-42.667 25 -54 25c-18 0 -35 -14 -51 -42l9 -34c13.333 18 27.333 27 42 27c16 0 35.333 -8.33301 58 -25s39.334 -25 50.001 -25c18 0 36 14 54 42z" />
    <glyph glyph-name="hamzaabove" unicode="&#x654;" 
d="M180 697v46h-81c-12 7.33301 -18 19.666 -18 36.999c0 10 3.16699 18.833 9.5 26.5s14.5 11.5 24.5 11.5c16 0 25.333 -7.33301 28 -22l36 19c-14 29.333 -35 44 -63 44c-22 0 -40.5 -7.66699 -55.5 -23s-22.5 -34.666 -22.5 -57.999c0 -4 3 -15.667 9 -35h-40v-46h173z
" />
    <glyph glyph-name="hamzabelow" unicode="&#x655;" 
d="M184 -205l-0.000976562 45.999h-81c-12 7.33301 -18 20 -18 38c0 10.667 3.16699 19.834 9.5 27.501s14.5 11.5 24.5 11.5c16 0 25.333 -7.33301 28 -22l36 17c-14 30.667 -35 46 -63 46c-21.333 0 -39.666 -8 -54.999 -24s-23 -35.667 -23 -59c0 -4 3 -15.667 9 -35h-40
v-46h173z" />
    <glyph glyph-name="zeroarabic" unicode="&#x660;" horiz-adv-x="280" 
d="M210 103v155l-140 69v-154z" />
    <glyph glyph-name="onearabic" unicode="&#x661;" horiz-adv-x="251" 
d="M181 0v632l-111 -81v-551h111z" />
    <glyph glyph-name="twoarabic" unicode="&#x662;" horiz-adv-x="526" 
d="M456 548v98c-33.333 -0.666992 -69.333 -1 -108 -1c-185.333 0 -278 -123 -278 -369v-276h111v336c0 54 13.667 101.667 41 143c30.667 46 72.667 69 126 69h108z" />
    <glyph glyph-name="threearabic" unicode="&#x663;" horiz-adv-x="568" 
d="M531 540l-0.00195312 101h-108v-75c0 -20.667 -0.666992 -36.167 -2 -46.5s-4.66602 -21 -9.99902 -32s-14 -18.5 -26 -22.5s-28 -6 -48 -6c15.333 10 23 37 23 81v101h-98v-75c0 -37.333 -5.16699 -63.833 -15.5 -79.5s-32.166 -23.5 -65.499 -23.5v178h-111v-641h111
v361h139c61.333 0 110.333 14 147 42c42.667 32 64 77.667 64 137z" />
    <glyph glyph-name="fourarabic" unicode="&#x664;" horiz-adv-x="496" 
d="M447 0l-0.000976562 93.001h-181c-31.333 0 -56.5 9.16699 -75.5 27.5s-28.5 42.5 -28.5 72.5c0 33.333 9.5 59.5 28.5 78.5s44.167 28.5 75.5 28.5h58v75h-54c-26 0 -48 8.33301 -66 25s-27 37 -27 61c0 28.667 7.83301 51.5 23.5 68.5s38.834 25.5 69.501 25.5h155v90
h-174c-54.667 0 -99.5 -14.333 -134.5 -43s-52.5 -66.334 -52.5 -113.001c0 -80 40.667 -132 122 -156c-91.333 -17.333 -137 -67.333 -137 -150c0 -54 20.5 -98 61.5 -132s92.833 -51 155.5 -51h181z" />
    <glyph glyph-name="fivearabic" unicode="&#x665;" horiz-adv-x="556" 
d="M505 283c0 68.667 -32.665 137.999 -97.998 207.999c-52.667 56.667 -97.667 91.667 -135 105c-34.667 -12.667 -78.334 -49 -131.001 -109c-64 -72.667 -96 -141 -96 -205c0 -75.333 20.667 -134.666 62 -177.999s97.666 -65 168.999 -65
c70.667 0 126.5 22.333 167.5 67s61.5 103.667 61.5 177zM391.002 278.999c0 -42.667 -10.667 -76.5 -32 -101.5s-50 -37.5 -86 -37.5c-36.667 0 -65.667 12.5 -87 37.5s-32 58.833 -32 101.5c0 34 13.333 73.667 40 119s53 75 79 89c28 -15.333 54.667 -45 80 -89
s38 -83.667 38 -119z" />
    <glyph glyph-name="sixarabic" unicode="&#x666;" horiz-adv-x="526" 
d="M70 548v98c33.333 -0.666992 69.333 -1 108 -1c185.333 0 278 -123 278 -369v-276h-111v336c0 54 -13.667 101.667 -41 143c-30.667 46 -72.667 69 -126 69h-108z" />
    <glyph glyph-name="sevenarabic" unicode="&#x667;" horiz-adv-x="549" 
d="M349 0l150 645h-122l-98 -521l-115 521h-114l153 -645h146z" />
    <glyph glyph-name="eightarabic" unicode="&#x668;" horiz-adv-x="549" 
d="M499 0l-150 645h-146l-153 -645h114l115 522l98 -522h122z" />
    <glyph glyph-name="ninearabic" unicode="&#x669;" horiz-adv-x="558" 
d="M488 419c0 64 -21.668 117.667 -65.001 161s-97.666 65 -162.999 65s-118.333 -21 -159 -63c-40.667 -40.667 -61 -94 -61 -160c0 -69.333 17.333 -125.333 52 -168c39.333 -47.333 95.333 -71 168 -71c48.667 0 88 17.667 118 53v-236h110v419zM373.999 411
c0 -34 -8.33398 -62.667 -25.001 -86c-19.333 -27.333 -45.666 -41 -78.999 -41s-60.666 13.667 -81.999 41c-18 24.667 -27 54.667 -27 90s8.33301 64.333 25 87c19.333 27.333 45.666 41 78.999 41c34 0 61.333 -14 82 -42c18 -24.667 27 -54.667 27 -90z" />
    <glyph glyph-name="percentarabic" unicode="&#x66a;" horiz-adv-x="430" 
d="M187 526v92h-96v-92h96zM397 646h-99l-266 -646h99zM346 32v92h-97v-92h97z" />
    <glyph glyph-name="decimalseparatorarabic" unicode="&#x66b;" horiz-adv-x="189" 
d="M24 149v-125.999h58c0 -46 -16.667 -71 -50 -75v-53c36.667 8 63 18 79 30c24 19.333 36 47.666 36 84.999v139h-123z" />
    <glyph glyph-name="thousandsseparatorarabic" unicode="&#x66c;" horiz-adv-x="189" 
d="M24 149v-125.999h58c0 -46 -16.667 -71 -50 -75v-53c36.667 8 63 18 79 30c24 19.333 36 47.666 36 84.999v139h-123z" />
    <glyph glyph-name="asteriskarabic" unicode="&#x66d;" horiz-adv-x="500" 
d="M447 245l-9 20l-138 -20l-38 143h-20l-39 -143l-138 21l-9 -21l117 -93l-52 -139l17 -13l114 94l113 -94l17 15l-51 138z" />
    <glyph glyph-name="superscriptalef" unicode="&#x670;" 
d="M23 744h34v174h-34v-174z" />
    <glyph glyph-name="extendedarabicindicdigitzero" unicode="&#x6f0;" horiz-adv-x="280" 
d="M210 103v155l-140 69v-154z" />
    <glyph glyph-name="extendedarabicindicdigitone" unicode="&#x6f1;" horiz-adv-x="251" 
d="M181 0v632l-111 -81v-551h111z" />
    <glyph glyph-name="extendedarabicindicdigittwo" unicode="&#x6f2;" horiz-adv-x="526" 
d="M456 548v98c-33.333 -0.666992 -69.333 -1 -108 -1c-185.333 0 -278 -123 -278 -369v-276h111v336c0 54 13.667 101.667 41 143c30.667 46 72.667 69 126 69h108z" />
    <glyph glyph-name="extendedarabicindicdigitthree" unicode="&#x6f3;" horiz-adv-x="568" 
d="M531 540l-0.00195312 101h-108v-75c0 -20.667 -0.666992 -36.167 -2 -46.5s-4.66602 -21 -9.99902 -32s-14 -18.5 -26 -22.5s-28 -6 -48 -6c15.333 10 23 37 23 81v101h-98v-75c0 -37.333 -5.16699 -63.833 -15.5 -79.5s-32.166 -23.5 -65.499 -23.5v178h-111v-641h111
v361h139c61.333 0 110.333 14 147 42c42.667 32 64 77.667 64 137z" />
    <glyph glyph-name="extendedarabicindicdigitfour" unicode="&#x6f4;" horiz-adv-x="496" 
d="M447 0l-0.000976562 93.001h-181c-31.333 0 -56.5 9.16699 -75.5 27.5s-28.5 42.5 -28.5 72.5c0 33.333 9.5 59.5 28.5 78.5s44.167 28.5 75.5 28.5h58v75h-54c-26 0 -48 8.33301 -66 25s-27 37 -27 61c0 28.667 7.83301 51.5 23.5 68.5s38.834 25.5 69.501 25.5h155v90
h-174c-54.667 0 -99.5 -14.333 -134.5 -43s-52.5 -66.334 -52.5 -113.001c0 -80 40.667 -132 122 -156c-91.333 -17.333 -137 -67.333 -137 -150c0 -54 20.5 -98 61.5 -132s92.833 -51 155.5 -51h181z" />
    </font>
</defs>
</svg>
