<?xml version="1.0" standalone="no"?>
<!DOCTYPE svg PUBLIC "-//W3C//DTD SVG 1.1//EN" "http://www.w3.org/Graphics/SVG/1.1/DTD/svg11.dtd" >
<svg>
<metadata>
Created by FontForge 20090914 at Mon Oct  7 21:55:12 2013
 By www-data
Copyright &#194;&#169; 2006 M. Hacen, All Rights Reserved / www.hacen.net
</metadata>
<defs>
<font id="HacenLinerScreen" horiz-adv-x="990" >
  <font-face 
    font-family="Hacen Liner Screen"
    font-weight="400"
    font-stretch="normal"
    units-per-em="2048"
    panose-1="2 0 0 0 0 0 0 0 0 0"
    ascent="1638"
    descent="-410"
    x-height="1102"
    cap-height="1449"
    bbox="-246 -832.996 2701 2134.08"
    underline-thickness="100"
    underline-position="-700"
    unicode-range="U+0020-U+FEFF"
  />
<missing-glyph horiz-adv-x="582" 
d="M5 1257h485v-1107h-485v1107zM76 1186v-966h343v966h-343z" />
    <glyph glyph-name=".notdef" unicode="&#x640;&#x651;&#x650;" horiz-adv-x="582" 
d="M5 1257h485v-1107h-485v1107zM76 1186v-966h343v966h-343z" />
    <glyph glyph-name="shaddawithfathatanisolated" unicode="&#x651;&#x64b;" horiz-adv-x="425" 
d="M398 1823c3.33301 -5.33301 5.16211 -9.50195 5.49512 -12.502s0.166016 -5.83301 -0.500977 -8.5s-1.16699 -5.5 -1.5 -8.5s0.833984 -7.5 3.50098 -13.5c8 -21.333 12.833 -43.333 14.5 -66s0 -43.834 -5 -63.501s-13.5 -36.5 -25.5 -50.5s-27.667 -22.667 -47 -26
c-16.667 -2.66699 -29.667 -1.66699 -39 3s-19.666 10.667 -30.999 18c-2.66699 -7.33301 -6.16699 -15.833 -10.5 -25.5s-10.333 -19.167 -18 -28.5s-16.667 -17.833 -27 -25.5s-22.833 -13.167 -37.5 -16.5c-22.667 -6 -41.334 -7.16699 -56.001 -3.5
s-26.334 10.334 -35.001 20.001s-14.5 21.334 -17.5 35.001s-4.5 27.167 -4.5 40.5c0 14 1.5 27.167 4.5 39.5s6.16699 22.166 9.5 29.499c0 -2 1.5 -1.5 4.5 1.5s6.16699 6.5 9.5 10.5s6.66602 7.5 9.99902 10.5s5 3.5 5 1.5c-3.33301 -14 -5.66602 -27.333 -6.99902 -40
s-0.666016 -23.5 2.00098 -32.5s8.33398 -15.333 17.001 -19s21.334 -3.83398 38.001 -0.500977c18.667 3.33301 32.334 11 41.001 23s14.5 25.5 17.5 40.5s4.83301 30.333 5.5 46s2.66699 28.834 6 39.501c0.666992 -2 2.16699 -1.66699 4.5 1l7.5 9
c2.66699 3.33301 5.33398 6.5 8.00098 9.5s4.66699 3.5 6 1.5c-2 -20 0.166992 -38 6.5 -54s15 -28.167 26 -36.5s23.667 -12.166 38 -11.499s28.5 7.66699 42.5 21c2.66699 6.66699 3.33398 14.334 2.00098 23.001s-4.16602 17.167 -8.49902 25.5s-9.5 16.5 -15.5 24.5
s-12 15 -18 21c3.33301 6.66699 8.16602 11.834 14.499 15.501s13 7 20 10s13.667 6.16699 20 9.5s11.5 7.66602 15.5 12.999zM400.996 1903l-340 -193l17 91l340 193zM389.996 2031l-340 -193l17 91l340 193z" />
    <glyph glyph-name="shaddawithdammatanisolated" unicode="&#x651;&#x64c;" horiz-adv-x="484" arabic-form="isolated" 
d="M396 1846c8.66699 -10 16.1689 -20.9971 22.502 -32.9971s12.166 -24 17.499 -36c7.33301 -21.333 11.666 -43.333 12.999 -66s-0.666992 -43.834 -6 -63.501s-14.166 -36.334 -26.499 -50.001s-28.166 -21.834 -47.499 -24.501c-16.667 -2.66699 -29.5 -1.66699 -38.5 3
s-19.167 11 -30.5 19c-2.66699 -7.33301 -6.33398 -15.666 -11.001 -24.999s-10.834 -18.666 -18.501 -27.999s-16.834 -17.833 -27.501 -25.5s-23.334 -13.167 -38.001 -16.5c-22.667 -5.33301 -41.5 -4.83301 -56.5 1.5s-27 16.166 -36 29.499s-15.333 29.166 -19 47.499
s-5.66699 36.333 -6 54s0.833984 33.834 3.50098 48.501s5.66699 25.667 9 33c0 -2 1.66699 -1.5 5 1.5s6.83301 6.5 10.5 10.5s7 7.33301 10 10s4.5 3 4.5 1c-3.33301 -14 -5.5 -29.833 -6.5 -47.5s0.333008 -34.167 4 -49.5s10.167 -27.833 19.5 -37.5
s22.666 -12.834 39.999 -9.50098c18.667 3.33301 32.334 11 41.001 23s14.667 25.5 18 40.5s5.5 30.167 6.5 45.5s3.16699 28.333 6.5 39c0.666992 -2 2.16699 -1.66699 4.5 1l8 9c3 3.33301 5.66699 6.5 8 9.5s4.16602 3.5 5.49902 1.5c-2 -20 0 -38 6 -54
s14.5 -28.333 25.5 -37s23.667 -12.834 38 -12.501s28.833 7.16602 43.5 20.499c2.66699 6.66699 3.33398 14.334 2.00098 23.001s-4.16602 17.334 -8.49902 26.001s-9.33301 17 -15 25s-11.5 15 -17.5 21c7.33301 13.333 13.833 25.833 19.5 37.5zM425.002 1928
c-4.66699 -8 -11.667 -17.5 -21 -28.5s-20.333 -22.333 -33 -34s-26.667 -22.667 -42 -33s-31.333 -19 -48 -26s-33.334 -11.333 -50.001 -13s-32.667 0.5 -48 6.5c-15.333 6.66699 -23.666 15.667 -24.999 27s-0.333008 23.333 3 36s7 24.667 11 36
s3.33301 20.166 -2 26.499s-17.5 9.33301 -36.5 9s-49.167 -6.16602 -90.5 -17.499c13.333 15.333 28.833 27.833 46.5 37.5s35.334 15.834 53.001 18.501s34.167 2.16699 49.5 -1.5s27.166 -10.5 35.499 -20.5s11.833 -23.5 10.5 -40.5s-9.33301 -37.5 -24 -61.5
c32 11.333 61.833 24 89.5 38s52.834 31.667 75.501 53c-28.667 6 -49.667 15 -63 27s-21.166 25.333 -23.499 40s0.333984 29.667 8.00098 45s18.167 29.166 31.5 41.499s28.666 22.333 45.999 30s34.666 11.167 51.999 10.5c14.667 -1.33301 24.5 -8.33301 29.5 -21
s7.33301 -27 7 -43s-2.33301 -31.5 -6 -46.5s-6.83398 -25.5 -9.50098 -31.5l40 -10l-18 -65zM403.002 2065c-3.33301 3.33301 -7.33496 5.49902 -12.002 6.49902s-8.66699 1.5 -12 1.5c-9.33301 0.666992 -17.166 -1.66602 -23.499 -7
c-6.33301 -5.33301 -9.5 -11.333 -9.5 -18c-1.33301 -6.66699 -0.166016 -12.167 3.50098 -16.5s8.5 -8.16602 14.5 -11.499s13.167 -6.5 21.5 -9.5l25.5 -9.5c1.33301 11.333 2 21.333 2 30c0 7.33301 -0.666992 14.5 -2 21.5s-4 11.833 -8 14.5v-2z" />
    <glyph glyph-name="shaddawithkasratanisolated" unicode="&#x651;&#x64d;" horiz-adv-x="425" arabic-form="isolated" 
d="M370 2050c8 -10 15.167 -21.1719 21.5 -33.5049s11.833 -24.5 16.5 -36.5c6.66699 -21.333 10.334 -43.333 11.001 -66s-1.83301 -43.667 -7.5 -63s-14.834 -35.666 -27.501 -48.999s-28.667 -21.333 -48 -24c-16.667 -2 -29.5 -0.666992 -38.5 4
s-19.167 11.334 -30.5 20.001c-2.66699 -7.33301 -6.5 -15.666 -11.5 -24.999s-11.333 -18.5 -19 -27.5s-17 -17.167 -28 -24.5s-23.833 -12.666 -38.5 -15.999c-22.667 -4.66699 -41.5 -3.66699 -56.5 3s-26.667 17 -35 31s-14.166 30 -17.499 48
s-4.83301 35.833 -4.5 53.5s1.83301 34 4.5 49s6 25.833 10 32.5c0 -2 1.5 -1.5 4.5 1.5l10.5 10.5c4 4 7.5 7.33301 10.5 10s4.5 3 4.5 1c-4 -14 -6.66699 -30 -8 -48s-0.333008 -34.667 3 -50s9.5 -27.833 18.5 -37.5s22.167 -13.167 39.5 -10.5
c19.333 2.66699 33.5 9.66699 42.5 21s15.333 24.5 19 39.5s6 30.333 7 46s3.5 28.834 7.5 39.501c0.666992 -2 2.33398 -1.83301 5.00098 0.5s5.5 5.33301 8.5 9l8 9.5c2.33301 2.66699 4.16602 3 5.49902 1c-2.66699 -19.333 -1.33398 -37.166 3.99902 -53.499
s13.333 -29 24 -38s23 -13.5 37 -13.5c14.667 0 29.667 6.66699 45 20c3.33301 6.66699 4.33301 14.167 3 22.5s-4 16.833 -8 25.5s-8.83301 17.167 -14.5 25.5s-11.167 15.5 -16.5 21.5l20 37c6 11.333 12.333 22.666 19 33.999zM391 1684l-350 -141l33 75l350 141z
M381 1579l-350 -141l33 75l350 141z" />
    <glyph glyph-name="shaddawithfathaisolated" unicode="&#x651;&#x64e;" horiz-adv-x="425" arabic-form="isolated" 
d="M398 1823c3.33301 -5.33301 5.16211 -9.50195 5.49512 -12.502s0.166016 -5.83301 -0.500977 -8.5s-1.16699 -5.5 -1.5 -8.5s0.833984 -7.5 3.50098 -13.5c8 -21.333 12.833 -43.333 14.5 -66s0 -43.834 -5 -63.501s-13.5 -36.5 -25.5 -50.5s-27.667 -22.667 -47 -26
c-16.667 -2.66699 -29.667 -1.66699 -39 3s-19.666 10.667 -30.999 18c-2.66699 -7.33301 -6.16699 -15.833 -10.5 -25.5s-10.333 -19.167 -18 -28.5s-16.667 -17.833 -27 -25.5s-22.833 -13.167 -37.5 -16.5c-22.667 -6 -41.334 -7.16699 -56.001 -3.5
s-26.334 10.334 -35.001 20.001s-14.5 21.334 -17.5 35.001s-4.5 27.167 -4.5 40.5c0 14 1.5 27.167 4.5 39.5s6.16699 22.166 9.5 29.499c0 -2 1.5 -1.5 4.5 1.5s6.16699 6.5 9.5 10.5s6.66602 7.5 9.99902 10.5s5 3.5 5 1.5c-3.33301 -14 -5.66602 -27.333 -6.99902 -40
s-0.666016 -23.5 2.00098 -32.5s8.33398 -15.333 17.001 -19s21.334 -3.83398 38.001 -0.500977c18.667 3.33301 32.334 11 41.001 23s14.5 25.5 17.5 40.5s4.83301 30.333 5.5 46s2.66699 28.834 6 39.501c0.666992 -2 2.16699 -1.66699 4.5 1l7.5 9
c2.66699 3.33301 5.33398 6.5 8.00098 9.5s4.66699 3.5 6 1.5c-2 -20 0.166992 -38 6.5 -54s15 -28.167 26 -36.5s23.667 -12.166 38 -11.499s28.5 7.66699 42.5 21c2.66699 6.66699 3.33398 14.334 2.00098 23.001s-4.16602 17.167 -8.49902 25.5s-9.5 16.5 -15.5 24.5
s-12 15 -18 21c3.33301 6.66699 8.16602 11.834 14.499 15.501s13 7 20 10s13.667 6.16699 20 9.5s11.5 7.66602 15.5 12.999zM400.996 1903l-340 -193l17 91l340 193z" />
    <glyph glyph-name="shaddawithdammaisolated" unicode="&#x651;&#x64f;" horiz-adv-x="437" arabic-form="isolated" 
d="M372 1846c8.66699 -10 16.1689 -20.9971 22.502 -32.9971s12.166 -24 17.499 -36c7.33301 -21.333 11.666 -43.333 12.999 -66s-0.666992 -43.834 -6 -63.501s-14.166 -36.334 -26.499 -50.001s-28.166 -21.834 -47.499 -24.501c-16.667 -2.66699 -29.5 -1.66699 -38.5 3
s-19.167 11 -30.5 19c-2.66699 -7.33301 -6.33398 -15.666 -11.001 -24.999s-10.834 -18.666 -18.501 -27.999s-16.834 -17.833 -27.501 -25.5s-23.334 -13.167 -38.001 -16.5c-22.667 -5.33301 -41.5 -4.83301 -56.5 1.5s-27 16.166 -36 29.499s-15.333 29.166 -19 47.499
s-5.66699 36.333 -6 54s0.833984 33.834 3.50098 48.501s5.66699 25.667 9 33c0 -2 1.66699 -1.5 5 1.5s6.83301 6.5 10.5 10.5s7 7.33301 10 10s4.5 3 4.5 1c-3.33301 -14 -5.5 -29.833 -6.5 -47.5s0.333008 -34.167 4 -49.5s10.167 -27.833 19.5 -37.5
s22.666 -12.834 39.999 -9.50098c18.667 3.33301 32.334 11 41.001 23s14.667 25.5 18 40.5s5.5 30.167 6.5 45.5s3.16699 28.333 6.5 39c0.666992 -2 2.16699 -1.66699 4.5 1l8 9c3 3.33301 5.66699 6.5 8 9.5s4.16602 3.5 5.49902 1.5c-2 -20 0 -38 6 -54
s14.5 -28.333 25.5 -37s23.667 -12.834 38 -12.501s28.833 7.16602 43.5 20.499c2.66699 6.66699 3.33398 14.334 2.00098 23.001s-4.16602 17.334 -8.49902 26.001s-9.33301 17 -15 25s-11.5 15 -17.5 21c7.33301 13.333 13.833 25.833 19.5 37.5zM347.002 1915
c-7.33301 -12 -19.668 -25.6641 -37.001 -40.9971s-37.833 -29.833 -61.5 -43.5s-49.167 -25 -76.5 -34s-55 -12.833 -83 -11.5c-38 2.66699 -63 4 -75 4c-11.333 0 -15.333 0.666992 -12 2l103 34c28.667 9.33301 54.334 18.666 77.001 27.999s43.167 19.666 61.5 30.999
s36.5 25.666 54.5 42.999c-30.667 5.33301 -53.167 14.166 -67.5 26.499s-22.666 25.833 -24.999 40.5s0.5 29.667 8.5 45s19 29.333 33 42s30.167 22.834 48.5 30.5c18.333 7.66699 36.833 11.167 55.5 10.5c15.333 -0.666992 25.666 -7.33398 30.999 -20
c5.33301 -12.667 7.83301 -27.167 7.5 -43.5s-2.5 -32.166 -6.5 -47.499s-7.33301 -26.333 -10 -33l43 -10l-19 -63zM322 2054.01c-3.33301 3.33301 -7.16895 5.49805 -11.502 6.49805s-8.16602 1.5 -11.499 1.5c-11.333 0.666992 -20.166 -1.66602 -26.499 -7
c-6.33301 -5.33301 -9.83301 -11.666 -10.5 -18.999c-1.33301 -13.333 5 -23.166 19 -29.499s30.667 -12.166 50 -17.499c1.33301 10.667 2 20.667 2 30c0 7.33301 -0.666992 14.666 -2 21.999s-4.33301 12 -9 14v-1z" />
    <glyph glyph-name="shaddawithkasraisolated" unicode="&#x651;&#x650;" horiz-adv-x="425" arabic-form="isolated" 
d="M385 1972c8 -10 15.167 -21.1729 21.5 -33.5059s11.833 -24.5 16.5 -36.5c6.66699 -21.333 10.334 -43.333 11.001 -66s-1.83301 -43.667 -7.5 -63s-14.834 -35.666 -27.501 -48.999s-28.667 -21.333 -48 -24c-16.667 -2 -29.5 -0.666992 -38.5 4
s-19.167 11.334 -30.5 20.001c-2.66699 -7.33301 -6.5 -15.666 -11.5 -24.999s-11.333 -18.5 -19 -27.5s-17 -17.167 -28 -24.5s-23.833 -12.666 -38.5 -15.999c-22.667 -4.66699 -41.5 -3.66699 -56.5 3s-26.667 17 -35 31s-14.166 30 -17.499 48
s-4.83301 35.833 -4.5 53.5s1.83301 33.834 4.5 48.501s6 25.667 10 33c0 -2 1.5 -1.5 4.5 1.5l10.5 10.5c4 4 7.5 7.33301 10.5 10s4.5 3 4.5 1c-4 -14 -6.66699 -30 -8 -48s-0.333008 -34.667 3 -50s9.5 -27.833 18.5 -37.5s22.167 -13.167 39.5 -10.5
c19.333 2.66699 33.5 9.66699 42.5 21s15.333 24.5 19 39.5s6 30.333 7 46s3.5 28.834 7.5 39.501c0.666992 -2 2.33398 -1.83301 5.00098 0.5s5.5 5.33301 8.5 9l8 9.5c2.33301 2.66699 4.16602 3 5.49902 1c-2.66699 -19.333 -1.33398 -37.166 3.99902 -53.499
s13.333 -29 24 -38s23 -13.5 37 -13.5c14.667 0 29.667 6.66699 45 20c3.33301 6.66699 4.33301 14.167 3 22.5s-4 16.833 -8 25.5s-8.83301 17.167 -14.5 25.5s-11.167 15.5 -16.5 21.5l20 37c6 11.333 12.333 22.666 19 33.999zM422 1589.99l-340 -193l17 91l340 193z" />
    <glyph glyph-name="shaddawithfathamedial" unicode="&#x640;&#x651;&#x64e;" horiz-adv-x="375" arabic-form="medial" 
d="M298 1190c3.33301 -5.33301 5.16211 -9.50195 5.49512 -12.502s0.166016 -5.83301 -0.500977 -8.5s-1.16699 -5.5 -1.5 -8.5s0.833984 -7.5 3.50098 -13.5c8 -21.333 12.833 -43.333 14.5 -66s0 -43.834 -5 -63.501s-13.5 -36.5 -25.5 -50.5s-27.667 -22.667 -47 -26
c-16.667 -2.66699 -29.667 -1.66699 -39 3s-19.666 10.667 -30.999 18c-2.66699 -7.33301 -6.16699 -15.833 -10.5 -25.5s-10.333 -19.167 -18 -28.5s-16.667 -17.833 -27 -25.5s-22.833 -13.167 -37.5 -16.5c-22.667 -6 -41.334 -7.16699 -56.001 -3.5
s-26.334 10.334 -35.001 20.001s-14.5 21.334 -17.5 35.001s-4.5 27.167 -4.5 40.5c0 14 1.5 27.167 4.5 39.5s6.16699 22.166 9.5 29.499c0 -2 1.5 -1.5 4.5 1.5s6.16699 6.5 9.5 10.5s6.66602 7.5 9.99902 10.5s5 3.5 5 1.5c-3.33301 -14 -5.66602 -27.333 -6.99902 -40
s-0.666016 -23.5 2.00098 -32.5s8.33398 -15.333 17.001 -19s21.334 -3.83398 38.001 -0.500977c18.667 3.33301 32.334 11 41.001 23s14.5 25.5 17.5 40.5s4.83301 30.333 5.5 46s2.66699 28.834 6 39.501c0.666992 -2 2.16699 -1.66699 4.5 1l7.5 9
c2.66699 3.33301 5.33398 6.5 8.00098 9.5s4.66699 3.5 6 1.5c-2 -20 0.166992 -38 6.5 -54s15 -28.167 26 -36.5s23.667 -12.166 38 -11.499s28.5 7.66699 42.5 21c2.66699 6.66699 3.33398 14.334 2.00098 23.001s-4.16602 17.167 -8.49902 25.5s-9.5 16.5 -15.5 24.5
s-12 15 -18 21c3.33301 6.66699 8.16602 11.834 14.499 15.501s13 7 20 10s13.667 6.16699 20 9.5s11.5 7.66602 15.5 12.999zM300.996 1270l-340 -193l17 91l340 193z" />
    <glyph glyph-name="shaddawithdammamedial" unicode="&#x640;&#x651;&#x64f;" horiz-adv-x="480" arabic-form="medial" 
d="M365 1238c8.66699 -10 16.1689 -20.9971 22.502 -32.9971s12.166 -24 17.499 -36c7.33301 -21.333 11.666 -43.333 12.999 -66s-0.666992 -43.834 -6 -63.501s-14.166 -36.334 -26.499 -50.001s-28.166 -21.834 -47.499 -24.501c-16.667 -2.66699 -29.5 -1.66699 -38.5 3
s-19.167 11 -30.5 19c-2.66699 -7.33301 -6.33398 -15.666 -11.001 -24.999s-10.834 -18.666 -18.501 -27.999s-16.834 -17.833 -27.501 -25.5s-23.334 -13.167 -38.001 -16.5c-22.667 -5.33301 -41.5 -4.83301 -56.5 1.5s-27 16.166 -36 29.499s-15.333 29.166 -19 47.499
s-5.66699 36.333 -6 54s0.833984 33.834 3.50098 48.501s5.66699 25.667 9 33c0 -2 1.66699 -1.5 5 1.5s6.83301 6.5 10.5 10.5s7 7.33301 10 10s4.5 3 4.5 1c-3.33301 -14 -5.5 -29.833 -6.5 -47.5s0.333008 -34.167 4 -49.5s10.167 -27.833 19.5 -37.5
s22.666 -12.834 39.999 -9.50098c18.667 3.33301 32.334 11 41.001 23s14.667 25.5 18 40.5s5.5 30.167 6.5 45.5s3.16699 28.333 6.5 39c0.666992 -2 2.16699 -1.66699 4.5 1l8 9c3 3.33301 5.66699 6.5 8 9.5s4.16602 3.5 5.49902 1.5c-2 -20 0 -38 6 -54
s14.5 -28.333 25.5 -37s23.667 -12.834 38 -12.501s28.833 7.16602 43.5 20.499c2.66699 6.66699 3.33398 14.334 2.00098 23.001s-4.16602 17.334 -8.49902 26.001s-9.33301 17 -15 25s-11.5 15 -17.5 21c7.33301 13.333 13.833 25.833 19.5 37.5zM340.002 1307
c-7.33301 -12 -19.668 -25.6641 -37.001 -40.9971s-37.833 -29.833 -61.5 -43.5s-49.167 -25 -76.5 -34s-55 -12.833 -83 -11.5c-38 2.66699 -63 4 -75 4c-11.333 0 -15.333 0.666992 -12 2l103 34c28.667 9.33301 54.334 18.666 77.001 27.999s43.167 19.666 61.5 30.999
s36.5 25.666 54.5 42.999c-30.667 5.33301 -53.167 14.166 -67.5 26.499s-22.666 25.833 -24.999 40.5s0.5 29.667 8.5 45s19 29.333 33 42s30.167 22.834 48.5 30.501s36.833 11.167 55.5 10.5c15.333 -0.666992 25.666 -7.33398 30.999 -20.001s7.83301 -27.167 7.5 -43.5
s-2.5 -32.166 -6.5 -47.499s-7.33301 -26.333 -10 -33l43 -10l-19 -63zM315 1446.01c-3.33301 3.33301 -7.16895 5.49707 -11.502 6.49707s-8.16602 1.5 -11.499 1.5c-11.333 0.666992 -20.166 -1.66602 -26.499 -6.99902s-9.83301 -11.666 -10.5 -18.999
c-1.33301 -13.333 5 -23.166 19 -29.499s30.667 -12.166 50 -17.499c1.33301 10.667 2 20.667 2 30c0 7.33301 -0.666992 14.666 -2 21.999s-4.33301 12 -9 14v-1z" />
    <glyph glyph-name="allahisolated" unicode="&#xfedf;&#xfee0;&#xfeea;" horiz-adv-x="1785" arabic-form="isolated" 
d="M1510 360l-10.501 415l-10.5 416l96 39.5l93 38.5l-15 -884v-223h-843c-38.667 -1.33301 -73 1.5 -103 8.5s-56.833 19 -80.5 36s-44.334 39.333 -62.001 67s-33.167 61.5 -46.5 101.5c-26 -65.333 -53.667 -112.5 -83 -141.5s-61.666 -44 -96.999 -45
s-74.333 9.66699 -117 32s-90 52.5 -142 90.5l33 241c0.666992 8 10.167 19.333 28.5 34s42.5 30.5 72.5 47.5s64.5 33.833 103.5 50.5s79.833 31.334 122.5 44.001v22c0 8.66699 -0.166992 17.5 -0.5 26.5l-1 26.5c-0.333008 8.66699 -0.5 16.334 -0.5 23.001
c0 3.33301 4 7.83301 12 13.5s18 12 30 19s25 13.833 39 20.5l39 18.5c12 5.66699 22.333 10.167 31 13.5s13.334 5 14.001 5l32 -331c2.66699 -32 8 -60 16 -84s17.833 -44.333 29.5 -61s25.167 -30.5 40.5 -41.5s32 -19.5 50 -25.5c12.667 -4 29.667 -7.16699 51 -9.5
s44.333 -3.83301 69 -4.5s49.667 -0.833984 75 -0.500977s48 0.833008 68 1.5c-1.33301 55.333 -3 112.166 -5 170.499l-6 176c-2 59 -3.83301 117.667 -5.5 176s-3.5 115.5 -5.5 171.5l94.5 32.5l92.5 32.5l-12 -759h314zM1087 1471
c4 -39.333 11.8252 -68.3359 23.4922 -87.0029s24.334 -30.167 38.001 -34.5s26.834 -2.33301 39.501 6s22 20 28 35s7.33301 32.5 4 52.5s-14.333 39.333 -33 58l90 31c18.667 -21.333 30.834 -45.166 36.501 -71.499s6.33398 -52.333 2.00098 -78s-13 -49.667 -26 -72
s-29 -39.833 -48 -52.5s-40.5 -19 -64.5 -19s-49.333 9 -76 27c-22 -35.333 -45 -62.333 -69 -81s-47.5 -30.167 -70.5 -34.5s-44.667 -2.16602 -65 6.50098s-37.666 23 -51.999 43s-25 45 -32 75s-8.83301 63.667 -5.5 101l84 29c1.33301 -36 7 -64.167 17 -84.5
s21.333 -34.166 34 -41.499s25.334 -8.83301 38.001 -4.5s22.834 13.666 30.501 27.999s11.334 32.833 11.001 55.5s-7.5 48.334 -21.5 77.001zM385.991 381.997c14.667 -8 28.833 -9.16699 42.5 -3.5s25.834 16 36.501 31s19 33.333 25 55s9 44.5 9 68.5
c0 8.66699 -0.833008 20.167 -2.5 34.5s-4.83398 30.833 -9.50098 49.5l-278 -136z" />
    <glyph glyph-name="fathamedial" unicode="&#x640;&#x64e;" horiz-adv-x="448" arabic-form="medial" 
d="M396 1157l-191.5 -102.5l-191.5 -102.5l8 39.5l7 37.5l191.5 101.5l191.5 102.5z" />
    <glyph glyph-name="dammamedial" unicode="&#x640;&#x64f;" horiz-adv-x="490" arabic-form="medial" 
d="M360 1221c-7.33301 -15.333 -19.8301 -32.833 -37.4971 -52.5s-38.5 -38 -62.5 -55s-50.167 -31.167 -78.5 -42.5s-56.833 -16.333 -85.5 -15c-19.333 1.33301 -35.166 2.33301 -47.499 3s-21.833 1.33398 -28.5 2.00098s-10.834 1.16699 -12.501 1.5
s-1.83398 0.833008 -0.500977 1.5l105.5 43c29.667 12 56 24 79 36s43.833 25.167 62.5 39.5s37.334 32.5 56.001 54.5c-31.333 7.33301 -54.333 18.666 -69 33.999s-23.167 32.333 -25.5 51s0.666992 37.834 9 57.501s19.666 37.5 33.999 53.5s30.833 29 49.5 39
s37.334 14.333 56.001 13c10.667 -0.666992 19 -4.83398 25 -12.501s10.167 -17.334 12.5 -29.001s3.16602 -24.667 2.49902 -39s-1.83398 -28.166 -3.50098 -41.499s-3.83398 -25.5 -6.50098 -36.5s-5 -19.167 -7 -24.5l44 -13l-19 -80zM335.003 1398
c-3.33301 4 -7.33301 6.66699 -12 8s-8.66699 2 -12 2c-11.333 1.33301 -20.333 -1.5 -27 -8.5s-10.334 -15.167 -11.001 -24.5c-1.33301 -16.667 5.33398 -29 20.001 -37s31.667 -15.667 51 -23c1.33301 13.333 2 26 2 38c0 10 -0.666992 19.5 -2 28.5
s-4.33301 15.167 -9 18.5v-2z" />
    <glyph glyph-name="kasramedial" unicode="&#x640;&#x650;" horiz-adv-x="669" arabic-form="medial" 
d="M392 506l-191.5 -102.5l-191.5 -102.5c3.33301 15.333 6 28.333 8 39l7 38l191.5 101.5l191.5 102.5z" />
    <glyph glyph-name="shaddamedial" unicode="&#x640;&#x651;" horiz-adv-x="448" arabic-form="medial" 
d="M386 1293c7.33301 -11.333 13.1699 -23.3242 17.5029 -35.9912s8.16602 -25.334 11.499 -38.001c4 -22 5 -44.333 3 -67s-7 -43.334 -15 -62.001s-19 -33.834 -33 -45.501s-31 -17.5 -51 -17.5c-16.667 0 -29.167 3 -37.5 9s-17.5 13.667 -27.5 23
c-4 -6.66699 -9 -14.334 -15 -23.001s-13.333 -17 -22 -25s-19 -15 -31 -21s-25.333 -9.66699 -40 -11c-23.333 -2 -42 1.33301 -56 10s-24.333 20.334 -31 35.001s-10.5 31.167 -11.5 49.5s-0.333008 36.166 2 53.499s5.83301 33.166 10.5 47.499
s9.33398 24.833 14.001 31.5c0 -2 1.66699 -1.66699 5 1l11.5 9c4.33301 3.33301 8.16602 6.16602 11.499 8.49902s5 2.5 5 0.5c-5.33301 -13.333 -9.83301 -28.833 -13.5 -46.5s-4.66699 -34.334 -3 -50.001s6.33398 -28.834 14.001 -39.501s20.167 -15.667 37.5 -15
c19.333 0 34.166 5.33301 44.499 16s18.166 23.167 23.499 37.5s9.5 29.166 12.5 44.499s7.16699 28 12.5 38c0.666992 -2 2.33398 -2 5.00098 0s5.66699 4.5 9 7.5s6.5 5.66699 9.5 8s4.83301 2.5 5.5 0.5c-5.33301 -19.333 -6.16602 -37.333 -2.49902 -54
s10.167 -30 19.5 -40s21.166 -16 35.499 -18s29.833 2.66699 46.5 14c4 6 5.83301 13.333 5.5 22s-1.83301 17.5 -4.5 26.5s-6.33398 18 -11.001 27s-9.33398 16.833 -14.001 23.5l24.5 34z" />
    <glyph glyph-name="lamwithalefmaddaaboveisolatedd" unicode="&#xfedf;&#xfe82;" horiz-adv-x="1044" arabic-form="isolated" 
d="M980 1353c2 -37.333 3.00098 -76.9961 3.00098 -118.996c0 -41.333 -1 -82.833 -3 -124.5s-5.16699 -81.667 -9.5 -120s-9.83301 -72.833 -16.5 -103.5c-12.667 -56 -26.834 -101.667 -42.501 -137s-29.167 -64.666 -40.5 -87.999s-19.5 -42.333 -24.5 -57
s-4.5 -29.667 1.5 -45c22 -48 37.333 -91.833 46 -131.5s13 -76.834 13 -111.501c0 -38 -5.16699 -78.333 -15.5 -121s-20.833 -82 -31.5 -118h-681c0 26 -0.166992 51 -0.5 75l-1 71c-0.333008 23.333 -0.5 46.666 -0.5 69.999v74c38 10.667 76 22 114 34s76.333 27 115 45
s78.167 40.5 118.5 67.5s82.166 61.167 125.499 102.5c-6.66699 10.667 -17.667 25 -33 43s-33.333 37.667 -54 59l-66 65.5l-68.5 63c-22.333 19.667 -42.833 36.667 -61.5 51s-33.667 24.5 -45 30.5c-1.33301 -3.33301 -3.5 -7.83301 -6.5 -13.5s-6.16699 -12 -9.5 -19
l-10.5 -21.5l-9.5 -19l-123 106.5l-122 105.5l62 126.5l62 124.5c63.333 -36.667 121.833 -78.334 175.5 -125.001s103.834 -96.334 150.501 -149.001s90 -107 130 -163l114 -166c23.333 40 39.5 80 48.5 120s13.5 79.333 13.5 118c0 54 -3.16699 107.167 -9.5 159.5
s-11.5 104.166 -15.5 155.499zM-9.99902 1413c-1.33301 54 15.832 105.332 51.499 153.999s102.5 50.834 200.5 6.50098s173 -28.5 225 47.5c-25.333 -160 -97.166 -213 -215.499 -159s-205.5 37.667 -261.5 -49zM715.999 293.003
c20.667 -4 35.332 -0.998047 43.999 9.00195s13 24.333 13 43c0 9.33301 -2 20.333 -6 33s-9.33301 26.167 -16 40.5s-14.5 28.833 -23.5 43.5s-18.5 28.667 -28.5 42c-18 -24.667 -37.333 -46.834 -58 -66.501s-41.667 -37.834 -63 -54.501s-42.666 -32.167 -63.999 -46.5
l-62 -43.5h264z" />
    <glyph glyph-name="lamwithalefmaddaabovefinal" unicode="&#xfee0;&#xfe82;" horiz-adv-x="1165" arabic-form="final" 
d="M814 1268l104.001 42.4971l102 41.5l-19 -989h212v-215h-336l-46 283c-23.333 -48 -51 -90 -83 -126s-66.667 -67.5 -104 -94.5s-76.5 -50 -117.5 -69s-82.167 -35.333 -123.5 -49s-82 -25.167 -122 -34.5l-113 -26l-28 34c-8 9.33301 -16.667 18.833 -26 28.5
s-18.333 17.834 -27 24.501c40.667 16.667 84.667 36.5 132 59.5s94.5 47.333 141.5 73s91.833 52 134.5 79s79.5 53.333 110.5 79s54.5 49.834 70.5 72.501s20.667 42.334 14 59.001c-20.667 36.667 -43.5 73 -68.5 109s-52.5 70.667 -82.5 104s-62.167 64.833 -96.5 94.5
s-71.5 56.5 -111.5 80.5c-3.33301 -6.66699 -8.83301 -17 -16.5 -31s-14.834 -28 -21.501 -42l-64 55.5l-59.5 50.5l-59 50.5l-62.5 54.5l62 126.5l61 124.5c54.667 -22 112.167 -56.5 172.5 -103.5s119.333 -103 177 -168s112.5 -138 164.5 -219s97.333 -166.5 136 -256.5z
M-9.99902 1413c-1.33301 54 15.832 105.332 51.499 153.999s102.5 50.834 200.5 6.50098s173 -28.5 225 47.5c-25.333 -160 -97.166 -213 -215.499 -159s-205.5 37.667 -261.5 -49z" />
    <glyph glyph-name="lamwithalefhamzaaboveisolatedd" unicode="&#xfedf;&#xfe84;" horiz-adv-x="1044" arabic-form="isolated" 
d="M980 1353c2 -37.333 3.00098 -76.9961 3.00098 -118.996c0 -41.333 -1 -82.833 -3 -124.5s-5.16699 -81.667 -9.5 -120s-9.83301 -72.833 -16.5 -103.5c-12.667 -56 -26.834 -101.667 -42.501 -137s-29.167 -64.666 -40.5 -87.999s-19.5 -42.333 -24.5 -57
s-4.5 -29.667 1.5 -45c22 -48 37.333 -91.833 46 -131.5s13 -76.834 13 -111.501c0 -38 -5.16699 -78.333 -15.5 -121s-20.833 -82 -31.5 -118h-681c0 26 -0.166992 51 -0.5 75l-1 71c-0.333008 23.333 -0.5 46.666 -0.5 69.999v74c38 10.667 76 22 114 34s76.333 27 115 45
s78.167 40.5 118.5 67.5s82.166 61.167 125.499 102.5c-6.66699 10.667 -17.667 25 -33 43s-33.333 37.667 -54 59l-66 65.5l-68.5 63c-22.333 19.667 -42.833 36.667 -61.5 51s-33.667 24.5 -45 30.5c-1.33301 -3.33301 -3.5 -7.83301 -6.5 -13.5s-6.16699 -12 -9.5 -19
l-10.5 -21.5l-9.5 -19l-123 106.5l-122 105.5l62 126.5l62 124.5c63.333 -36.667 121.833 -78.334 175.5 -125.001s103.834 -96.334 150.501 -149.001s90 -107 130 -163l114 -166c23.333 40 39.5 80 48.5 120s13.5 79.333 13.5 118c0 54 -3.16699 107.167 -9.5 159.5
s-11.5 104.166 -15.5 155.499zM23.001 1463c0 2.66699 0.5 4.99609 1.5 6.99609s3.83301 4.16699 8.5 6.5l20.5 10.5l37.5 19c-20.667 3.33301 -35.834 11.333 -45.501 24s-14.5 25.334 -14.5 38.001c0 15.333 2.33301 32.833 7 52.5s11.167 39 19.5 58s18.333 36.5 30 52.5
s24.667 28.333 39 37s29.5 12.334 45.5 11.001s32.667 -10 50 -26c-4 -10.667 -8 -22.167 -12 -34.5s-8 -23.166 -12 -32.499c-7.33301 3.33301 -16 5.5 -26 6.5s-19.667 0.166992 -29 -2.5s-18 -7.5 -26 -14.5s-13.667 -17.167 -17 -30.5
c-3.33301 -11.333 -2.16602 -20.5 3.50098 -27.5s13.667 -12.667 24 -17s22.333 -7.16602 36 -8.49902s27 -2.16602 40 -2.49902s25 -0.166016 36 0.500977s19.167 1 24.5 1l-8.5 -28l-7 -23l-7 -22.5l-7.5 -25.5c-16.667 -4 -35 -9 -55 -15s-40 -12.833 -60 -20.5
s-39.5 -16.334 -58.5 -26.001s-35.833 -19.834 -50.5 -30.501zM716.001 293c20.667 -4 35.332 -0.998047 43.999 9.00195s13 24.333 13 43c0 9.33301 -2 20.333 -6 33s-9.33301 26.167 -16 40.5s-14.5 28.833 -23.5 43.5s-18.5 28.667 -28.5 42
c-18 -24.667 -37.333 -46.834 -58 -66.501s-41.667 -37.834 -63 -54.501s-42.666 -32.167 -63.999 -46.5l-62 -43.5h264z" />
    <glyph glyph-name="lamwithalefhamzaabovefinal" unicode="&#xfee0;&#xfe84;" horiz-adv-x="1165" arabic-form="final" 
d="M814 1268l104.001 42.4971l102 41.5l-19 -989h212v-215h-336l-46 283c-23.333 -48 -51 -90 -83 -126s-66.667 -67.5 -104 -94.5s-76.5 -50 -117.5 -69s-82.167 -35.333 -123.5 -49s-82 -25.167 -122 -34.5l-113 -26l-28 34c-8 9.33301 -16.667 18.833 -26 28.5
s-18.333 17.834 -27 24.501c40.667 16.667 84.667 36.5 132 59.5s94.5 47.333 141.5 73s91.833 52 134.5 79s79.5 53.333 110.5 79s54.5 49.834 70.5 72.501s20.667 42.334 14 59.001c-20.667 36.667 -43.5 73 -68.5 109s-52.5 70.667 -82.5 104s-62.167 64.833 -96.5 94.5
s-71.5 56.5 -111.5 80.5c-3.33301 -6.66699 -8.83301 -17 -16.5 -31s-14.834 -28 -21.501 -42l-64 55.5l-59.5 50.5l-59 50.5l-62.5 54.5l62 126.5l61 124.5c54.667 -22 112.167 -56.5 172.5 -103.5s119.333 -103 177 -168s112.5 -138 164.5 -219s97.333 -166.5 136 -256.5z
M452.001 1376c0.666992 2.66699 1.49805 4.99609 2.49805 6.99609s3.83301 4.16699 8.5 6.5l20.5 10.5l37.5 19c-21.333 3.33301 -36.666 11.333 -45.999 24s-14 25.334 -14 38.001c0 15.333 2.33301 32.833 7 52.5s11.167 39 19.5 58s18.333 36.5 30 52.5
s24.667 28.333 39 37s29.5 12.334 45.5 11.001s32.667 -10 50 -26c-4 -10.667 -8 -22.167 -12 -34.5s-8 -23.166 -12 -32.499c-7.33301 3.33301 -16 5.5 -26 6.5s-19.667 0.166992 -29 -2.5s-18 -7.5 -26 -14.5s-13.667 -17.167 -17 -30.5
c-3.33301 -11.333 -2.16602 -20.5 3.50098 -27.5s13.667 -12.667 24 -17s22.333 -7.16602 36 -8.49902s27 -2.16602 40 -2.49902s25 -0.166016 36 0.500977s19.167 1 24.5 1l-8.5 -28l-7 -23l-7 -22.5l-7.5 -25.5c-16.667 -4 -35 -9 -55 -15s-40 -12.833 -60 -20.5
s-39.5 -16.334 -58.5 -26.001s-35.833 -19.834 -50.5 -30.501z" />
    <glyph glyph-name="lamwithalefhamzabelowisolated" unicode="&#xfedf;&#xfe88;" horiz-adv-x="1044" arabic-form="isolated" 
d="M980 1353c2 -37.333 3.00098 -76.9961 3.00098 -118.996c0 -41.333 -1 -82.833 -3 -124.5s-5.16699 -81.667 -9.5 -120s-9.83301 -72.833 -16.5 -103.5c-12.667 -56 -26.834 -101.667 -42.501 -137s-29.167 -64.666 -40.5 -87.999s-19.5 -42.333 -24.5 -57
s-4.5 -29.667 1.5 -45c22 -48 37.333 -91.833 46 -131.5s13 -76.834 13 -111.501c0 -38 -5.16699 -78.333 -15.5 -121s-20.833 -82 -31.5 -118h-681c0 26 -0.166992 51 -0.5 75l-1 71c-0.333008 23.333 -0.5 46.666 -0.5 69.999v74c38 10.667 76 22 114 34s76.333 27 115 45
s78.167 40.5 118.5 67.5s82.166 61.167 125.499 102.5c-6.66699 10.667 -17.667 25 -33 43s-33.333 37.667 -54 59l-66 65.5l-68.5 63c-22.333 19.667 -42.833 36.667 -61.5 51s-33.667 24.5 -45 30.5c-1.33301 -3.33301 -3.5 -7.83301 -6.5 -13.5s-6.16699 -12 -9.5 -19
l-10.5 -21.5l-9.5 -19l-123 106.5l-122 105.5l62 126.5l62 124.5c63.333 -36.667 121.833 -78.334 175.5 -125.001s103.834 -96.334 150.501 -149.001s90 -107 130 -163l114 -166c23.333 40 39.5 80 48.5 120s13.5 79.333 13.5 118c0 54 -3.16699 107.167 -9.5 159.5
s-11.5 104.166 -15.5 155.499zM115.001 -377.996c0.666992 2.66699 1.49902 4.99707 2.49902 6.99707s3.66699 4.16699 8 6.5l20 10.5c9 4.66699 21.833 11 38.5 19c-21.333 3.33301 -36.666 11.333 -45.999 24s-14 25.334 -14 38.001c0 15.333 2.33301 32.833 7 52.5
s11.167 39 19.5 58s18.333 36.5 30 52.5s24.5 28.333 38.5 37s29 12.334 45 11.001s32.667 -10 50 -26c-4 -10.667 -8 -22.167 -12 -34.5s-7.66699 -23.166 -11 -32.499c-7.33301 3.33301 -16 5.66602 -26 6.99902s-19.833 0.666016 -29.5 -2.00098
s-18.5 -7.66699 -26.5 -15s-13.667 -17.666 -17 -30.999c-3.33301 -11.333 -2.16602 -20.5 3.50098 -27.5s13.667 -12.667 24 -17s22.333 -7.16602 36 -8.49902s27.167 -2.16602 40.5 -2.49902s25.5 -0.166016 36.5 0.500977s19.167 1 24.5 1l-8.5 -28l-7 -23l-7.5 -22.5
c-2.66699 -7.66699 -5.33398 -16.167 -8.00098 -25.5c-16.667 -4 -35 -9 -55 -15s-40 -12.833 -60 -20.5s-39.5 -16.334 -58.5 -26.001s-35.5 -19.834 -49.5 -30.501zM716 293.001c20.667 -4 35.332 -0.998047 43.999 9.00195s13 24.333 13 43c0 9.33301 -2 20.333 -6 33
s-9.33301 26.167 -16 40.5s-14.5 28.833 -23.5 43.5s-18.5 28.667 -28.5 42c-18 -24.667 -37.333 -46.834 -58 -66.501s-41.667 -37.834 -63 -54.501s-42.666 -32.167 -63.999 -46.5l-62 -43.5h264z" />
    <glyph glyph-name="lamwithalefhamzabelowfinal" unicode="&#xfee0;&#xfe88;" horiz-adv-x="1165" arabic-form="final" 
d="M814 1268l104.001 42.4971l102 41.5l-19 -989h212v-215h-336l-46 283c-23.333 -48 -51 -90 -83 -126s-66.667 -67.5 -104 -94.5s-76.5 -50 -117.5 -69s-82.167 -35.333 -123.5 -49s-82 -25.167 -122 -34.5l-113 -26l-28 34c-8 9.33301 -16.667 18.833 -26 28.5
s-18.333 17.834 -27 24.501c40.667 16.667 84.667 36.5 132 59.5s94.5 47.333 141.5 73s91.833 52 134.5 79s79.5 53.333 110.5 79s54.5 49.834 70.5 72.501s20.667 42.334 14 59.001c-20.667 36.667 -43.5 73 -68.5 109s-52.5 70.667 -82.5 104s-62.167 64.833 -96.5 94.5
s-71.5 56.5 -111.5 80.5c-3.33301 -6.66699 -8.83301 -17 -16.5 -31s-14.834 -28 -21.501 -42l-64 55.5l-59.5 50.5l-59 50.5l-62.5 54.5l62 126.5l61 124.5c54.667 -22 112.167 -56.5 172.5 -103.5s119.333 -103 177 -168s112.5 -138 164.5 -219s97.333 -166.5 136 -256.5z
M392.001 -299.003c0.666992 2.66699 1.49805 4.99805 2.49805 6.99805s3.83301 4.33301 8.5 7s11.5 6.33398 20.5 11.001l37.5 19c-21.333 3.33301 -36.666 11.166 -45.999 23.499s-14 24.833 -14 37.5c0 15.333 2.33301 32.833 7 52.5s11.167 39 19.5 58
s18.333 36.5 30 52.5s24.667 28.333 39 37s29.5 12.5 45.5 11.5s32.667 -9.5 50 -25.5l-12 -35c-4 -12 -8 -22.667 -12 -32c-7.33301 3.33301 -16 5.5 -26 6.5s-19.667 0.166992 -29 -2.5s-18 -7.66699 -26 -15s-13.667 -17.666 -17 -30.999
c-3.33301 -11.333 -2.16602 -20.5 3.50098 -27.5s13.667 -12.667 24 -17s22.333 -7.16602 36 -8.49902s27 -2.16602 40 -2.49902s25 -0.166016 36 0.500977s19.167 1 24.5 1l-8.5 -28l-7 -23l-7 -22.5l-7.5 -25.5c-16.667 -4 -35 -9 -55 -15s-40 -12.833 -60 -20.5
s-39.5 -16.334 -58.5 -26.001s-35.833 -19.834 -50.5 -30.501z" />
    <glyph glyph-name="lamwithalefisolated" unicode="&#xfedf;&#xfe8e;" horiz-adv-x="1044" arabic-form="isolated" 
d="M980 1353c2 -37.333 3.00098 -76.9961 3.00098 -118.996c0 -41.333 -1 -82.833 -3 -124.5s-5.16699 -81.667 -9.5 -120s-9.83301 -72.833 -16.5 -103.5c-12.667 -56 -26.834 -101.667 -42.501 -137s-29.167 -64.666 -40.5 -87.999s-19.5 -42.333 -24.5 -57
s-4.5 -29.667 1.5 -45c22 -48 37.333 -91.833 46 -131.5s13 -76.834 13 -111.501c0 -38 -5.16699 -78.333 -15.5 -121s-20.833 -82 -31.5 -118h-681c0 26 -0.166992 51 -0.5 75l-1 71c-0.333008 23.333 -0.5 46.666 -0.5 69.999v74c38 10.667 76 22 114 34s76.333 27 115 45
s78.167 40.5 118.5 67.5s82.166 61.167 125.499 102.5c-6.66699 10.667 -17.667 25 -33 43s-33.333 37.667 -54 59l-66 65.5l-68.5 63c-22.333 19.667 -42.833 36.667 -61.5 51s-33.667 24.5 -45 30.5c-1.33301 -3.33301 -3.5 -7.83301 -6.5 -13.5s-6.16699 -12 -9.5 -19
l-10.5 -21.5l-9.5 -19l-123 106.5l-122 105.5l62 126.5l62 124.5c63.333 -36.667 121.833 -78.334 175.5 -125.001s103.834 -96.334 150.501 -149.001s90 -107 130 -163l114 -166c23.333 40 39.5 80 48.5 120s13.5 79.333 13.5 118c0 54 -3.16699 107.167 -9.5 159.5
s-11.5 104.166 -15.5 155.499zM716.001 293.004c20.667 -4 35.332 -0.998047 43.999 9.00195s13 24.333 13 43c0 9.33301 -2 20.333 -6 33s-9.33301 26.167 -16 40.5s-14.5 28.833 -23.5 43.5s-18.5 28.667 -28.5 42c-18 -24.667 -37.333 -46.834 -58 -66.501
s-41.667 -37.834 -63 -54.501s-42.666 -32.167 -63.999 -46.5l-62 -43.5h264z" />
    <glyph glyph-name="lamwithaleffinal" unicode="&#xfee0;&#xfe8e;" horiz-adv-x="1165" arabic-form="final" 
d="M814 1268l104.001 42.4971l102 41.5l-19 -989h212v-215h-336l-46 283c-23.333 -48 -51 -90 -83 -126s-66.667 -67.5 -104 -94.5s-76.5 -50 -117.5 -69s-82.167 -35.333 -123.5 -49s-82 -25.167 -122 -34.5l-113 -26l-28 34c-8 9.33301 -16.667 18.833 -26 28.5
s-18.333 17.834 -27 24.501c40.667 16.667 84.667 36.5 132 59.5s94.5 47.333 141.5 73s91.833 52 134.5 79s79.5 53.333 110.5 79s54.5 49.834 70.5 72.501s20.667 42.334 14 59.001c-20.667 36.667 -43.5 73 -68.5 109s-52.5 70.667 -82.5 104s-62.167 64.833 -96.5 94.5
s-71.5 56.5 -111.5 80.5c-3.33301 -6.66699 -8.83301 -17 -16.5 -31s-14.834 -28 -21.501 -42l-64 55.5l-59.5 50.5l-59 50.5l-62.5 54.5l62 126.5l61 124.5c54.667 -22 112.167 -56.5 172.5 -103.5s119.333 -103 177 -168s112.5 -138 164.5 -219s97.333 -166.5 136 -256.5z
" />
    <glyph glyph-name="bullet_ara" unicode="&#xfcf4;" horiz-adv-x="532" arabic-form="medial" 
d="M424 1178c-7.33301 -15.333 -19.8301 -32.833 -37.4971 -52.5s-38.5 -38 -62.5 -55s-50.167 -31.167 -78.5 -42.5s-56.833 -16.333 -85.5 -15c-19.333 1.33301 -35.166 2.33301 -47.499 3s-21.833 1.33398 -28.5 2.00098s-10.834 1.16699 -12.501 1.5
s-1.83398 0.833008 -0.500977 1.5l105.5 43c29.667 12 56 24 79 36s43.833 25.167 62.5 39.5s37.334 32.5 56.001 54.5c-31.333 7.33301 -54.333 18.666 -69 33.999s-23.167 32.333 -25.5 51s0.666992 37.834 9 57.501s19.666 37.5 33.999 53.5s30.833 28.833 49.5 38.5
s37.334 14.167 56.001 13.5c10.667 -0.666992 19 -4.83398 25 -12.501s10.167 -17.334 12.5 -29.001s3.16602 -24.667 2.49902 -39s-1.83398 -28.166 -3.50098 -41.499s-3.83398 -25.5 -6.50098 -36.5s-5 -19.167 -7 -24.5l44 -13l-19 -80zM399.003 1355
c-3.33301 4 -7.33301 6.66699 -12 8s-8.66699 2 -12 2c-11.333 1.33301 -20.333 -1.5 -27 -8.5s-10.334 -15.167 -11.001 -24.5c-1.33301 -16.667 5.33398 -29 20.001 -37s31.667 -15.667 51 -23c1.33301 13.333 2 26 2 38c0 10 -0.666992 19.5 -2 28.5
s-4.33301 15.167 -9 18.5v-2z" />
    <glyph glyph-name="fathatanisolated" unicode="&#xfe70;" horiz-adv-x="408" arabic-form="isolated" 
d="M389 1675l-340 -193l17 91l340 193zM403 1842l-340 -193l17 91l340 193z" />
    <glyph glyph-name="fathatanabove" unicode="&#xfe71;" horiz-adv-x="669" arabic-form="medial" 
d="M383 1154l-191 -102.5l-191 -102.5c3.33301 15.333 6 28.333 8 39l7 38l191.5 101.5l191.5 102.5zM416 1345l-191.5 -102.499l-191.5 -102.5l8.5 38.5c2.33301 10.333 4.83301 23.166 7.5 38.499l191 101.5l191 102.5z" />
    <glyph glyph-name="dammatanisolated" unicode="&#xfe72;" horiz-adv-x="469" arabic-form="isolated" 
d="M409 1632c-4 -9.33301 -10.5 -20.499 -19.5 -33.499s-19.667 -26.333 -32 -40s-25.833 -26.834 -40.5 -39.501s-29.834 -23 -45.501 -31s-31.5 -13 -47.5 -15s-31.333 0.666992 -46 8s-22.667 17.833 -24 31.5s-0.333008 27.667 3 42s6.83301 28.333 10.5 42
s3 24.334 -2 32.001s-16.5 11.167 -34.5 10.5s-46.667 -7.33398 -86 -20.001c12.667 18 27.5 32.5 44.5 43.5s33.833 18.333 50.5 22s32.334 3.33398 47.001 -0.999023s26 -12.5 34 -24.5s11.5 -28 10.5 -48s-8.83301 -44 -23.5 -72c30.667 13.333 59.167 28 85.5 44
s50.166 36.667 71.499 62c-27.333 6.66699 -47.5 17.167 -60.5 31.5s-20.333 30.166 -22 47.499s1 35 8 53s17 34.5 30 49.5s27.667 27 44 36s32.833 13.167 49.5 12.5c14 -1.33301 23.333 -9.5 28 -24.5s6.83398 -32 6.50098 -51s-2.33301 -37.5 -6 -55.5
s-6.5 -30.333 -8.5 -37l38 -12l-17 -76zM388 1793c-6.66699 6.66699 -14.333 9.99805 -23 9.99805c-9.33301 0.666992 -16.833 -2.16602 -22.5 -8.49902s-8.5 -13.5 -8.5 -21.5c-1.33301 -7.33301 -0.333008 -13.666 3 -18.999s8 -10 14 -14s12.833 -7.83301 20.5 -11.5
l24.5 -11.5c1.33301 12.667 2 24.334 2 35.001c0 9.33301 -0.833008 18.166 -2.5 26.499s-4.16699 13.833 -7.5 16.5v-2z" />
    <glyph glyph-name="kasratanisolated" unicode="&#xfe74;" horiz-adv-x="408" arabic-form="isolated" 
d="M384 -83l-191.5 -102.498l-191.5 -102.5c3.33301 15.333 6 28.166 8 38.499s4.33301 23.166 7 38.499l191.5 101.5l191.5 102.5zM416 107.002l-191.5 -102.499l-191.5 -102.5l8.5 39.5c2.33301 10.333 4.83301 23.166 7.5 38.499l191 101l191 102z" />
    <glyph glyph-name="fathaisolated" unicode="&#xfe76;" horiz-adv-x="408" arabic-form="isolated" 
d="M396 1583l-191.5 -102.5l-191.5 -102.5l8 39.5l7 37.5l191.5 101.5l191.5 102.5z" />
    <glyph glyph-name="dammaisolated" unicode="&#xfe78;" horiz-adv-x="414" arabic-form="isolated" 
d="M366 1664c-7.33301 -15.333 -19.8301 -32.833 -37.4971 -52.5s-38.5 -38 -62.5 -55s-50.167 -31.167 -78.5 -42.5s-56.833 -16.333 -85.5 -15c-19.333 1.33301 -35.166 2.33301 -47.499 3s-21.833 1.33398 -28.5 2.00098s-10.834 1.16699 -12.501 1.5
s-1.83398 0.833008 -0.500977 1.5l105.5 43c29.667 12 56 24 79 36s43.833 25.167 62.5 39.5s37.334 32.5 56.001 54.5c-31.333 7.33301 -54.333 18.666 -69 33.999s-23.167 32.333 -25.5 51s0.666992 37.834 9 57.501s19.666 37.5 33.999 53.5s30.833 28.833 49.5 38.5
s37.334 14.167 56.001 13.5c10.667 -0.666992 19 -4.83398 25 -12.501s10.167 -17.334 12.5 -29.001s3.16602 -24.667 2.49902 -39s-1.83398 -28.166 -3.50098 -41.499s-3.83398 -25.5 -6.50098 -36.5s-5 -19.167 -7 -24.5l44 -13l-19 -80zM341.003 1841
c-3.33301 4 -7.33301 6.66699 -12 8s-8.66699 2 -12 2c-11.333 1.33301 -20.333 -1.5 -27 -8.5s-10.334 -15.167 -11.001 -24.5c-1.33301 -16.667 5.33398 -29 20.001 -37s31.667 -15.667 51 -23c1.33301 13.333 2 26 2 38c0 10 -0.666992 19.5 -2 28.5
s-4.33301 15.167 -9 18.5v-2z" />
    <glyph glyph-name="kasraisolated" unicode="&#xfe7a;" horiz-adv-x="408" arabic-form="isolated" 
d="M392 -363l-191.5 -102.5l-191.5 -102.5c3.33301 15.333 6 28.333 8 39l7 38l191.5 101.5l191.5 102.5z" />
    <glyph glyph-name="shaddaisolated" unicode="&#xfe7c;" horiz-adv-x="425" arabic-form="isolated" 
d="M398 1823c7.33301 -11.333 13.1699 -23.3242 17.5029 -35.9912s8.16602 -25.334 11.499 -38.001c4 -22 5 -44.333 3 -67s-7 -43.334 -15 -62.001s-19 -33.834 -33 -45.501s-31 -17.5 -51 -17.5c-16.667 0 -29.167 3 -37.5 9s-17.5 13.667 -27.5 23
c-4 -6.66699 -9 -14.334 -15 -23.001s-13.333 -17 -22 -25s-19 -15 -31 -21s-25.333 -9.66699 -40 -11c-23.333 -2 -42 1.33301 -56 10s-24.333 20.334 -31 35.001s-10.5 31.167 -11.5 49.5s-0.333008 36.166 2 53.499s5.83301 33.166 10.5 47.499
s9.33398 24.833 14.001 31.5c0 -2 1.66699 -1.66699 5 1l11.5 9c4.33301 3.33301 8.16602 6.16602 11.499 8.49902s5 2.5 5 0.5c-5.33301 -13.333 -9.83301 -28.833 -13.5 -46.5s-4.66699 -34.334 -3 -50.001s6.33398 -28.834 14.001 -39.501s20.167 -15.667 37.5 -15
c19.333 0 34.166 5.33301 44.499 16s18.166 23.167 23.499 37.5s9.5 29.166 12.5 44.499s7.16699 28 12.5 38c0.666992 -2 2.33398 -2 5.00098 0s5.66699 4.5 9 7.5s6.5 5.66699 9.5 8s4.83301 2.5 5.5 0.5c-5.33301 -19.333 -6.16602 -37.333 -2.49902 -54
s10.167 -30 19.5 -40s21.166 -16 35.499 -18s29.833 2.66699 46.5 14c4 6 5.83301 13.333 5.5 22s-1.83301 17.5 -4.5 26.5s-6.33398 18 -11.001 27s-9.33398 16.833 -14.001 23.5l24.5 34z" />
    <glyph glyph-name="sukunisolated" unicode="&#xfe7e;" horiz-adv-x="328" arabic-form="isolated" 
d="M347 1696c3.33301 -22.667 0.000976562 -46.502 -9.99902 -71.502s-23.667 -54.167 -41 -87.5v1c0 0.666992 0.333008 1.33398 1 2.00098l-3 -5c-16 -9.33301 -36.5 -18.166 -61.5 -26.499s-49.667 -13.333 -74 -15s-46 2 -65 11s-30.5 26.167 -34.5 51.5
c-3.33301 22 -2.16602 47.167 3.50098 75.5s14.667 55.5 27 81.5s27.666 48.333 45.999 67s38.166 29.667 59.499 33c18.667 2.66699 36.667 0.5 54 -6.5s32.833 -16.5 46.5 -28.5s25.167 -25.5 34.5 -40.5s15 -28.833 17 -41.5zM283.001 1628
c-2 9.33301 -6.49902 19.332 -13.499 29.999s-15.333 20.5 -25 29.5s-20.167 16.333 -31.5 22s-23 7.5 -35 5.5c-20 -3.33301 -34.667 -12.333 -44 -27s-13 -29.667 -11 -45c2 -14.667 9 -25.5 21 -32.5s26 -10.667 42 -11s32.667 1.83398 50 6.50098
s32.666 11.667 45.999 21zM296.002 1537c0 -0.666992 -0.333008 -1 -1 -1zM295.002 1536c0 -0.666992 -0.333008 -1 -1 -1c0.666992 0 1 0.333008 1 1z" />
    <glyph glyph-name="logo" unicode="&#xfe7f;" horiz-adv-x="2797" arabic-form="medial" 
d="M90 727h2611v-504h-2611v504zM1364 886l-45.0107 -26.002c-16 -9.33301 -32.5 -17.833 -49.5 -25.5s-33.833 -14.167 -50.5 -19.5s-33 -8 -49 -8c-20.667 0 -39.167 6.83301 -55.5 20.5s-30.833 35.5 -43.5 65.5l-30 -20.5
c-8.66699 -5.66699 -17.167 -10.834 -25.5 -15.501s-16.833 -8.66699 -25.5 -12l-30 -11c-12 -4 -22.667 -6 -32 -6c-11.333 0 -22.333 3.83301 -33 11.5s-16 18.834 -16 33.501c0 4.66699 0.833008 9.66699 2.5 15s3.83398 11 6.50098 17c12 26.667 28.333 52.167 49 76.5
s43.5 45.666 68.5 63.999s50.833 33 77.5 44s52 16.5 76 16.5c18 0 34 -5.33301 48 -16s21 -28 21 -52c0 -9.33301 -3.16699 -19.5 -9.5 -30.5s-15.5 -23.167 -27.5 -36.5c-13.333 -13.333 -25 -28.166 -35 -44.499s-15 -31.833 -15 -46.5c0 -10 3 -17.167 9 -21.5
s13.667 -6.5 23 -6.5c14 0 30.5 3.33301 49.5 10s37.833 14.334 56.5 23.001s35.834 17.167 51.501 25.5s26.834 14.5 33.501 18.5c5.33301 24.667 16.166 47.5 32.499 68.5s34.833 39.167 55.5 54.5s41.834 27.5 63.501 36.5s40.834 13.5 57.501 13.5
c9.33301 0 16 -1.66699 20 -5s6 -7.66602 6 -12.999c0 -6.66699 -3.66699 -13.5 -11 -20.5s-17.333 -11.167 -30 -12.5c-12.667 -4.66699 -27.334 -11 -44.001 -19s-32.5 -18 -47.5 -30s-27.667 -25.667 -38 -41s-15.5 -32.666 -15.5 -51.999
c0 -21.333 5.5 -36.333 16.5 -45s25.167 -13 42.5 -13s37 3.33301 59 10s43.5 14.5 64.5 23.5s40.333 18.167 58 27.5s31.5 16.333 41.5 21c0 24 6.33301 47.667 19 71s28.834 44.166 48.501 62.499s41.834 33 66.501 44s49 16.5 73 16.5c14.667 0 26.834 -1.5 36.501 -4.5
s17 -6.66699 22 -11s8.5 -9.33301 10.5 -15s3 -10.834 3 -15.501c0 -17.333 -9.66699 -34.666 -29 -51.999s-41.666 -33.666 -66.999 -48.999s-50.166 -28.833 -74.499 -40.5l-52.5 -25.5c10.667 -15.333 24.334 -26.5 41.001 -33.5s35.667 -10.5 57 -10.5
c20 0 41.5 2.83301 64.5 8.5s46.333 13.5 70 23.5s47 21.833 70 35.5s44.5 28.167 64.5 43.5c12.667 9.33301 25.334 20 38 32c12.667 12 26 23 40 33c2.66699 2 7 4.66699 13 8l19.5 10.5c7 3.66699 14.167 6.66699 21.5 9s14 3.5 20 3.5c10 0 15 -4.33301 15 -13
c0 -3.33301 -1.33301 -8.83301 -4 -16.5s-6 -15.167 -10 -22.5c-10.667 -30 -19.167 -55 -25.5 -75s-10.166 -35.667 -11.5 -47c0 -3.33301 2 -5 6 -5c4.66699 0 11.334 2.16699 20 6.5c8.66699 4.33301 18.5 9.66602 29.5 15.999s22.333 13.666 34 21.999
s22.5 16.5 32.5 24.5c2.66699 1.33301 10.334 6.33301 23 15c12.667 8.66699 27 17.834 43 27.501s32 18.5 48 26.5s28.667 12 38 12c8 0 12 -4 12 -12c-2 -19.333 -3 -38.333 -3 -57c0 -8 0.333008 -16.167 1 -24.5s2.16699 -15.666 4.5 -21.999s5.66602 -11.5 10 -15.5
c4.33301 -4 10.166 -6 17.5 -6c11.333 0 21.666 1.83301 31 5.5c9.33301 3.66699 18.333 8.16699 27 13.5s17.167 11.333 25.5 18s17.5 13 27.5 19l8 -21c-8 -6 -18 -14.333 -30 -25s-24.833 -21.167 -38.5 -31.5s-27.834 -19.333 -42.5 -27
c-14.667 -7.66699 -28.667 -11.5 -42 -11.5c-10 0 -18.333 2 -25 6s-11.667 9 -15 15s-5.66602 12.333 -7 19c-1.33301 6.66699 -2 13 -2 19s0.333008 12.167 1 18.5s1 12.166 1 17.499c0 7.33301 -1.16699 14.333 -3.5 21s-7.16602 10 -14.5 10
c-6.66699 0 -15.834 -3.16699 -27.5 -9.5c-11.667 -6.33301 -24.5 -14.333 -38.5 -24l-45 -31c-16 -11 -32 -21.333 -48 -31s-31.333 -17.834 -46 -24.501s-28 -10 -40 -10c-7.33301 1.33301 -14.666 4 -22 8c-7.33301 4 -11 10.333 -11 19c0 15.333 1.5 30.166 4.5 44.499
s9.16699 35.166 18.5 62.499c0 0.666992 -5.16699 -2.66602 -15.5 -9.99902s-24.666 -16.666 -43 -27.999c-18.333 -11.333 -39.666 -23.666 -63.999 -36.999s-50 -25.833 -77 -37.5s-54.667 -21.334 -83 -29.001s-55.833 -11.5 -82.5 -11.5
c-27.333 0 -52.833 5.5 -76.5 16.5s-40.167 26.5 -49.5 46.5c-12.667 -5.33301 -28.5 -12.666 -47.5 -21.999s-39.667 -18.5 -62 -27.5s-45.166 -16.667 -68.499 -23s-45.333 -9.5 -66 -9.5c-23.333 0 -43.833 5.5 -61.5 16.5s-29.5 31.167 -35.5 60.5zM523.989 1295
c5.33301 24.667 13.835 46.001 25.502 64.001s27.167 27 46.5 27c6.66699 0 13.167 -1.16699 19.5 -3.5s9.5 -8.16602 9.5 -17.499c0 -6 -2.66699 -14.167 -8 -24.5s-11 -19.833 -17 -28.5l-97 -192c70 3.33301 139.667 15.333 209 36s132.333 53 189 97
c23.333 20.667 43.833 35.167 61.5 43.5s32.167 12.5 43.5 12.5c16.667 0 25 -7 25 -21c0 -12.667 -7.66699 -28.5 -23 -47.5s-39.666 -37.167 -72.999 -54.5c-22 -22.667 -43 -46.667 -63 -72s-38 -52.666 -54 -81.999s-29.333 -61.333 -40 -96s-17.334 -73 -20.001 -115
c0 -12.667 -5 -19 -15 -19c-8 0 -14 4.5 -18 13.5s-6 24.167 -6 45.5c0 48.667 7.5 95.5 22.5 140.5s33.833 86.5 56.5 124.5c-50.667 -16.667 -102.334 -28.834 -155.001 -36.501s-106.334 -11.5 -161.001 -11.5l-80 -160c-10 -20.667 -23 -38.667 -39 -54
s-34.667 -23 -56 -23c-16 0 -32.667 6.16699 -50 18.5s-33 28.666 -47 48.999s-25.667 43.166 -35 68.499s-14 51 -14 77c0 22.667 5.5 41.5 16.5 56.5s29.167 22.5 54.5 22.5c4 0 8 -0.166992 12 -0.5s8.33301 -0.833008 13 -1.5l92.5 -10c31 -3.33301 62.5 -5 94.5 -5z
M1102.99 264.999h91v320l318 -320h109v421h-91v-320l-313 320h-114v-421zM1708.99 264.999h430v76h-331v108h299v75h-299v87h322v75h-421v-421zM2201.99 685.999v-77h183v-344h89v344h183v77h-455zM426.991 1080c-72 2 -143.332 9.00195 -213.999 21.002
c-8.66699 -6.66699 -13 -18.334 -13 -35.001c0 -15.333 3.16699 -32.833 9.5 -52.5s14.833 -38.334 25.5 -56.001s22.667 -32.667 36 -45s26.666 -18.5 39.999 -18.5c10 0 19.667 4 29 12s18 21.333 26 40zM1182.99 1059
c-3.33301 0.666992 -6.66504 0.999023 -9.99805 0.999023h-10c-24 0 -47.5 -5.66699 -70.5 -17s-44.667 -25.833 -65 -43.5s-39 -37.167 -56 -58.5s-31.5 -41.666 -43.5 -60.999c27.333 0 53.166 5.5 77.499 16.5s47.166 25 68.499 42s41 36.167 59 57.5
s34.667 42.333 50 63zM879.993 390v-125h126v125h-126zM1913.99 1091c-33.333 -3.33301 -66.333 -15.998 -99 -37.998s-58.667 -55 -78 -99c26.667 11.333 51.167 22.666 73.5 33.999s41.833 22.333 58.5 33s29.667 20.667 39 30s14 17.666 14 24.999
c0 6.66699 -2.66699 11.667 -8 15z" />
    <glyph glyph-name="hamzaisolated" unicode="&#x621;" horiz-adv-x="664" arabic-form="isolated" 
d="M88 98c0.666992 6 2.00293 10.9961 4.00293 14.9961s7.66699 8.5 17 13.5s23.5 12 42.5 21l81.5 37.5c-22 2.66699 -41.167 8.16699 -57.5 16.5s-29.833 18.333 -40.5 30s-18.5 24.167 -23.5 37.5s-7.5 26.333 -7.5 39c0 30.667 5 65.5 15 104.5s24 77.333 42 115
s39.667 72.334 65 104.001s53 55.834 83 72.501s62.167 23.667 96.5 21s69.833 -19.667 106.5 -51l-25 -68l-24 -65c-16 6.66699 -34.667 11.167 -56 13.5s-42.333 0.833008 -63 -4.5s-39.5 -15.166 -56.5 -29.499s-29.5 -34.5 -37.5 -60.5c-6 -22.667 -3 -41.167 9 -55.5
s29.167 -25.5 51.5 -33.5s48.166 -13.5 77.499 -16.5s58.166 -4.66699 86.499 -5s54.166 0.166992 77.499 1.5l52 3l-18 -56l-15.5 -46l-15.5 -45c-5.33301 -15.333 -11 -32.666 -17 -51.999c-35.333 -8 -74.5 -17.833 -117.5 -29.5s-86 -25.167 -129 -40.5
s-84.667 -32.333 -125 -51s-75.833 -39 -106.5 -61z" />
    <glyph glyph-name="alefwithmaddaaboveisolated" unicode="&#x622;" horiz-adv-x="413" arabic-form="isolated" 
d="M129 390c-3.33301 146.667 -7.16797 293.002 -11.501 439.002s-8.16602 292.333 -11.499 439l104.5 42l102.5 42c-1.33301 -82.667 -2.83301 -163.334 -4.5 -242.001s-3.16699 -157 -4.5 -235s-2.83301 -156.333 -4.5 -235s-3.16699 -159.334 -4.5 -242.001l-69 -125
l-69 -125h-29zM-10.002 1413c-1.33301 54 15.832 105.332 51.499 153.999s102.5 50.834 200.5 6.50098s173 -28.5 225 47.5c-25.333 -160 -97.166 -213 -215.499 -159s-205.5 37.667 -261.5 -49z" />
    <glyph glyph-name="alefwithmaddaabovefinal" unicode="&#x622;" horiz-adv-x="474" arabic-form="final" 
d="M104 390c-3.33301 146.667 -6.83301 293 -10.5 439s-7.16699 292.333 -10.5 439l104 43l100 41l-16 -989h210v-215h-377v242zM-10 1413c-1.33301 54 15.832 105.332 51.499 153.999s102.5 50.834 200.5 6.50098s173 -28.5 225 47.5
c-25.333 -160 -97.166 -213 -215.499 -159s-205.5 37.667 -261.5 -49z" />
    <glyph glyph-name="alefwithhamzaaboveisolated" unicode="&#x623;" horiz-adv-x="413" arabic-form="isolated" 
d="M128 390c-3.33301 146.667 -7 293.001 -11 439.001l-12 439l105.5 42l101.5 42l-4 -242c-1.33301 -78.667 -2.83301 -157 -4.5 -235l-5 -235c-1.66699 -78.667 -3.16699 -159.334 -4.5 -242.001l-68.5 -125l-68.5 -125h-30zM97 1460
c0.666992 2.66699 1.49805 4.99512 2.49805 6.99512s3.83301 4.33301 8.5 7s11.5 6.33398 20.5 11.001l37.5 19c-21.333 3.33301 -36.666 11.166 -45.999 23.499s-14 24.833 -14 37.5c0 15.333 2.33301 33 7 53s11.167 39.5 19.5 58.5s18.333 36.5 30 52.5
s24.667 28.333 39 37s29.5 12.334 45.5 11.001s32.667 -10 50 -26l-12 -35c-4 -12 -8 -22.667 -12 -32c-7.33301 3.33301 -16 5.5 -26 6.5s-19.667 0.166992 -29 -2.5s-18 -7.66699 -26 -15s-13.667 -17.666 -17 -30.999c-3.33301 -11.333 -2.16602 -20.5 3.50098 -27.5
s13.667 -12.667 24 -17s22.333 -7.16602 36 -8.49902s27 -2.16602 40 -2.49902s25 -0.166016 36 0.500977s19.167 1 24.5 1l-8.5 -28l-7 -23l-7 -22.5l-7.5 -25.5c-16.667 -4 -35 -9 -55 -15s-40 -12.833 -60 -20.5s-39.5 -16.167 -58.5 -25.5s-35.833 -19.333 -50.5 -30z
" />
    <glyph glyph-name="alefwithhamzaabovefinal" unicode="&#x623;" horiz-adv-x="471" arabic-form="final" 
d="M100 390l-10 439c-3.33301 146 -7 292.333 -11 439l104.5 43l100.5 41l-17 -989h211v-215h-378v242zM79 1450c0.666992 2.66699 1.49902 4.99512 2.49902 6.99512s3.83301 4.16699 8.5 6.5l20.5 10.5l37.5 19c-21.333 3.33301 -36.666 11.333 -45.999 24
s-14 25.334 -14 38.001c0 15.333 2.33301 32.833 7 52.5s11.167 39 19.5 58s18.333 36.5 30 52.5s24.667 28.333 39 37s29.5 12.334 45.5 11.001s32.333 -10 49 -26l-11 -34.5c-4 -12.333 -8 -23.166 -12 -32.499c-7.33301 3.33301 -16 5.5 -26 6.5
s-19.833 0.166992 -29.5 -2.5s-18.334 -7.5 -26.001 -14.5s-13.167 -17.167 -16.5 -30.5c-3.33301 -11.333 -2.16602 -20.5 3.50098 -27.5s13.667 -12.667 24 -17s22.333 -7.16602 36 -8.49902s27 -2.16602 40 -2.49902s25 -0.166016 36 0.500977s19.167 1 24.5 1l-8.5 -28
l-7 -23l-7 -22.5c-2.33301 -7.66699 -4.83301 -16.5 -7.5 -26.5c-16.667 -4 -35 -9 -55 -15s-40.167 -12.667 -60.5 -20s-40 -15.833 -59 -25.5s-35.5 -19.834 -49.5 -30.501z" />
    <glyph glyph-name="wawwithhamzaaboveisolated" unicode="&#x624;" horiz-adv-x="848" arabic-form="isolated" 
d="M424 858c62.667 0 116.002 -13.8359 160.002 -41.5029s80 -64.5 108 -110.5s48.5 -98.667 61.5 -158s19.5 -120.666 19.5 -183.999c0 -47.333 -3.33301 -94.333 -10 -141s-16.334 -91.5 -29.001 -134.5s-27.834 -83.167 -45.501 -120.5s-37.5 -70 -59.5 -98
c-52 -65.333 -102.333 -112.5 -151 -141.5s-96.667 -43.5 -144 -43.5c-42 0 -84.167 9.5 -126.5 28.5s-86.5 45.5 -132.5 79.5c0.666992 0.666992 1.16699 5 1.5 13s0.833008 12.333 1.5 13c60.667 -0.666992 116.667 6.33301 168 21s97.666 36.334 138.999 65.001
s77.333 63.5 108 104.5s56 87.167 76 138.5h-302c-12.667 1.33301 -24.167 3.5 -34.5 6.5s-18.166 5.5 -23.499 7.5l5 -2c-48 30 -82.667 68.333 -104 115s-32 96.334 -32 149.001c0 51.333 8.83301 102.833 26.5 154.5s42 98.167 73 139.5s67.5 75 109.5 101
s87.667 39 137 39zM388.002 687.997c-22 0 -41.998 -5.66797 -59.998 -17.001s-33.5 -26 -46.5 -44s-23 -38 -30 -60s-10.5 -44 -10.5 -66c0 -29.333 7 -56.833 21 -82.5s36.667 -44.167 68 -55.5h239c2.66699 12.667 4.5 24.5 5.5 35.5s1.5 21.167 1.5 30.5
c0 22 -2.33301 47.833 -7 77.5s-13.834 57.834 -27.501 84.501s-32.834 49.5 -57.501 68.5s-56.667 28.5 -96 28.5zM219.004 1007c0.666992 4 1.66211 7.16211 2.99512 9.49512s5 5.16602 11 8.49902s15.333 7.83301 28 13.5l54 24.5c-14.667 2 -27.167 5.83301 -37.5 11.5
s-19 12.334 -26 20.001s-12.167 15.834 -15.5 24.501s-5 17.334 -5 26.001c0 20 3.33301 42.833 10 68.5s15.834 51 27.501 76s25.834 48 42.501 69s35 37.167 55 48.5s41.333 16 64 14s46 -13.333 70 -34c-6 -14 -11.667 -29 -17 -45s-10.666 -30.333 -15.999 -43
c-10.667 4.66699 -23 7.66699 -37 9s-27.667 0.166016 -41 -3.50098s-25.666 -10.167 -36.999 -19.5s-19.333 -22.666 -24 -39.999c-4.66699 -14.667 -3 -26.667 5 -36s19.333 -16.666 34 -21.999s31.5 -9 50.5 -11s37.833 -3.16699 56.5 -3.5
s35.834 -0.166016 51.501 0.500977s27.167 1.33398 34.5 2.00098l-12 -36.5l-10 -30.5l-10 -30l-11 -34c-23.333 -5.33301 -49.166 -11.833 -77.499 -19.5s-56.833 -16.5 -85.5 -26.5s-56.334 -21.167 -83.001 -33.5s-50 -25.833 -70 -40.5z" />
    <glyph glyph-name="wawwithhamzaabovefinal" unicode="&#x624;" horiz-adv-x="915" arabic-form="final" 
d="M446 858c60 0 111.665 -13.665 154.998 -40.998s79.166 -63.833 107.499 -109.5s49.5 -98.334 63.5 -158.001s21.667 -121.834 23 -186.501h143v-215h-166c-13.333 -58 -30.166 -110.833 -50.499 -158.5s-44.166 -87.5 -71.499 -119.5
c-52 -65.333 -102.167 -112.5 -150.5 -141.5s-96.5 -43.5 -144.5 -43.5c-42 0 -84.167 9.5 -126.5 28.5s-85.833 45.167 -130.5 78.5v36c58.667 -0.666992 113.667 6.16602 165 20.499s98 35.333 140 63s78.833 61.5 110.5 101.5s56.834 85 75.501 135h-299
c-12.667 1.33301 -24.167 3.5 -34.5 6.5s-18.5 5.5 -24.5 7.5l5 -2c-48 30 -82.5 68.333 -103.5 115s-31.5 96.334 -31.5 149.001c0 51.333 8.66699 102.833 26 154.5s41.5 98.167 72.5 139.5s67.5 75 109.5 101s87.667 39 137 39zM410.998 688.002
c-22 0 -42.167 -5.66895 -60.5 -17.002s-34 -26 -47 -44s-23 -38 -30 -60s-10.5 -44 -10.5 -66c0 -30 7 -57.667 21 -83s36.667 -43.666 68 -54.999h238c3.33301 12.667 5.5 24.5 6.5 35.5s1.5 21.167 1.5 30.5c0 22 -2.33301 47.833 -7 77.5s-13.834 57.834 -27.501 84.501
s-32.667 49.5 -57 68.5s-56.166 28.5 -95.499 28.5zM251.998 998c0.666992 4 1.83203 7.16113 3.49902 9.49414s5.5 5.33301 11.5 9s15.333 8.33398 28 14.001l54 24.5c-29.333 4 -50.833 14.333 -64.5 31s-20.5 33.667 -20.5 51c0 20 3.33301 42.833 10 68.5
s16 50.834 28 75.501s26.167 47.5 42.5 68.5s34.5 37.167 54.5 48.5s41.333 16 64 14s46 -13.333 70 -34c-5.33301 -13.333 -10.833 -28.166 -16.5 -44.499s-11.167 -30.5 -16.5 -42.5c-10.667 4 -23 6.66699 -37 8s-27.667 0.333008 -41 -3s-25.666 -9.83301 -36.999 -19.5
s-19.333 -22.834 -24 -39.501c-4 -15.333 -2.16699 -27.666 5.5 -36.999s18.834 -16.666 33.501 -21.999s31.667 -9 51 -11s38.333 -3.16699 57 -3.5s35.667 -0.166016 51 0.500977s26.666 1.33398 33.999 2.00098c-4 -14 -7.83301 -26.167 -11.5 -36.5l-10.5 -30
c-3.33301 -9.66699 -6.5 -19.5 -9.5 -29.5l-10.5 -34c-23.333 -5.33301 -49.166 -12 -77.499 -20s-56.833 -17 -85.5 -27s-56.334 -21.167 -83.001 -33.5s-50 -25.5 -70 -39.5z" />
    <glyph glyph-name="alefwithhamzabelowisolated" unicode="&#x625;" horiz-adv-x="413" arabic-form="isolated" 
d="M130 390l-12 439.001c-4 146 -7.66699 292.333 -11 439l104.5 42l102.5 42c-1.33301 -82.667 -2.83301 -163.334 -4.5 -242.001l-5 -235c-1.66699 -78 -3.16699 -156.333 -4.5 -235l-4 -242l-69.5 -125l-69.5 -125h-28zM101 -270.999
c0.666992 2.66699 1.49902 4.99609 2.49902 6.99609s3.66699 4.16699 8 6.5l20 10.5c9 4.66699 21.833 11 38.5 19c-21.333 3.33301 -36.666 11.333 -45.999 24s-14 25.334 -14 38.001c0 15.333 2.33301 32.833 7 52.5s11.167 39 19.5 58s18.333 36.5 30 52.5
s24.5 28.333 38.5 37s29 12.334 45 11.001s32.667 -10 50 -26c-4 -10.667 -8 -22 -12 -34l-11 -32c-7.33301 3.33301 -16 5.5 -26 6.5s-19.833 0.166992 -29.5 -2.5s-18.5 -7.66699 -26.5 -15s-13.667 -17.666 -17 -30.999c-3.33301 -11.333 -2.16602 -20.5 3.50098 -27.5
s13.667 -12.667 24 -17s22.333 -7.16602 36 -8.49902s27.167 -2.16602 40.5 -2.49902s25.5 -0.166016 36.5 0.500977s19.167 1 24.5 1l-8.5 -28l-7 -23l-7.5 -22.5c-2.66699 -7.66699 -5.33398 -16.167 -8.00098 -25.5c-16.667 -4 -35 -9 -55 -15s-40 -12.833 -60 -20.5
s-39.5 -16.334 -58.5 -26.001s-35.5 -19.834 -49.5 -30.501z" />
    <glyph glyph-name="alefwithhamzabelowfinal" unicode="&#x625;" horiz-adv-x="459" arabic-form="final" 
d="M102 390c-4 146.667 -7.66699 293 -11 439l-10 439l103 43l100 41l-15 -989h210v-215h-377v242zM46 -300c0.666992 2.66699 1.49902 4.99512 2.49902 6.99512s3.83301 4.33301 8.5 7s11.5 6.33398 20.5 11.001l37.5 19c-21.333 3.33301 -36.666 11.166 -45.999 23.499
s-14 24.833 -14 37.5c0 15.333 2.33301 33 7 53s11.167 39.5 19.5 58.5s18.333 36.5 30 52.5s24.667 28.333 39 37s29.5 12.334 45.5 11.001s32.333 -10 49 -26c-3.33301 -11.333 -7 -23 -11 -35s-8 -22.667 -12 -32c-7.33301 3.33301 -16 5.5 -26 6.5
s-19.833 0.166992 -29.5 -2.5s-18.334 -7.66699 -26.001 -15s-13.167 -17.666 -16.5 -30.999c-3.33301 -11.333 -2.16602 -20.5 3.50098 -27.5s13.667 -12.667 24 -17s22.333 -7.16602 36 -8.49902s27 -2.16602 40 -2.49902s25 -0.166016 36 0.500977s19.167 1 24.5 1
l-8.5 -28l-7 -23l-7 -22.5l-7.5 -25.5c-16.667 -4 -35 -9 -55 -15s-40.167 -12.833 -60.5 -20.5s-40 -16.167 -59 -25.5s-35.5 -19.333 -49.5 -30z" />
    <glyph glyph-name="yehwithhamzaaboveisolated" unicode="&#x626;" horiz-adv-x="1215" arabic-form="isolated" 
d="M78 232c-0.666992 14 0.335938 31.665 3.00293 52.998s6.5 44 11.5 68s11.167 48.667 18.5 74s15.333 49.666 24 72.999s18 44.5 28 63.5s20 34.167 30 45.5v-1c7.33301 7.33301 16 13 26 17l31 12l7 2c-9.33301 -42 -17.333 -85.667 -24 -131s-10 -90 -10 -134
c0 -53.333 6.83301 -106.666 20.5 -159.999s35.5 -101.5 65.5 -144.5s68.667 -77.833 116 -104.5s104.666 -40 171.999 -40c40 0 80.5 6.33301 121.5 19s79.5 30.667 115.5 54s67.333 51.166 94 83.499s45.334 68.5 56.001 108.5c-17.333 4.66699 -37.833 9 -61.5 13
s-48.334 8.66699 -74.001 14s-51 11.5 -76 18.5s-47.5 15.667 -67.5 26s-36.167 23 -48.5 38s-18.5 32.833 -18.5 53.5c0 32 5.5 67.833 16.5 107.5s26 79.834 45 120.501s41.5 80.334 67.5 119.001s54 73.167 84 103.5s61.667 54.666 95 72.999s66.666 27.5 99.999 27.5
c18.667 0 34.167 -2.16699 46.5 -6.5s22 -10.333 29 -18s12 -16.5 15 -26.5s4.5 -21 4.5 -33c0 -18.667 -1.83301 -38 -5.5 -58s-7.5 -39.667 -11.5 -59c-1.33301 -4 -2.33301 -7.66699 -3 -11s-1.33398 -7.33301 -2.00098 -12c-22.667 9.33301 -44.5 14.666 -65.5 15.999
s-38.167 1.66602 -51.5 0.999023h-11c-12 0 -25.167 -4.5 -39.5 -13.5s-28.666 -20.5 -42.999 -34.5s-28.166 -29.167 -41.499 -45.5s-25.166 -32.166 -35.499 -47.499s-18.666 -28.666 -24.999 -39.999s-9.5 -18.666 -9.5 -21.999c0 -11.333 5.66699 -21.666 17 -30.999
s25.833 -17.833 43.5 -25.5s37.5 -14.5 59.5 -20.5l65.5 -17.5l61.5 -15.5c19.333 -4.66699 34.666 -9.33398 45.999 -14.001c10.667 -5.33301 19.5 -13.666 26.5 -24.999s12.167 -24 15.5 -38s5.66602 -29 6.99902 -45s2 -31.333 2 -46c-4 -82 -22.333 -154.667 -55 -218
s-74 -116.833 -124 -160.5s-106.333 -76.667 -169 -99s-126.334 -33.5 -191.001 -33.5c-63.333 0 -125.333 10.5 -186 31.5s-115.334 53 -164.001 96s-88.667 97.667 -120 164s-49.333 144.833 -54 235.5zM119.003 796.998c0.666992 4 1.83008 7.16113 3.49707 9.49414
s5.5 5.33301 11.5 9s15.333 8.33398 28 14.001l54 24.5c-29.333 4 -50.833 14.333 -64.5 31s-20.5 33.667 -20.5 51c0 20 3.33301 42.833 10 68.5s16 50.834 28 75.501s26.167 47.5 42.5 68.5s34.5 37.167 54.5 48.5s41.333 16 64 14s46 -13.333 70 -34
c-5.33301 -13.333 -10.833 -28.166 -16.5 -44.499s-11.167 -30.5 -16.5 -42.5c-10.667 4 -23 6.66699 -37 8s-27.667 0.333008 -41 -3s-25.666 -9.83301 -36.999 -19.5s-19.333 -22.834 -24 -39.501c-4 -15.333 -2.16699 -27.666 5.5 -36.999s18.834 -16.666 33.501 -21.999
s31.667 -9 51 -11s38.333 -3.16699 57 -3.5s35.667 -0.166016 51 0.500977s26.666 1.33398 33.999 2.00098c-4 -14 -7.83301 -26.167 -11.5 -36.5l-10.5 -30l-10 -29.5l-11 -34c-23.333 -5.33301 -49.166 -12 -77.499 -20s-56.666 -17 -84.999 -27
s-55.833 -21.167 -82.5 -33.5s-50 -25.5 -70 -39.5z" />
    <glyph glyph-name="yehwithhamzaabovefinal" unicode="&#x626;" horiz-adv-x="1290" arabic-form="final" 
d="M1312 363l0.00195312 -214.996h-181c0.666992 -59.333 -5.83301 -113.833 -19.5 -163.5s-32.834 -94.667 -57.501 -135s-53.834 -75.833 -87.501 -106.5s-70.334 -56.334 -110.001 -77.001s-81.334 -36.334 -125.001 -47.001s-87.834 -16 -132.501 -16
c-63.333 0 -125.333 11 -186 33s-115.5 54.833 -164.5 98.5s-89.667 98.167 -122 163.5s-51.5 141.333 -57.5 228c0 23.333 3.16699 53 9.5 89s14.833 72.667 25.5 110s22.834 72.333 36.501 105s27.834 57 42.501 73c6.66699 7.33301 15.834 13.333 27.501 18
s23.834 9 36.501 13c-9.33301 -42 -17.166 -85.333 -23.499 -130s-9.5 -89.334 -9.5 -134.001c0 -48 4.5 -94.833 13.5 -140.5s24.333 -88 46 -127s50.667 -73.333 87 -103s82.166 -52.834 137.499 -69.501c45.333 -11.333 93.166 -13.5 143.499 -6.5
s97.833 21.333 142.5 43s83.834 50 117.501 85s56.834 74.833 69.501 119.5c-14.667 20 -32.667 35.5 -54 46.5s-44.333 18.833 -69 23.5s-49.834 7.16699 -75.501 7.5s-49.834 0.5 -72.501 0.5l57 214h555zM95.002 665.004c0.666992 4 1.83301 7.16113 3.5 9.49414
s5.5 5.33301 11.5 9s15.333 8.33398 28 14.001l54 24.5c-14.667 2 -27.334 5.66699 -38.001 11s-19.5 11.833 -26.5 19.5s-12.167 15.834 -15.5 24.501s-5 17.334 -5 26.001c0 20 3.33301 42.833 10 68.5s16 51 28 76s26.167 48 42.5 69s34.5 37.167 54.5 48.5
s41.333 16 64 14s46 -13.333 70 -34l-16.5 -45c-5.66699 -16 -11.167 -30.333 -16.5 -43c-10.667 4.66699 -23 7.66699 -37 9s-27.667 0.166016 -41 -3.50098s-25.666 -10.167 -36.999 -19.5s-19.333 -22.666 -24 -39.999c-4 -14.667 -2.16699 -26.667 5.5 -36
s18.834 -16.666 33.501 -21.999s31.667 -9 51 -11s38.333 -3.16699 57 -3.5s35.667 -0.166016 51 0.500977s26.666 1.33398 33.999 2.00098c-4 -14 -7.83301 -26.167 -11.5 -36.5l-10.5 -30.5c-3.33301 -10 -6.5 -20 -9.5 -30l-10.5 -34
c-23.333 -5.33301 -49.166 -11.833 -77.499 -19.5s-56.833 -16.5 -85.5 -26.5s-56.334 -21.167 -83.001 -33.5s-50 -25.833 -70 -40.5z" />
    <glyph glyph-name="yehwithhamzaaboveinitial" unicode="&#x626;" horiz-adv-x="677" arabic-form="initial" 
d="M-29 363l406 0.00195312c4 19.333 7.5 38.166 10.5 56.499s4.5 35.166 4.5 50.499c0 36 -4.66699 75.5 -14 118.5s-24.666 85.5 -45.999 127.5l87 60.5l84 57.5c28 -63.333 47.167 -129 57.5 -197s15.5 -137.333 15.5 -208c0 -48 -2.33301 -95.5 -7 -142.5
s-10.334 -93.167 -17.001 -138.5h-581v215zM127 929.002c0.666992 4 1.83008 7.16504 3.49707 9.49805s5.5 5.16602 11.5 8.49902s15.333 7.83301 28 13.5l54 24.5c-29.333 4 -50.833 14.333 -64.5 31s-20.5 33.667 -20.5 51c0 20 3.33301 42.833 10 68.5s16 51 28 76
s26.167 48 42.5 69s34.5 37 54.5 48s41.333 15.667 64 14s46 -12.834 70 -33.501l-16.5 -45.5c-5.66699 -16.333 -11.167 -30.5 -16.5 -42.5c-10.667 4 -23 6.66699 -37 8s-27.667 0.333008 -41 -3s-25.666 -9.66602 -36.999 -18.999s-19.333 -22.666 -24 -39.999
c-4 -15.333 -2.16699 -27.666 5.5 -36.999s18.834 -16.666 33.501 -21.999s31.667 -8.83301 51 -10.5s38.333 -2.66699 57 -3s35.667 0 51 1s26.666 1.5 33.999 1.5c-4 -14 -7.83301 -26.167 -11.5 -36.5l-10.5 -30.5l-10 -30l-11 -34
c-23.333 -5.33301 -49.166 -12 -77.499 -20s-56.666 -17 -84.999 -27s-55.833 -21.167 -82.5 -33.5s-50 -25.5 -70 -39.5z" />
    <glyph glyph-name="yehwithhamzaabovemedial" unicode="&#x626;" horiz-adv-x="619" arabic-form="medial" 
d="M-23 363l258.998 0.00195312c4.66699 19.333 8.33398 38.166 11.001 56.499s4 35.166 4 50.499c0 36 -4.66699 75.5 -14 118.5s-24.666 85.5 -45.999 127.5l87 60.5l83 57.5c28 -65.333 47.167 -132.833 57.5 -202.5s15.5 -140.167 15.5 -211.5v-57h212v-215h-669v215z
M126.998 929.002c0.666992 4 1.83008 7.16504 3.49707 9.49805s5.5 5.16602 11.5 8.49902s15.333 7.83301 28 13.5l54 24.5c-29.333 4 -50.833 14.333 -64.5 31s-20.5 33.667 -20.5 51c0 20 3.33301 42.833 10 68.5s16 51 28 76s26.167 48 42.5 69s34.5 37 54.5 48
s41.333 15.667 64 14s46 -12.834 70 -33.501l-16.5 -45.5c-5.66699 -16.333 -11.167 -30.5 -16.5 -42.5c-10.667 4 -23 6.66699 -37 8s-27.667 0.333008 -41 -3s-25.666 -9.66602 -36.999 -18.999s-19.333 -22.666 -24 -39.999c-4 -15.333 -2.16699 -27.666 5.5 -36.999
s18.834 -16.666 33.501 -21.999s31.667 -8.83301 51 -10.5s38.333 -2.66699 57 -3s35.667 0 51 1s26.666 1.5 33.999 1.5c-4 -14 -7.83301 -26.167 -11.5 -36.5l-10.5 -30.5l-10 -30l-11 -34c-23.333 -5.33301 -49.166 -12 -77.499 -20s-56.666 -17 -84.999 -27
s-55.833 -21.167 -82.5 -33.5s-50 -25.5 -70 -39.5z" />
    <glyph glyph-name="alefisolated" unicode="&#x627;" horiz-adv-x="413" arabic-form="isolated" 
d="M128 390c-3.33301 146.667 -7.16797 293.002 -11.501 439.002s-8.16602 292.333 -11.499 439l105.5 42l101.5 42c-1.33301 -82.667 -2.83301 -163.334 -4.5 -242.001s-3.16699 -157 -4.5 -235s-2.83301 -156.333 -4.5 -235s-3.16699 -159.334 -4.5 -242.001l-68.5 -125
l-69.5 -125h-29z" />
    <glyph glyph-name="aleffinal" unicode="&#x627;" horiz-adv-x="459" arabic-form="final" 
d="M100 390l-10 439c-3.33301 146 -7 292.333 -11 439l104.5 43l100.5 41l-17 -989h211v-215h-378v242z" />
    <glyph glyph-name="behisolated" unicode="&#x628;" horiz-adv-x="1410" arabic-form="isolated" 
d="M52 230c0 21.333 3 50.001 9 86.001s14.167 72.833 24.5 110.5s22.333 73.334 36 107.001s28.167 58.834 43.5 75.501c6 7.33301 14.333 12.833 25 16.5l33 11.5c-6 -22.667 -10.667 -43.834 -14 -63.501s-5 -39.167 -5 -58.5c0 -36.667 7.16699 -68.167 21.5 -94.5
s37.5 -45.5 69.5 -57.5h822c5.33301 18 9.5 36.333 12.5 55s4.5 36.667 4.5 54c0 36 -4.66699 75.167 -14 117.5s-24.666 84.5 -45.999 126.5l86.5 60.5l83.5 57.5c28 -63.333 46.833 -129.333 56.5 -198s14.5 -138.667 14.5 -210c0 -21.333 -0.5 -43.833 -1.5 -67.5
s-2.5 -47.834 -4.5 -72.501s-4.16699 -48.834 -6.5 -72.501s-4.83301 -45.5 -7.5 -65.5h-1201c-8.66699 5.33301 -17.834 15 -27.501 29s-14.5 31.667 -14.5 53zM759 -87.999l152 -152l-41 -41l-37 -37l-36 -36.5l-38 -39.5l-78.5 78l-75.5 76z" />
    <glyph glyph-name="behfinal" unicode="&#x628;" horiz-adv-x="1475" arabic-form="final" 
d="M59 230c0 21.333 3 49.999 9 85.999s14.167 72.833 24.5 110.5s22.333 73.334 36 107.001s28.167 58.834 43.5 75.501c6 7.33301 14.333 12.833 25 16.5l33 11.5c-12.667 -44 -19 -84.667 -19 -122c0 -36.667 7.16699 -68.167 21.5 -94.5s37.5 -45.5 69.5 -57.5h822
c5.33301 18 9.5 36.333 12.5 55s4.5 36.667 4.5 54c0 36 -4.66699 75.167 -14 117.5s-24.666 84.5 -45.999 126.5l86.5 60.5l83.5 57.5c28.667 -65.333 47.667 -131.333 57 -198s14 -136.334 14 -209.001v-64h169v-215h-1390c-8.66699 5.33301 -17.834 15 -27.501 29
s-14.5 31.667 -14.5 53zM825 -88.001l153 -152l-41 -41l-37 -37l-36 -36.5l-39 -39.5l-41 41l-37 37l-36 36.5l-39 39.5z" />
    <glyph glyph-name="behinitial" unicode="&#x628;" horiz-adv-x="688" arabic-form="initial" 
d="M-13 363l406 0.00195312c4 19.333 7.5 38.166 10.5 56.499s4.5 35.166 4.5 50.499c0 36 -4.66699 75.5 -14 118.5s-24.666 85.5 -45.999 127.5l87 60.5l84 57.5c28 -63.333 47.167 -129 57.5 -197s15.5 -137.333 15.5 -208c0 -48 -2.33301 -95.5 -7 -142.5
s-10.334 -93.167 -17.001 -138.5h-581v215zM323 -87.998l152 -152l-40.5 -41l-36.5 -37l-36 -36.5l-39 -39.5l-155 154z" />
    <glyph glyph-name="behmedial" unicode="&#x628;" horiz-adv-x="619" arabic-form="medial" 
d="M-23 363l258.998 0.00195312c4.66699 19.333 8.33398 38.166 11.001 56.499s4 35.166 4 50.499c0 36 -4.66699 75.5 -14 118.5s-24.666 85.5 -45.999 127.5l87 60.5l83 57.5c28 -65.333 47.167 -132.833 57.5 -202.5s15.5 -140.167 15.5 -211.5v-57h212v-215h-669v215z
M304.998 -87.998l153 -152l-41 -41l-37 -37l-36 -36.5l-39 -39.5l-154 154z" />
    <glyph glyph-name="tehmarbutaisolated" unicode="&#x629;" horiz-adv-x="854" arabic-form="isolated" 
d="M419 858c51.333 1.33301 98.501 -10.4961 141.501 -35.4961s80 -57.833 111 -98.5s55 -86.334 72 -137.001s25.5 -101 25.5 -151c0 -36 -5.33301 -70.5 -16 -103.5s-27 -62.667 -49 -89s-49.667 -48 -83 -65s-73 -27.167 -119 -30.5h-239
c-11.333 1.33301 -21.833 3 -31.5 5s-17.5 4.33301 -23.5 7c-46.667 30 -81 68.167 -103 114.5s-33 95.166 -33 146.499s8.83301 102.666 26.5 153.999s42 97.833 73 139.5s67.667 75.667 110 102s88.166 40.166 137.499 41.499zM570.001 1368l41 -41l37 -37l36 -36.5
l39 -39.5l-153 -152l-141 140l-141 -140l-154 152l154 154l39 -39l32.5 -32.5l32 -32l37.5 -37.5zM383.001 688.004c-22 0 -42.167 -5.66406 -60.5 -16.9971s-33.833 -26 -46.5 -44s-22.5 -38 -29.5 -60s-10.5 -44 -10.5 -66c0 -29.333 6.83301 -56.833 20.5 -82.5
s36.167 -44.167 67.5 -55.5h239c5.33301 25.333 8 47 8 65c0 14.667 -1 31.167 -3 49.5s-5.5 37.166 -10.5 56.499s-12 38.166 -21 56.499s-20.5 34.666 -34.5 48.999s-30.667 26 -50 35s-42.333 13.5 -69 13.5z" />
    <glyph glyph-name="tehmarbutafinal" unicode="&#x629;" horiz-adv-x="907" arabic-form="final" 
d="M440 869c0 4.66699 4.49902 10.502 13.499 17.502s20 14.5 33 22.5s27.333 15.833 43 23.5l43 20.5c13 6 24 10.833 33 14.5s13.5 5.16699 13.5 4.5c2 -22.667 4.66699 -50 8 -82l10 -99l9.5 -99.5l7.5 -83.5c4 -34.667 10.333 -64.834 19 -90.501
s19.334 -47.5 32.001 -65.5s27 -33 43 -45s33 -21.667 51 -29c26 -11.333 60.667 -17 104 -17h17v-213h-76c-41.333 -1.33301 -78.333 1.66699 -111 9s-61.667 20.333 -87 39s-47.666 43.167 -66.999 73.5s-36.333 67.5 -51 111.5
c-14.667 -54 -32.334 -96.833 -53.001 -128.5s-43.5 -54.167 -68.5 -67.5s-51.833 -19 -80.5 -17s-58.167 9.33301 -88.5 22s-61.333 29.5 -93 50.5s-63.167 43.833 -94.5 68.5l8.5 63.5l9 68l9 68l8.5 63.5c2.66699 9.33301 14.5 22.166 35.5 38.499s47.667 33.5 80 51.5
s69.333 36 111 54s85.167 33.667 130.5 47v24c0 9.33301 -0.166992 19 -0.5 29l-1 29c-0.333008 9.33301 -0.5 17.333 -0.5 24zM550.999 1368l41 -41l37 -37l36 -36.5l39 -39.5l-153 -152l-141 140l-141 -140l-154 152l154 154l39 -39l32.5 -32.5l32 -32l37.5 -37.5z
M180.999 495.002l43.499 -24.5l52.5 -29.5l52.5 -29l44.5 -24c15.333 -8 29.833 -9.33301 43.5 -4s25.834 14.833 36.501 28.5s19.667 30.5 27 50.5s12.5 40.667 15.5 62s3.66699 42.333 2 63s-6.5 38.667 -14.5 54z" />
    <glyph glyph-name="tehisolated" unicode="&#x62a;" horiz-adv-x="1387" arabic-form="isolated" 
d="M52 230c0 21.333 3 50.001 9 86.001s14.167 72.833 24.5 110.5s22.333 73.334 36 107.001s28.167 58.834 43.5 75.501c6 7.33301 14.333 12.833 25 16.5l33 11.5c-6 -22.667 -10.667 -43.834 -14 -63.501s-5 -39.167 -5 -58.5c0 -36.667 7.16699 -68.167 21.5 -94.5
s37.5 -45.5 69.5 -57.5h822c5.33301 18 9.5 36.333 12.5 55s4.5 36.667 4.5 54c0 36 -4.66699 75.167 -14 117.5s-24.666 84.5 -45.999 126.5l86.5 60.5l83.5 57.5c28 -63.333 46.833 -129.333 56.5 -198s14.5 -138.667 14.5 -210c0 -21.333 -0.5 -43.833 -1.5 -67.5
s-2.5 -47.834 -4.5 -72.501s-4.16699 -48.834 -6.5 -72.501s-4.83301 -45.5 -7.5 -65.5h-1201c-8.66699 5.33301 -17.834 15 -27.501 29s-14.5 31.667 -14.5 53zM825 1116l77.5 -78.5l75.5 -75.5l-153 -153l-141 141l-141 -141l-154 153l154 154l39 -39l32.5 -33l32 -32
l37.5 -37z" />
    <glyph glyph-name="tehfinal" unicode="&#x62a;" horiz-adv-x="1475" arabic-form="final" 
d="M59 230c0 21.333 3 49.999 9 85.999s14.167 72.833 24.5 110.5s22.333 73.334 36 107.001s28.167 58.834 43.5 75.501c6 7.33301 14.333 12.833 25 16.5l33 11.5c-12.667 -44 -19 -84.667 -19 -122c0 -36.667 7.16699 -68.167 21.5 -94.5s37.5 -45.5 69.5 -57.5h822
c5.33301 18 9.5 36.333 12.5 55s4.5 36.667 4.5 54c0 36 -4.66699 75.167 -14 117.5s-24.666 84.5 -45.999 126.5l86.5 60.5l83.5 57.5c28.667 -65.333 47.667 -131.333 57 -198s14 -136.334 14 -209.001v-64h169v-215h-1390c-8.66699 5.33301 -17.834 15 -27.501 29
s-14.5 31.667 -14.5 53zM825 1137l41 -41l37 -37l36 -36.5l39 -39.5l-153 -152l-141 140l-141 -140l-154 152l154 154l39 -38.5l32.5 -32.5l32 -32l37.5 -37z" />
    <glyph glyph-name="tehinitial" unicode="&#x62a;" horiz-adv-x="688" arabic-form="initial" 
d="M-8 363l406 0.00195312c4 19.333 7.5 38.166 10.5 56.499s4.5 35.166 4.5 50.499c0 36 -4.66699 75.5 -14 118.5s-24.666 85.5 -45.999 127.5l87 60.5l84 57.5c28 -63.333 47.167 -129 57.5 -197s15.5 -137.333 15.5 -208c0 -48 -2.33301 -95.5 -7 -142.5
s-10.334 -93.167 -17.001 -138.5h-581v215zM424 1268l41 -41l37 -37l36 -36.5l39 -39.5l-153 -152l-141 140l-141 -140l-154 152l154 154l39 -39l32.5 -32.5l32 -32l37.5 -37.5z" />
    <glyph glyph-name="tehmedial" unicode="&#x62a;" horiz-adv-x="619" arabic-form="medial" 
d="M-23 363l260.001 0.00195312c4 19.333 7.33301 38.166 10 56.499s4 35.166 4 50.499c0 36 -4.5 75.5 -13.5 118.5s-24.167 85.5 -45.5 127.5l86.5 60.5l83.5 57.5c27.333 -65.333 46.166 -132.833 56.499 -202.5s15.5 -140.167 15.5 -211.5v-57h212v-215h-669v215z
M403.001 1268l41 -41l37 -37l36 -36.5l39 -39.5l-153 -152l-141 140l-141 -140l-154 152l154 154l39 -39l32.5 -32.5l32 -32l37.5 -37.5z" />
    <glyph glyph-name="thehisolated" unicode="&#x62b;" horiz-adv-x="1363" arabic-form="isolated" 
d="M52 230c0 21.333 3 50.001 9 86.001s14.167 72.833 24.5 110.5s22.333 73.334 36 107.001s28.167 58.834 43.5 75.501c6 7.33301 14.333 12.833 25 16.5l33 11.5c-6 -22.667 -10.667 -43.834 -14 -63.501s-5 -39.167 -5 -58.5c0 -36.667 7.16699 -68.167 21.5 -94.5
s37.5 -45.5 69.5 -57.5h822c5.33301 18 9.5 36.333 12.5 55s4.5 36.667 4.5 54c0 36 -4.66699 75.167 -14 117.5s-24.666 84.5 -45.999 126.5l86.5 60.5l83.5 57.5c28 -63.333 46.833 -129.333 56.5 -198s14.5 -138.667 14.5 -210c0 -21.333 -0.5 -43.833 -1.5 -67.5
s-2.5 -47.834 -4.5 -72.501s-4.16699 -48.834 -6.5 -72.501s-4.83301 -45.5 -7.5 -65.5h-1201c-8.66699 5.33301 -17.834 15 -27.501 29s-14.5 31.667 -14.5 53zM816 1095l41 -41l37 -37l36 -36.5l39 -39.5l-153 -152l-141 140l-141 -140l-154 152l154 154l39 -39
l32.5 -32.5l32 -32l37.5 -37.5zM679 1376l152 -153l-41 -41l-37 -37l-36 -36.5l-38 -39.5l-78.5 78l-75.5 76z" />
    <glyph glyph-name="thehfinal" unicode="&#x62b;" horiz-adv-x="1447" arabic-form="final" 
d="M59 230c0 21.333 3 49.999 9 85.999s14.167 72.833 24.5 110.5s22.333 73.334 36 107.001s28.167 58.834 43.5 75.501c6 7.33301 14.333 12.833 25 16.5l33 11.5c-12.667 -44 -19 -84.667 -19 -122c0 -36.667 7.16699 -68.167 21.5 -94.5s37.5 -45.5 69.5 -57.5h822
c5.33301 18 9.5 36.333 12.5 55s4.5 36.667 4.5 54c0 36 -4.66699 75.167 -14 117.5s-24.666 84.5 -45.999 126.5l86.5 60.5l83.5 57.5c28.667 -65.333 47.667 -131.333 57 -198s14 -136.334 14 -209.001v-64h169v-215h-1390c-8.66699 5.33301 -17.834 15 -27.501 29
s-14.5 31.667 -14.5 53zM812 1111l41 -41l37 -37l36 -36.5l39 -39.5l-153 -152l-141 140l-141 -140l-154 152l154 154l39 -39l32.5 -32.5l32 -32l37.5 -37.5zM674 1392l152 -153l-40.5 -40l-36.5 -37.5l-36 -37l-39 -39.5l-41 41l-37 37.5l-36.5 36.5l-39.5 39z" />
    <glyph glyph-name="thehinitial" unicode="&#x62b;" horiz-adv-x="646" arabic-form="initial" 
d="M-30 363l405.998 0.00195312c4.66699 19.333 8.33398 38.166 11.001 56.499s4 35.166 4 50.499c0 36 -4.66699 75.5 -14 118.5s-24.666 85.5 -45.999 127.5l87.5 60.5l83.5 57.5c28 -63.333 47.167 -129 57.5 -197s15.5 -137.333 15.5 -208
c0 -48 -2.16699 -95.5 -6.5 -142.5s-9.83301 -93.167 -16.5 -138.5h-582v215zM415.998 1246l41 -41l37 -37l36 -36.5l39 -39.5l-153 -152l-141 140l-141 -140l-154 152l154 154l39 -39l32.5 -32.5l32 -32l37.5 -37.5zM277.998 1527l153 -153l-41 -40l-37 -37.5l-36 -37
l-39 -39.5l-41 41l-37 37l-36.5 36.5l-39.5 39.5z" />
    <glyph glyph-name="thehmedial" unicode="&#x62b;" horiz-adv-x="619" arabic-form="medial" 
d="M-23 363l258.998 0.00195312c4.66699 19.333 8.33398 38.166 11.001 56.499s4 35.166 4 50.499c0 36 -4.66699 75.5 -14 118.5s-24.666 85.5 -45.999 127.5l87 60.5l83 57.5c28 -65.333 47.167 -132.833 57.5 -202.5s15.5 -140.167 15.5 -211.5v-57h212v-215h-669v215z
M415.998 1246l41 -41l37 -37l36 -36.5l39 -39.5l-153 -152l-141 140l-141 -140l-154 152l154 154l39 -39l32.5 -32.5l32 -32l37.5 -37.5zM277.998 1527l153 -153l-41 -40l-37 -37.5l-36 -37l-39 -39.5l-41 41l-37 37l-36.5 36.5l-39.5 39.5z" />
    <glyph glyph-name="jeemisolated" unicode="&#x62c;" horiz-adv-x="1000" arabic-form="isolated" 
d="M582 680c1.33301 3.33301 -4.99805 10.167 -18.998 20.5s-33.167 21.5 -57.5 33.5s-51.833 23.333 -82.5 34s-61.834 18.334 -93.501 23.001s-62 5 -91 1s-53.5 -15 -73.5 -33c-3.33301 9.33301 -6.5 18.833 -9.5 28.5l-9.5 29.5c8 23.333 18.333 46 31 68
s27.834 41.5 45.501 58.5s38 30.5 61 40.5s48.833 14.333 77.5 13c20 -0.666992 40.5 -4.16699 61.5 -10.5s42.333 -14.666 64 -24.999s44 -22 67 -35l70.5 -41.5l73 -43c24.667 -14.667 49.834 -28.334 75.501 -41.001s52 -24.167 79 -34.5s54.833 -18.5 83.5 -24.5
c-3.33301 -12.667 -7 -27.5 -11 -44.5s-7.83301 -34.167 -11.5 -51.5s-7 -34.5 -10 -51.5s-4.83301 -31.833 -5.5 -44.5c-52.667 -5.33301 -101.5 -13.333 -146.5 -24s-87.5 -23.667 -127.5 -39s-77.833 -32.833 -113.5 -52.5s-69.834 -41.167 -102.501 -64.5
c-46.667 -34 -83.334 -72.833 -110.001 -116.5s-44 -88.667 -52 -135s-7.5 -92.5 1.5 -138.5s26.167 -88.167 51.5 -126.5s58.333 -71.333 99 -99s88 -46.5 142 -56.5c66.667 -10.667 131.834 -17.5 195.501 -20.5s125.834 -3.5 186.501 -1.5l11.5 -18.5l9.5 -15.5
c-25.333 -26 -53 -48.833 -83 -68.5s-61.5 -36.334 -94.5 -50.001s-67.167 -23.834 -102.5 -30.501s-70.333 -10 -105 -10c-73.333 0 -140.833 15 -202.5 45s-114.834 69.667 -159.501 119s-79.5 105.833 -104.5 169.5s-37.5 129.167 -37.5 196.5
c0 48.667 6.16699 96.834 18.5 144.501s29.5 93.5 51.5 137.5s48.5 85.667 79.5 125s65.167 75.166 102.5 107.499s77.166 60.833 119.499 85.5s86.166 44.334 131.499 59.001zM612.002 248.001l153 -153l-41 -41l-37 -37l-36.5 -36l-38.5 -39l-41 41l-37 37l-36.5 36
l-39.5 39zM935.002 742.001l1 4.00098l-0.5 -1.5c-0.333008 -1 -0.5 -2.16699 -0.5 -3.5c0 -0.666992 0 -0.333984 0 0.999023z" />
    <glyph glyph-name="jeemfinal" unicode="&#x62c;" horiz-adv-x="1008" arabic-form="final" 
d="M578 684c-12 11.333 -27.502 23.4951 -46.502 36.4951s-40.167 25 -63.5 36s-48.5 20.5 -75.5 28.5s-54 12.833 -81 14.5s-53.5 -0.666016 -79.5 -6.99902s-50.333 -18.166 -73 -35.499c-7.33301 19.333 -14 39.333 -20 60c8 23.333 18.333 46 31 68
s27.834 41.5 45.501 58.5s38 30.5 61 40.5s49.167 14.333 78.5 13c20 -0.666992 40.333 -4.16699 61 -10.5s41.834 -14.666 63.501 -24.999s43.834 -22 66.501 -35l70 -41.5c48 -29.333 97.5 -57.5 148.5 -84.5s105.833 -46.5 164.5 -58.5
c-3.33301 -13.333 -6.83301 -28.333 -10.5 -45l-11 -51c-3.66699 -17.333 -6.83398 -34.333 -9.50098 -51l-7 -44c-20 -2 -41.667 -4.83301 -65 -8.5s-49.666 -9.16699 -78.999 -16.5c1.33301 -42 9.5 -76.833 24.5 -104.5s37.5 -47.167 67.5 -58.5h197v-215h-314
c-36 18 -61 44.167 -75 78.5s-21 72.5 -21 114.5c0 16.667 1.66699 39 5 67s8 59.667 14 95c-50.667 -21.333 -95.667 -42.5 -135 -63.5s-74.333 -42.5 -105 -64.5c-61.333 -52.667 -105.666 -107.667 -132.999 -165s-41 -113.666 -41 -168.999
c0 -59.333 11 -109.833 33 -151.5s51.167 -76.667 87.5 -105s78.166 -50.5 125.499 -66.5s96.333 -27.667 147 -35s101.167 -11.166 151.5 -11.499s96.833 1.16699 139.5 4.5c4 -7.33301 7.83301 -13.5 11.5 -18.5s7.16699 -10.167 10.5 -15.5
c-51.333 -52 -111 -91.5 -179 -118.5s-137.333 -40.5 -208 -40.5c-73.333 0 -140.666 15 -201.999 45s-114.5 69.833 -159.5 119.5s-80 106.167 -105 169.5s-37.5 128.666 -37.5 195.999c0 48.667 6.16699 96.834 18.5 144.501s29.5 93.5 51.5 137.5s48.5 85.667 79.5 125
s65.167 75.166 102.5 107.499s77.166 60.833 119.499 85.5s86.166 44.334 131.499 59.001zM498.998 167.995l153 -153l-41 -41l-37 -37l-36.5 -36l-38.5 -39l-41 41l-37 37l-36.5 36l-39.5 39z" />
    <glyph glyph-name="jeeminitial" unicode="&#x62c;" horiz-adv-x="1016" arabic-form="initial" 
d="M691 363l-46.499 71.502c-15.667 25 -31.834 49.333 -48.501 73s-34.167 46.167 -52.5 67.5s-38.166 40.166 -59.499 56.499s-44.333 29.166 -69 38.499s-51.334 14 -80.001 14c-18.667 0 -35.834 -2 -51.501 -6s-30.167 -9 -43.5 -15s-25.5 -12.5 -36.5 -19.5
l-29.5 -19.5c-3.33301 9.33301 -7.5 18.666 -12.5 27.999s-9.16699 19.333 -12.5 30c8 23.333 18.333 45.833 31 67.5s27.834 40.834 45.501 57.501s38 30 61 40s49.167 15 78.5 15c46.667 0 92 -11.5 136 -34.5s88 -56 132 -99s88.667 -95.333 134 -157
s93 -131.167 143 -208.5h59v-215h-1007v215h729zM412.001 -44.998l153 -153l-41 -41l-37 -37l-36.5 -36l-38.5 -39l-41 41l-37 37l-36.5 36l-39.5 39z" />
    <glyph glyph-name="jeemmedial" unicode="&#x62c;" horiz-adv-x="1008" arabic-form="medial" 
d="M653 363l-54.999 89.001c-18.667 29.333 -38.334 57.166 -59.001 83.499s-42.834 50.166 -66.501 71.499s-49.167 39 -76.5 53c-21.333 10.667 -44.333 17 -69 19s-49.334 1 -74.001 -3s-47.667 -10.5 -69 -19.5s-39 -19.833 -53 -32.5l-10 29l-10 29
c8 23.333 18.333 45.833 31 67.5s28 40.834 46 57.501s38.667 30 62 40s50 15 80 15c46.667 0 91.834 -11.5 135.501 -34.5s87.334 -56 131.001 -99s88.167 -95.333 133.5 -157s93 -131.167 143 -208.5h165v-215h-1076v215h691zM412.001 -44.999l153 -153l-41 -41l-37 -37
l-36.5 -36l-38.5 -39l-41 41l-37 37l-36.5 36l-39.5 39z" />
    <glyph glyph-name="hahisolated" unicode="&#x62d;" horiz-adv-x="1000" arabic-form="isolated" 
d="M582 680c1.33301 3.33301 -4.99805 10.167 -18.998 20.5s-33.167 21.5 -57.5 33.5s-51.833 23.333 -82.5 34s-61.834 18.334 -93.501 23.001s-62 5 -91 1s-53.5 -15 -73.5 -33c-3.33301 9.33301 -6.5 18.833 -9.5 28.5l-9.5 29.5c8 23.333 18.333 46 31 68
s27.834 41.5 45.501 58.5s38 30.5 61 40.5s48.833 14.333 77.5 13c20 -0.666992 40.5 -4.16699 61.5 -10.5s42.333 -14.666 64 -24.999s44 -22 67 -35l70.5 -41.5l73 -43c24.667 -14.667 49.834 -28.334 75.501 -41.001s52 -24.167 79 -34.5s54.833 -18.5 83.5 -24.5
c-3.33301 -12.667 -7 -27.5 -11 -44.5s-7.83301 -34.167 -11.5 -51.5s-7 -34.5 -10 -51.5s-4.83301 -31.833 -5.5 -44.5c-52.667 -5.33301 -101.5 -13.333 -146.5 -24s-87.5 -23.667 -127.5 -39s-77.833 -32.833 -113.5 -52.5s-69.834 -41.167 -102.501 -64.5
c-46.667 -34 -83.334 -72.833 -110.001 -116.5s-44 -88.667 -52 -135s-7.5 -92.5 1.5 -138.5s26.167 -88.167 51.5 -126.5s58.333 -71.333 99 -99s88 -46.5 142 -56.5c66.667 -10.667 131.834 -17.5 195.501 -20.5s125.834 -3.5 186.501 -1.5l11.5 -18.5l9.5 -15.5
c-25.333 -26 -53 -48.833 -83 -68.5s-61.5 -36.334 -94.5 -50.001s-67.167 -23.834 -102.5 -30.501s-70.333 -10 -105 -10c-73.333 0 -140.833 15 -202.5 45s-114.834 69.667 -159.501 119s-79.5 105.833 -104.5 169.5s-37.5 129.167 -37.5 196.5
c0 48.667 6.16699 96.834 18.5 144.501s29.5 93.5 51.5 137.5s48.5 85.667 79.5 125s65.167 75.166 102.5 107.499s77.166 60.833 119.499 85.5s86.166 44.334 131.499 59.001zM935.002 742.001l1 4.00098l-0.5 -1.5c-0.333008 -1 -0.5 -2.16699 -0.5 -3.5
c0 -0.666992 0 -0.333984 0 0.999023z" />
    <glyph glyph-name="hahfinal" unicode="&#x62d;" horiz-adv-x="1008" arabic-form="final" 
d="M578 684c-12 11.333 -27.502 23.4951 -46.502 36.4951s-40.167 25 -63.5 36s-48.5 20.5 -75.5 28.5s-54 12.833 -81 14.5s-53.5 -0.666016 -79.5 -6.99902s-50.333 -18.166 -73 -35.499c-7.33301 19.333 -14 39.333 -20 60c8 23.333 18.333 46 31 68
s27.834 41.5 45.501 58.5s38 30.5 61 40.5s49.167 14.333 78.5 13c20 -0.666992 40.333 -4.16699 61 -10.5s41.834 -14.666 63.501 -24.999s43.834 -22 66.501 -35l70 -41.5c48 -29.333 97.5 -57.5 148.5 -84.5s105.833 -46.5 164.5 -58.5
c-3.33301 -13.333 -6.83301 -28.333 -10.5 -45l-11 -51c-3.66699 -17.333 -6.83398 -34.333 -9.50098 -51l-7 -44c-20 -2 -41.667 -4.83301 -65 -8.5s-49.666 -9.16699 -78.999 -16.5c1.33301 -42 9.5 -76.833 24.5 -104.5s37.5 -47.167 67.5 -58.5h197v-215h-314
c-36 18 -61 44.167 -75 78.5s-21 72.5 -21 114.5c0 16.667 1.66699 39 5 67s8 59.667 14 95c-50.667 -21.333 -95.667 -42.5 -135 -63.5s-74.333 -42.5 -105 -64.5c-61.333 -52.667 -105.666 -107.667 -132.999 -165s-41 -113.666 -41 -168.999
c0 -59.333 11 -109.833 33 -151.5s51.167 -76.667 87.5 -105s78.166 -50.5 125.499 -66.5s96.333 -27.667 147 -35s101.167 -11.166 151.5 -11.499s96.833 1.16699 139.5 4.5c4 -7.33301 7.83301 -13.5 11.5 -18.5s7.16699 -10.167 10.5 -15.5
c-51.333 -52 -111 -91.5 -179 -118.5s-137.333 -40.5 -208 -40.5c-73.333 0 -140.666 15 -201.999 45s-114.5 69.833 -159.5 119.5s-80 106.167 -105 169.5s-37.5 128.666 -37.5 195.999c0 48.667 6.16699 96.834 18.5 144.501s29.5 93.5 51.5 137.5s48.5 85.667 79.5 125
s65.167 75.166 102.5 107.499s77.166 60.833 119.499 85.5s86.166 44.334 131.499 59.001z" />
    <glyph glyph-name="hahinitial" unicode="&#x62d;" horiz-adv-x="1016" arabic-form="initial" 
d="M691 363l-46.499 71.502c-15.667 25 -31.834 49.333 -48.501 73s-34.167 46.167 -52.5 67.5s-38.166 40.166 -59.499 56.499s-44.333 29.166 -69 38.499s-51.334 14 -80.001 14c-18.667 0 -35.834 -2 -51.501 -6s-30.167 -9 -43.5 -15s-25.5 -12.5 -36.5 -19.5
l-29.5 -19.5c-3.33301 9.33301 -7.5 18.666 -12.5 27.999s-9.16699 19.333 -12.5 30c8 23.333 18.333 45.833 31 67.5s27.834 40.834 45.501 57.501s38 30 61 40s49.167 15 78.5 15c46.667 0 92 -11.5 136 -34.5s88 -56 132 -99s88.667 -95.333 134 -157
s93 -131.167 143 -208.5h59v-215h-1007v215h729z" />
    <glyph glyph-name="hahmedial" unicode="&#x62d;" horiz-adv-x="1008" arabic-form="medial" 
d="M653 363l-54.999 89.001c-18.667 29.333 -38.334 57.166 -59.001 83.499s-42.834 50.166 -66.501 71.499s-49.167 39 -76.5 53c-21.333 10.667 -44.333 17 -69 19s-49.334 1 -74.001 -3s-47.667 -10.5 -69 -19.5s-39 -19.833 -53 -32.5l-10 29l-10 29
c8 23.333 18.333 45.833 31 67.5s28 40.834 46 57.501s38.667 30 62 40s50 15 80 15c46.667 0 91.834 -11.5 135.501 -34.5s87.334 -56 131.001 -99s88.167 -95.333 133.5 -157s93 -131.167 143 -208.5h165v-215h-1076v215h691z" />
    <glyph glyph-name="khahisolated" unicode="&#x62e;" horiz-adv-x="1000" arabic-form="isolated" 
d="M582 680c1.33301 3.33301 -4.99805 10.167 -18.998 20.5s-33.167 21.5 -57.5 33.5s-51.833 23.333 -82.5 34s-61.834 18.334 -93.501 23.001s-62 5 -91 1s-53.5 -15 -73.5 -33c-3.33301 9.33301 -6.5 18.833 -9.5 28.5l-9.5 29.5c8 23.333 18.333 46 31 68
s27.834 41.5 45.501 58.5s38 30.5 61 40.5s48.833 14.333 77.5 13c20 -0.666992 40.5 -4.16699 61.5 -10.5s42.333 -14.666 64 -24.999s44 -22 67 -35l70.5 -41.5l73 -43c24.667 -14.667 49.834 -28.334 75.501 -41.001s52 -24.167 79 -34.5s54.833 -18.5 83.5 -24.5
c-3.33301 -12.667 -7 -27.5 -11 -44.5s-7.83301 -34.167 -11.5 -51.5s-7 -34.5 -10 -51.5s-4.83301 -31.833 -5.5 -44.5c-52.667 -5.33301 -101.5 -13.333 -146.5 -24s-87.5 -23.667 -127.5 -39s-77.833 -32.833 -113.5 -52.5s-69.834 -41.167 -102.501 -64.5
c-46.667 -34 -83.334 -72.833 -110.001 -116.5s-44 -88.667 -52 -135s-7.5 -92.5 1.5 -138.5s26.167 -88.167 51.5 -126.5s58.333 -71.333 99 -99s88 -46.5 142 -56.5c66.667 -10.667 131.834 -17.5 195.501 -20.5s125.834 -3.5 186.501 -1.5l11.5 -18.5l9.5 -15.5
c-25.333 -26 -53 -48.833 -83 -68.5s-61.5 -36.334 -94.5 -50.001s-67.167 -23.834 -102.5 -30.501s-70.333 -10 -105 -10c-73.333 0 -140.833 15 -202.5 45s-114.834 69.667 -159.501 119s-79.5 105.833 -104.5 169.5s-37.5 129.167 -37.5 196.5
c0 48.667 6.16699 96.834 18.5 144.501s29.5 93.5 51.5 137.5s48.5 85.667 79.5 125s65.167 75.166 102.5 107.499s77.166 60.833 119.499 85.5s86.166 44.334 131.499 59.001zM553.002 1475l153 -153l-41 -41l-37 -37l-36.5 -36l-38.5 -39l-41 41l-37.5 37l-37 36l-39.5 39
zM935.002 742.001l1 4.00098l-0.5 -1.5c-0.333008 -1 -0.5 -2.16699 -0.5 -3.5c0 -0.666992 0 -0.333984 0 0.999023z" />
    <glyph glyph-name="khahfinal" unicode="&#x62e;" horiz-adv-x="1008" arabic-form="final" 
d="M578 684c-12 11.333 -27.502 23.4951 -46.502 36.4951s-40.167 25 -63.5 36s-48.5 20.5 -75.5 28.5s-54 12.833 -81 14.5s-53.5 -0.666016 -79.5 -6.99902s-50.333 -18.166 -73 -35.499c-7.33301 19.333 -14 39.333 -20 60c8 23.333 18.333 46 31 68
s27.834 41.5 45.501 58.5s38 30.5 61 40.5s49.167 14.333 78.5 13c20 -0.666992 40.333 -4.16699 61 -10.5s41.834 -14.666 63.501 -24.999s43.834 -22 66.501 -35l70 -41.5c48 -29.333 97.5 -57.5 148.5 -84.5s105.833 -46.5 164.5 -58.5
c-3.33301 -13.333 -6.83301 -28.333 -10.5 -45l-11 -51c-3.66699 -17.333 -6.83398 -34.333 -9.50098 -51l-7 -44c-20 -2 -41.667 -4.83301 -65 -8.5s-49.666 -9.16699 -78.999 -16.5c1.33301 -42 9.5 -76.833 24.5 -104.5s37.5 -47.167 67.5 -58.5h197v-215h-314
c-36 18 -61 44.167 -75 78.5s-21 72.5 -21 114.5c0 16.667 1.66699 39 5 67s8 59.667 14 95c-50.667 -21.333 -95.667 -42.5 -135 -63.5s-74.333 -42.5 -105 -64.5c-61.333 -52.667 -105.666 -107.667 -132.999 -165s-41 -113.666 -41 -168.999
c0 -59.333 11 -109.833 33 -151.5s51.167 -76.667 87.5 -105s78.166 -50.5 125.499 -66.5s96.333 -27.667 147 -35s101.167 -11.166 151.5 -11.499s96.833 1.16699 139.5 4.5c4 -7.33301 7.83301 -13.5 11.5 -18.5s7.16699 -10.167 10.5 -15.5
c-51.333 -52 -111 -91.5 -179 -118.5s-137.333 -40.5 -208 -40.5c-73.333 0 -140.666 15 -201.999 45s-114.5 69.833 -159.5 119.5s-80 106.167 -105 169.5s-37.5 128.666 -37.5 195.999c0 48.667 6.16699 96.834 18.5 144.501s29.5 93.5 51.5 137.5s48.5 85.667 79.5 125
s65.167 75.166 102.5 107.499s77.166 60.833 119.499 85.5s86.166 44.334 131.499 59.001zM550.998 1475l153 -153l-153 -153l-41 41l-37 37l-36.5 36l-39.5 39z" />
    <glyph glyph-name="khahinitial" unicode="&#x62e;" horiz-adv-x="1016" arabic-form="initial" 
d="M691 363l-46.499 71.502c-15.667 25 -31.834 49.333 -48.501 73s-34.167 46.167 -52.5 67.5s-38.166 40.166 -59.499 56.499s-44.333 29.166 -69 38.499s-51.334 14 -80.001 14c-18.667 0 -35.834 -2 -51.501 -6s-30.167 -9 -43.5 -15s-25.5 -12.5 -36.5 -19.5
l-29.5 -19.5c-3.33301 9.33301 -7.5 18.666 -12.5 27.999s-9.16699 19.333 -12.5 30c8 23.333 18.333 45.833 31 67.5s27.834 40.834 45.501 57.501s38 30 61 40s49.167 15 78.5 15c46.667 0 92 -11.5 136 -34.5s88 -56 132 -99s88.667 -95.333 134 -157
s93 -131.167 143 -208.5h59v-215h-1007v215h729zM362.001 1379l152 -152l-40 -41l-37 -37l-36 -36.5l-39 -39.5l-153 154z" />
    <glyph glyph-name="khahmedial" unicode="&#x62e;" horiz-adv-x="1008" arabic-form="medial" 
d="M653 363l-54.999 89.001c-18.667 29.333 -38.334 57.166 -59.001 83.499s-42.834 50.166 -66.501 71.499s-49.167 39 -76.5 53c-21.333 10.667 -44.333 17 -69 19s-49.334 1 -74.001 -3s-47.667 -10.5 -69 -19.5s-39 -19.833 -53 -32.5l-10 29l-10 29
c8 23.333 18.333 45.833 31 67.5s28 40.834 46 57.501s38.667 30 62 40s50 15 80 15c46.667 0 91.834 -11.5 135.501 -34.5s87.334 -56 131.001 -99s88.167 -95.333 133.5 -157s93 -131.167 143 -208.5h165v-215h-1076v215h691zM327.001 1379l152 -152l-41 -41l-37 -37
l-36 -36.5l-38 -39.5l-41 41l-37.5 37l-37 36.5l-39.5 39.5z" />
    <glyph glyph-name="dalisolated" unicode="&#x62f;" horiz-adv-x="883" arabic-form="isolated" 
d="M632 363c0 31.333 -5.00195 67.5029 -15.002 108.503s-22.5 82 -37.5 123s-31.333 79.667 -49 116s-33.834 65.5 -48.501 87.5l36.5 44.5l34 40.5l33.5 40.5l36 43.5c12 -16.667 27.667 -43.334 47 -80.001s39 -80.5 59 -131.5s39 -107.833 57 -170.5
s31.667 -128.334 41 -197.001l-10 -120l-10 -120h-711c-8.66699 5.33301 -18 15 -28 29s-15 31.667 -15 53c0 14 1.33301 31 4 51s6.33398 41.5 11.001 64.5s10.334 46.667 17.001 71s14 48.166 22 71.499h102c2.66699 -30 11.334 -56 26.001 -78s36 -37.667 64 -47h334z
" />
    <glyph glyph-name="dalfinal" unicode="&#x62f;" horiz-adv-x="967" arabic-form="final" 
d="M632 363c0 31.333 -5.16797 67.5029 -15.501 108.503s-23.166 82 -38.499 123s-31.666 79.667 -48.999 116s-33.333 65.5 -48 87.5l36.5 44.5l34 40.5l33.5 40.5l36 43.5c12 -16.667 27.667 -43.834 47 -81.501s39.166 -83 59.499 -136s39.666 -112.5 57.999 -178.5
s32.5 -135.333 42.5 -208h166v-215h-902c-7.33301 5.33301 -16 14.666 -26 27.999s-15 31.333 -15 54c0 14 1.33301 31 4 51s6.33398 41.5 11.001 64.5s10.334 46.667 17.001 71s14 48.166 22 71.499h100c2.66699 -32 11.167 -58.167 25.5 -78.5
s36.166 -35.833 65.499 -46.5h336z" />
    <glyph glyph-name="thalisolated" unicode="&#x630;" horiz-adv-x="883" arabic-form="isolated" 
d="M632 363c0 31.333 -5.00195 67.5029 -15.002 108.503s-22.5 82 -37.5 123s-31.333 79.667 -49 116s-33.834 65.5 -48.501 87.5l36.5 44.5l34 40.5l33.5 40.5l36 43.5c12 -16.667 27.667 -43.334 47 -80.001s39 -80.5 59 -131.5s39 -107.833 57 -170.5
s31.667 -128.334 41 -197.001l-10 -120l-10 -120h-711c-8.66699 5.33301 -18 15 -28 29s-15 31.667 -15 53c0 14 1.33301 31 4 51s6.33398 41.5 11.001 64.5s10.334 46.667 17.001 71s14 48.166 22 71.499h102c2.66699 -30 11.334 -56 26.001 -78s36 -37.667 64 -47h334z
M424.998 1423l153 -152l-78.5 -78.5l-74.5 -75.5l-41 41l-37 37l-36.5 36.5l-39.5 39.5z" />
    <glyph glyph-name="thalfinal" unicode="&#x630;" horiz-adv-x="967" arabic-form="final" 
d="M632 363c0 31.333 -5.16797 67.5029 -15.501 108.503s-23.166 82 -38.499 123s-31.666 79.667 -48.999 116s-33.333 65.5 -48 87.5l36.5 44.5l34 40.5l33.5 40.5l36 43.5c12 -16.667 27.667 -43.834 47 -81.501s39.166 -83 59.499 -136s39.666 -112.5 57.999 -178.5
s32.5 -135.333 42.5 -208h166v-215h-902c-7.33301 5.33301 -16 14.666 -26 27.999s-15 31.333 -15 54c0 14 1.33301 31 4 51s6.33398 41.5 11.001 64.5s10.334 46.667 17.001 71s14 48.166 22 71.499h100c2.66699 -32 11.167 -58.167 25.5 -78.5
s36.166 -35.833 65.499 -46.5h336zM420.999 1423l152 -152l-40 -41l-37 -37.5l-36 -36.5l-39 -39l-41 41l-37 37l-36.5 36.5l-39.5 39.5z" />
    <glyph glyph-name="rehisolated" unicode="&#x631;" horiz-adv-x="600" arabic-form="isolated" 
d="M440 835c38 -68.667 66.999 -145.169 86.999 -229.502s30 -170.5 30 -258.5c0 -44 -4.16699 -90.833 -12.5 -140.5s-20.833 -99 -37.5 -148s-37.334 -96 -62.001 -141s-53.334 -84.667 -86.001 -119s-69.167 -61.833 -109.5 -82.5s-84.5 -31 -132.5 -31
c-42 0 -84.167 9.5 -126.5 28.5s-86.166 45.167 -131.499 78.5l10 45c64.667 -6 126.834 -0.166992 186.501 17.5s112.5 45.834 158.5 84.501s82.833 86.834 110.5 144.501s41.5 123.5 41.5 197.5c0 62.667 -8.66699 130.167 -26 202.5s-42.666 149.5 -75.999 231.5z" />
    <glyph glyph-name="rehfinal" unicode="&#x631;" horiz-adv-x="716" arabic-form="final" 
d="M758 363l0.000976562 -215.002h-206c-4 -35.333 -13 -71.166 -27 -107.499s-31.667 -71.666 -53 -105.999s-45.333 -66.666 -72 -96.999s-55 -56.833 -85 -79.5s-60.5 -40.5 -91.5 -53.5s-61.5 -19.5 -91.5 -19.5c-42 0 -84 9.5 -126 28.5s-85.667 45.5 -131 79.5l1 6
c0.666992 4 1.5 8.5 2.5 13.5s1.83301 9.5 2.5 13.5l1 6c70 2 135.5 13 196.5 33s114 48.833 159 86.5s80.333 84 106 139s38.5 118.5 38.5 190.5c0 62.667 -8.83301 130.167 -26.5 202.5s-43.167 149.5 -76.5 231.5l89 61.5l87 59.5
c34 -62.667 61.167 -134.834 81.5 -216.501s32.166 -167.167 35.499 -256.5h186z" />
    <glyph glyph-name="zainisolated" unicode="&#x632;" horiz-adv-x="600" arabic-form="isolated" 
d="M440 835c38 -68.667 66.999 -145.169 86.999 -229.502s30 -170.5 30 -258.5c0 -44 -4.16699 -90.833 -12.5 -140.5s-20.833 -99 -37.5 -148s-37.334 -96 -62.001 -141s-53.334 -84.667 -86.001 -119s-69.167 -61.833 -109.5 -82.5s-84.5 -31 -132.5 -31
c-42 0 -84.167 9.5 -126.5 28.5s-86.166 45.167 -131.499 78.5l10 45c64.667 -6 126.834 -0.166992 186.501 17.5s112.5 45.834 158.5 84.501s82.833 86.834 110.5 144.501s41.5 123.5 41.5 197.5c0 62.667 -8.66699 130.167 -26 202.5s-42.666 149.5 -75.999 231.5z
M287.999 1311l152 -154l-40.5 -41l-36.5 -37l-36 -36.5l-39 -39.5l-155 154z" />
    <glyph glyph-name="zainfinal" unicode="&#x632;" horiz-adv-x="716" arabic-form="final" 
d="M758 363l0.000976562 -215.002h-206c-4 -35.333 -13 -71.166 -27 -107.499s-31.667 -71.666 -53 -105.999s-45.333 -66.666 -72 -96.999s-55 -56.833 -85 -79.5s-60.5 -40.5 -91.5 -53.5s-61.5 -19.5 -91.5 -19.5c-42 0 -84 9.5 -126 28.5s-85.667 45.5 -131 79.5l1 6
c0.666992 4 1.5 8.5 2.5 13.5s1.83301 9.5 2.5 13.5l1 6c70 2 135.5 13 196.5 33s114 48.833 159 86.5s80.333 84 106 139s38.5 118.5 38.5 190.5c0 62.667 -8.83301 130.167 -26.5 202.5s-43.167 149.5 -76.5 231.5l89 61.5l87 59.5
c34 -62.667 61.167 -134.834 81.5 -216.501s32.166 -167.167 35.499 -256.5h186zM283.001 1311l153 -154l-41 -41l-37 -37l-36 -36.5l-39 -39.5l-154 154z" />
    <glyph glyph-name="seenisolated" unicode="&#x633;" horiz-adv-x="2025" arabic-form="isolated" 
d="M1399 363c-14 28.667 -25.9971 61.165 -35.9971 97.498s-17.667 74.5 -23 114.5l80 36.5l76 34.5c7.33301 -50 18 -98.833 32 -146.5s28.667 -93.167 44 -136.5h230c4 19.333 7.5 38.166 10.5 56.499s4.5 35.166 4.5 50.499c0 36 -4.66699 75.5 -14 118.5
s-24.666 85.5 -45.999 127.5l87 60.5l83 57.5c28.667 -65.333 48 -131.666 58 -198.999s15 -137.333 15 -210c0 -20.667 -0.666992 -43 -2 -67s-3 -48.333 -5 -73s-4.33301 -48.667 -7 -72s-5.33398 -45 -8.00098 -65h-886c-19.333 -62 -45.333 -120 -78 -174
s-71.834 -100.833 -117.501 -140.5s-97.5 -71 -155.5 -94s-122.333 -34.5 -193 -34.5s-137.834 13.667 -201.501 41s-119.5 64.833 -167.5 112.5s-86 103.5 -114 167.5s-42 132 -42 204c0 21.333 3 50 9 86s14.333 72.833 25 110.5s22.834 73.334 36.501 107.001
s28.167 58.834 43.5 75.501v-1c8 7.33301 18.167 13.5 30.5 18.5s24.5 9.5 36.5 13.5l-19.5 -112c-5.66699 -33.333 -9.66699 -66 -12 -98s-2 -64.5 1 -97.5s10.167 -69.833 21.5 -110.5c14 -50.667 33.667 -95 59 -133s54.333 -69.5 87 -94.5s68 -43.833 106 -56.5
s76 -19 114 -19c46 0 90.667 8.83301 134 26.5s81.666 44.334 114.999 80.001s60.166 80 80.499 133s30.166 114.5 29.499 184.5l-11.5 52c-4.33301 19.333 -9.16602 38.666 -14.499 57.999l-13.5 59.5c-5 21.667 -9.16699 42.834 -12.5 63.501l79.5 35.5l76.5 33.5
c7.33301 -49.333 18 -97.833 32 -145.5s29 -93.167 45 -136.5h298z" />
    <glyph glyph-name="seenfinal" unicode="&#x633;" horiz-adv-x="2083" arabic-form="final" 
d="M1398 363c-13.333 28.667 -25.0049 61.1719 -35.0049 97.5049s-18 74.5 -24 114.5l80 36.5l77 34.5c7.33301 -50 18 -98.833 32 -146.5s28.667 -93.167 44 -136.5h227c11.333 37.333 17 73.666 17 108.999c0 36 -4.66699 75.167 -14 117.5s-24.666 84.5 -45.999 126.5
l87 60.5l84 57.5c28.667 -65.333 47.667 -131.333 57 -198s14 -136.334 14 -209.001v-64h145v-215h-1052c-19.333 -62 -45.333 -120 -78 -174s-71.667 -100.833 -117 -140.5s-97.166 -71 -155.499 -94s-122.833 -34.5 -193.5 -34.5s-137.667 13.667 -201 41
s-119 64.833 -167 112.5s-86 103.5 -114 167.5s-42 132 -42 204c0 14 1.33301 31.667 4 53s6.5 44.166 11.5 68.499s11 49.333 18 75s14.833 50.167 23.5 73.5s17.834 44.5 27.501 63.5s19.5 34.167 29.5 45.5v-1c7.33301 7.33301 17.166 13.666 29.499 18.999
s24.833 9.66602 37.5 12.999c-6.66699 -41.333 -13 -78.666 -19 -111.999s-10.167 -66 -12.5 -98s-2 -64.5 1 -97.5s9.83301 -69.833 20.5 -110.5c14 -50.667 33.833 -95 59.5 -133s54.834 -69.5 87.501 -94.5s67.834 -43.833 105.501 -56.5s75.834 -19 114.501 -19
c46 0 90.5 8.83301 133.5 26.5s81.333 44 115 79s60.5 78.667 80.5 131s30 113.5 30 183.5c-3.33301 19.333 -7.5 39.666 -12.5 60.999l-14.5 61c-4.66699 17.333 -9.33398 35.833 -14.001 55.5s-8.66699 39.5 -12 59.5l79.5 35.5l76.5 33.5
c8 -49.333 18.833 -97.833 32.5 -145.5s28.834 -93.167 45.501 -136.5h297z" />
    <glyph glyph-name="seeninitial" unicode="&#x633;" horiz-adv-x="1308" arabic-form="initial" 
d="M-43 150l-0.00195312 215.001h244c-13.333 28 -25 60.5 -35 97.5s-17.667 75.167 -23 114.5l79.5 36.5l76.5 34.5c7.33301 -50 18 -98.667 32 -146s28.667 -93 44 -137h281c-12 28 -23 60.667 -33 98s-18 75.333 -24 114l79.5 36.5l76.5 34.5
c8 -52 18.833 -101.167 32.5 -147.5s28.834 -91.5 45.501 -135.5h228c4.66699 18 8.5 36.167 11.5 54.5s4.5 36.166 4.5 53.499c0 36 -4.66699 75.333 -14 118s-24.666 85 -45.999 127l87 59l84 58c28.667 -64.667 47.667 -130 57 -196s14 -135.333 14 -208
c0 -48 -2 -95.5 -6 -142.5s-9.66699 -93.167 -17 -138.5h-1279z" />
    <glyph glyph-name="seenmedial" unicode="&#x633;" horiz-adv-x="1358" arabic-form="medial" 
d="M-46 148l-0.00292969 215.001h244c-13.333 28.667 -25 61.167 -35 97.5s-18 74.5 -24 114.5l80.5 36.5l77.5 34.5c6.66699 -50 16.834 -98.833 30.501 -146.5s28.167 -93.167 43.5 -136.5h285c-13.333 28 -25 60.333 -35 97s-18 75 -24 115l80 36.5l77 34.5
c6.66699 -50 17 -98.833 31 -146.5s28.667 -93.167 44 -136.5h228c5.33301 18 9.5 36.333 12.5 55s4.5 36.667 4.5 54c0 36 -4.66699 75.167 -14 117.5s-24.666 84.5 -45.999 126.5l87 60.5l83 57.5c28.667 -65.333 47.834 -131.333 57.501 -198
s14.5 -136.334 14.5 -209.001v-64h148v-215h-1450z" />
    <glyph glyph-name="sheenisolated" unicode="&#x634;" horiz-adv-x="2025" arabic-form="isolated" 
d="M1399 363c-14 28.667 -25.9971 61.165 -35.9971 97.498s-17.667 74.5 -23 114.5l80 36.5l76 34.5c7.33301 -50 18 -98.833 32 -146.5s28.667 -93.167 44 -136.5h230c4 19.333 7.5 38.166 10.5 56.499s4.5 35.166 4.5 50.499c0 36 -4.66699 75.5 -14 118.5
s-24.666 85.5 -45.999 127.5l87 60.5l83 57.5c28.667 -65.333 48 -131.666 58 -198.999s15 -137.333 15 -210c0 -20.667 -0.666992 -43 -2 -67s-3 -48.333 -5 -73s-4.33301 -48.667 -7 -72s-5.33398 -45 -8.00098 -65h-886c-19.333 -62 -45.333 -120 -78 -174
s-71.834 -100.833 -117.501 -140.5s-97.5 -71 -155.5 -94s-122.333 -34.5 -193 -34.5s-137.834 13.667 -201.501 41s-119.5 64.833 -167.5 112.5s-86 103.5 -114 167.5s-42 132 -42 204c0 21.333 3 50 9 86s14.333 72.833 25 110.5s22.834 73.334 36.501 107.001
s28.167 58.834 43.5 75.501v-1c8 7.33301 18.167 13.5 30.5 18.5s24.5 9.5 36.5 13.5l-19.5 -112c-5.66699 -33.333 -9.66699 -66 -12 -98s-2 -64.5 1 -97.5s10.167 -69.833 21.5 -110.5c14 -50.667 33.667 -95 59 -133s54.333 -69.5 87 -94.5s68 -43.833 106 -56.5
s76 -19 114 -19c46 0 90.667 8.83301 134 26.5s81.666 44.334 114.999 80.001s60.166 80 80.499 133s30.166 114.5 29.499 184.5l-11.5 52c-4.33301 19.333 -9.16602 38.666 -14.499 57.999l-13.5 59.5c-5 21.667 -9.16699 42.834 -12.5 63.501l79.5 35.5l76.5 33.5
c7.33301 -49.333 18 -97.833 32 -145.5s29 -93.167 45 -136.5h298zM1555 1177l77.5 -78.5l75.5 -75.5l-153 -153l-141 140l-141 -140l-154 153l154 154l39 -39l32.5 -33l32 -32l37.5 -37zM1417 1458l152 -154l-40.5 -40l-36.5 -37.5l-36 -37l-39 -39.5l-41 41.5l-37 37.5
l-36.5 36.5l-39.5 38.5z" />
    <glyph glyph-name="sheenfinal" unicode="&#x634;" horiz-adv-x="2083" arabic-form="final" 
d="M1398 363c-13.333 28.667 -25.0049 61.1719 -35.0049 97.5049s-18 74.5 -24 114.5l80 36.5l77 34.5c7.33301 -50 18 -98.833 32 -146.5s28.667 -93.167 44 -136.5h227c11.333 37.333 17 73.666 17 108.999c0 36 -4.66699 75.167 -14 117.5s-24.666 84.5 -45.999 126.5
l87 60.5l84 57.5c28.667 -65.333 47.667 -131.333 57 -198s14 -136.334 14 -209.001v-64h145v-215h-1052c-19.333 -62 -45.333 -120 -78 -174s-71.667 -100.833 -117 -140.5s-97.166 -71 -155.499 -94s-122.833 -34.5 -193.5 -34.5s-137.667 13.667 -201 41
s-119 64.833 -167 112.5s-86 103.5 -114 167.5s-42 132 -42 204c0 14 1.33301 31.667 4 53s6.5 44.166 11.5 68.499s11 49.333 18 75s14.833 50.167 23.5 73.5s17.834 44.5 27.501 63.5s19.5 34.167 29.5 45.5v-1c7.33301 7.33301 15.833 13 25.5 17s20.167 8 31.5 12
c-2.66699 -36.667 -6.16699 -71.834 -10.5 -105.501s-7.33301 -67 -9 -100s-1.33398 -66.667 0.999023 -101s8.5 -70.5 18.5 -108.5c14 -50.667 33.833 -95 59.5 -133s54.834 -69.5 87.501 -94.5s67.834 -43.833 105.501 -56.5s75.834 -19 114.501 -19
c46 0 90.5 8.83301 133.5 26.5s81.333 44 115 79s60.5 78.667 80.5 131s30 113.5 30 183.5c-3.33301 19.333 -7.5 39.666 -12.5 60.999l-14.5 61c-4.66699 17.333 -9.33398 35.833 -14.001 55.5s-8.66699 39.5 -12 59.5l79.5 35.5l76.5 33.5
c8 -49.333 18.833 -97.833 32.5 -145.5s28.834 -93.167 45.501 -136.5h297zM1542 1198l41 -41l37 -37l36 -36.5l39 -39.5l-153 -152l-141 140l-141 -140l-154 152l154 154l39 -39l32.5 -32.5l32 -32l37.5 -37.5zM1404 1479l152 -153l-40.5 -40l-36.5 -37.5l-36 -37
l-39 -39.5l-41 41l-37 37.5l-36.5 36.5l-39.5 39z" />
    <glyph glyph-name="sheeninitial" unicode="&#x634;" horiz-adv-x="1308" arabic-form="initial" 
d="M-43 150l-0.00195312 215.001h244c-13.333 28 -25 60.5 -35 97.5s-17.667 75.167 -23 114.5l79.5 36.5l76.5 34.5c7.33301 -50 18 -98.667 32 -146s28.667 -93 44 -137h281c-12 28 -23 60.667 -33 98s-18 75.333 -24 114l79.5 36.5l76.5 34.5
c8 -52 18.833 -101.167 32.5 -147.5s28.834 -91.5 45.501 -135.5h228c4.66699 18 8.5 36.167 11.5 54.5s4.5 36.166 4.5 53.499c0 36 -4.66699 75.333 -14 118s-24.666 85 -45.999 127l87 59l84 58c28.667 -64.667 47.667 -130 57 -196s14 -135.333 14 -208
c0 -48 -2 -95.5 -6 -142.5s-9.66699 -93.167 -17 -138.5h-1279zM793.998 1164l41 -41l37 -37.5l36.5 -36.5l38.5 -39l-153 -153l-141 140l-141 -140l-154 153l154 154l39.5 -39l33 -33l32 -32l36.5 -37zM656.998 1445l152 -154l-40.5 -40l-36.5 -37.5l-36 -37l-39 -39.5
l-41 41.5l-37 37.5l-36.5 36.5l-39.5 38.5z" />
    <glyph glyph-name="sheenmedial" unicode="&#x634;" horiz-adv-x="1358" arabic-form="medial" 
d="M-46 148l-0.00292969 215.001h244c-13.333 28.667 -25 61.167 -35 97.5s-18 74.5 -24 114.5l80.5 36.5l77.5 34.5c6.66699 -50 16.834 -98.833 30.501 -146.5s28.167 -93.167 43.5 -136.5h285c-13.333 28 -25 60.333 -35 97s-18 75 -24 115l80 36.5l77 34.5
c6.66699 -50 17 -98.833 31 -146.5s28.667 -93.167 44 -136.5h228c5.33301 18 9.5 36.333 12.5 55s4.5 36.667 4.5 54c0 36 -4.66699 75.167 -14 117.5s-24.666 84.5 -45.999 126.5l87 60.5l83 57.5c28.667 -65.333 47.834 -131.333 57.501 -198
s14.5 -136.334 14.5 -209.001v-64h148v-215h-1450zM793.997 1164l41 -41l37 -37.5l36.5 -36.5l38.5 -39l-153 -153l-141 140l-141 -140l-154 153l154 154l39.5 -39l33 -33l32 -32l36.5 -37zM656.997 1445l152 -154l-40.5 -40l-36.5 -37.5l-36 -37l-39 -39.5l-41 41.5
l-37 37.5l-36.5 36.5l-39.5 38.5z" />
    <glyph glyph-name="sadisolated" unicode="&#x635;" horiz-adv-x="2266" arabic-form="isolated" 
d="M1089 148c-19.333 -62 -45.334 -120.002 -78.001 -174.002s-71.667 -100.833 -117 -140.5s-97.166 -71 -155.499 -94s-122.833 -34.5 -193.5 -34.5s-137.834 13.667 -201.501 41s-119.5 64.833 -167.5 112.5s-86.167 103.5 -114.5 167.5s-42.5 132 -42.5 204
c0 21.333 3 50 9 86s14.333 72.833 25 110.5s23 73.334 37 107.001s28.667 58.834 44 75.501v-1c7.33301 7.33301 17.333 13.5 30 18.5s24.667 9.5 36 13.5l-19.5 -112c-5.66699 -33.333 -9.5 -66 -11.5 -98s-1.5 -64.5 1.5 -97.5s9.83301 -69.833 20.5 -110.5
c14 -50.667 33.667 -95 59 -133s54.333 -69.5 87 -94.5s68 -43.833 106 -56.5s76 -19 114 -19c45.333 0 89.666 8.83301 132.999 26.5s81.833 44.334 115.5 80.001s60.5 80 80.5 133s29.667 114.5 29 184.5c-3.33301 19.333 -7.16602 38.666 -11.499 57.999
s-9.16602 38.333 -14.499 57c-4.66699 18.667 -9.16699 37.834 -13.5 57.501s-8.16602 39.834 -11.499 60.501l80 35.5l76 33.5c7.33301 -50 18 -98.667 32 -146s29 -92.666 45 -135.999h98l91.5 109.5c33 38.333 67.833 76.166 104.5 113.499s74.5 73 113.5 107
s78.667 63.833 119 89.5s80.666 46 120.999 61s79.833 22.5 118.5 22.5c36.667 0 73 -8.33301 109 -25s70.5 -43.834 103.5 -81.501s64.167 -86.834 93.5 -147.501s56.333 -135.334 81 -224.001c-5.33301 -42 -10 -82.167 -14 -120.5s-8.66699 -78.166 -14 -119.499h-1133z
M2067 397.998c-13.333 48 -28.332 88.667 -44.999 122s-35 60.333 -55 81s-41.333 35.667 -64 45s-46.334 14 -71.001 14c-32 0 -65.833 -8.66699 -101.5 -26s-71.667 -40 -108 -68s-72.333 -59.833 -108 -95.5s-69.5 -71.5 -101.5 -107.5h628z" />
    <glyph glyph-name="sadfinal" unicode="&#x635;" horiz-adv-x="2341" arabic-form="final" 
d="M2399 363l-0.00195312 -214.998h-1309c-19.333 -62 -45.333 -120 -78 -174s-71.834 -100.833 -117.501 -140.5s-97.667 -71 -156 -94s-122.833 -34.5 -193.5 -34.5c-70 0 -136.667 13.667 -200 41s-119 64.833 -167 112.5s-86 103.5 -114 167.5s-42 132 -42 204
c0 14 1.33301 31.667 4 53s6.5 44.166 11.5 68.499s10.833 49.166 17.5 74.499s14.334 49.666 23.001 72.999s17.834 44.5 27.501 63.5s19.834 34.167 30.501 45.5c7.33301 8.66699 17 15.334 29 20.001s24 8.66699 36 12c-9.33301 -38 -16.833 -74 -22.5 -108
s-9.16699 -67.667 -10.5 -101s0 -67 4 -101s11 -70 21 -108c14 -50.667 33.667 -95 59 -133s54.333 -69.5 87 -94.5s67.834 -43.833 105.501 -56.5s75.834 -19 114.501 -19c45.333 0 89.666 8.83301 132.999 26.5s81.833 44.334 115.5 80.001s60.5 80 80.5 133
s29.667 114.5 29 184.5c-2.66699 18 -6.5 37.333 -11.5 58l-15.5 63c-4.66699 16.667 -9.16699 34.5 -13.5 53.5s-8.16602 38.167 -11.499 57.5l80 36.5l77 34.5c7.33301 -50 18 -98.833 32 -146.5s28.667 -93.167 44 -136.5h98l92 109.5
c33.333 38.333 68.166 76.166 104.499 113.499s74.166 73 113.499 107s79 63.833 119 89.5s80.167 46 120.5 61s79.833 22.5 118.5 22.5c37.333 0 74 -8.66699 110 -26s70.833 -45.833 104.5 -85.5s65.5 -91.5 95.5 -155.5s58 -142.667 84 -236h141zM2068 398.002
c-13.333 48 -28.499 88.667 -45.499 122s-35.5 60.333 -55.5 81s-41.333 35.667 -64 45s-46.334 14 -71.001 14c-32 0 -65.833 -8.66699 -101.5 -26s-71.667 -40 -108 -68s-72.333 -59.833 -108 -95.5s-69.5 -71.5 -101.5 -107.5h629z" />
    <glyph glyph-name="sadinitial" unicode="&#x635;" horiz-adv-x="1533" arabic-form="initial" 
d="M-48 363l222.001 0.000976562c-13.333 28.667 -25 61.167 -35 97.5s-17.667 74.5 -23 114.5l79.5 36.5l76.5 34.5c7.33301 -50 18 -98.833 32 -146.5s28.667 -93.167 44 -136.5h99l92 109.5c33.333 38.333 68.166 76.166 104.499 113.499s74 73 113 107
s78.5 63.833 118.5 89.5s80.167 46 120.5 61s79.833 22.5 118.5 22.5c37.333 0 73.833 -8.16699 109.5 -24.5s70 -43.333 103 -81s64.167 -87 93.5 -148s56.333 -135.833 81 -224.5l-13.5 -120c-4.33301 -39.333 -8.5 -79.333 -12.5 -120h-1523v215zM1320 398.001
c-13.333 48 -28.666 88.667 -45.999 122s-36 60.333 -56 81s-41.333 35.667 -64 45s-46.334 14 -71.001 14c-32 0 -65.833 -8.66699 -101.5 -26s-71.667 -40 -108 -68s-72.5 -59.833 -108.5 -95.5s-70 -71.5 -102 -107.5h630z" />
    <glyph glyph-name="sadmedial" unicode="&#x635;" horiz-adv-x="1592" arabic-form="medial" 
d="M1633 363l-0.000976562 -214.999h-1676v215h200c-14 28.667 -26 61.167 -36 97.5s-18 74.5 -24 114.5l80 36.5l77 34.5c7.33301 -50 17.833 -98.667 31.5 -146s28.834 -93 45.501 -137h97l91.5 109.5c33 38.333 67.833 76.166 104.5 113.499s74.5 73 113.5 107
s78.5 63.833 118.5 89.5s80.167 46 120.5 61s79.833 22.5 118.5 22.5c38 0 75 -8.66699 111 -26s70.833 -45.833 104.5 -85.5s65.5 -91.5 95.5 -155.5s57.667 -142.667 83 -236h144zM1300 398.001c-13.333 48 -28.332 88.667 -44.999 122s-35 60.333 -55 81
s-41.333 35.667 -64 45s-46.334 14 -71.001 14c-32 0 -65.833 -8.66699 -101.5 -26s-71.667 -40 -108 -68s-72.333 -59.833 -108 -95.5s-69.5 -71.5 -101.5 -107.5h628z" />
    <glyph glyph-name="dadisolated" unicode="&#x636;" horiz-adv-x="2266" arabic-form="isolated" 
d="M1089 148c-19.333 -62 -45.334 -120 -78.001 -174s-71.667 -100.833 -117 -140.5s-97.166 -71 -155.499 -94s-122.833 -34.5 -193.5 -34.5s-137.834 13.667 -201.501 41s-119.5 64.833 -167.5 112.5s-86.167 103.5 -114.5 167.5s-42.5 132 -42.5 204c0 21.333 3 50 9 86
s14.333 72.833 25 110.5s23 73.334 37 107.001s28.667 58.834 44 75.501v-1c7.33301 7.33301 17.333 13.666 30 18.999s24.667 9.66602 36 12.999l-19.5 -112c-5.66699 -33.333 -9.5 -66 -11.5 -98s-1.5 -64.5 1.5 -97.5s9.83301 -69.833 20.5 -110.5
c14 -50.667 33.667 -95 59 -133s54.333 -69.5 87 -94.5s68 -43.833 106 -56.5s76 -19 114 -19c45.333 0 89.666 8.83301 132.999 26.5s81.833 44.334 115.5 80.001s60.5 80 80.5 133s29.667 114.5 29 184.5c-3.33301 19.333 -7.16602 38.666 -11.499 57.999
s-9.16602 38.333 -14.499 57c-4.66699 18.667 -9.16699 37.834 -13.5 57.501s-8.16602 39.834 -11.499 60.501l80 35.5l76 33.5c7.33301 -50 18 -98.667 32 -146s29 -92.666 45 -135.999h98l91.5 109.5c33 38.333 67.833 76.166 104.5 113.499s74.5 73 113.5 107
s78.667 63.833 119 89.5s80.666 46 120.999 61s79.833 22.5 118.5 22.5c36.667 0 73 -8.33301 109 -25s70.5 -43.834 103.5 -81.501s64.167 -86.834 93.5 -147.501s56.333 -135.334 81 -224.001c-5.33301 -42 -10 -82.167 -14 -120.5s-8.66699 -78.166 -14 -119.499h-1133z
M2067 398c-13.333 48 -28.332 88.667 -44.999 122s-35 60.333 -55 81s-41.333 35.667 -64 45s-46.334 14 -71.001 14c-32 0 -65.833 -8.66699 -101.5 -26s-71.667 -40 -108 -68s-72.333 -59.833 -108 -95.5s-69.5 -71.5 -101.5 -107.5h628zM1324 1258l152 -152l-39.5 -41
l-36.5 -37.5l-36.5 -37l-39.5 -39.5l-41 41l-37 37.5l-36 37l-39 39.5z" />
    <glyph glyph-name="dadfinal" unicode="&#x636;" horiz-adv-x="2341" arabic-form="final" 
d="M2399 363l-0.000976562 -214.995h-1309c-19.333 -62 -45.333 -120 -78 -174s-71.834 -100.833 -117.501 -140.5s-97.667 -71 -156 -94s-122.833 -34.5 -193.5 -34.5c-70 0 -136.667 13.667 -200 41s-119 64.833 -167 112.5s-86 103.5 -114 167.5s-42 132 -42 204
c0 14 1.33301 31.667 4 53s6.5 44.166 11.5 68.499s10.833 49.166 17.5 74.499s14.334 49.666 23.001 72.999s17.834 44.5 27.501 63.5s19.834 34.167 30.501 45.5c6.66699 7.33301 15 13.166 25 17.499s20.333 8.16602 31 11.499c-5.33301 -34 -10 -68 -14 -102
s-6.5 -68.167 -7.5 -102.5s0.166992 -69 3.5 -104s9.66602 -70.5 18.999 -106.5c14 -50.667 33.667 -95 59 -133s54.333 -69.5 87 -94.5s67.834 -43.833 105.501 -56.5s75.834 -19 114.501 -19c45.333 0 89.666 8.83301 132.999 26.5s81.833 44.334 115.5 80.001
s60.5 80 80.5 133s29.667 114.5 29 184.5c-2.66699 18 -6.5 37.333 -11.5 58l-15.5 63c-4.66699 16.667 -9.16699 34.5 -13.5 53.5s-8.16602 38.167 -11.499 57.5l80 36.5l77 34.5c7.33301 -50 18 -98.833 32 -146.5s28.667 -93.167 44 -136.5h98l92 109.5
c33.333 38.333 68.166 76.166 104.499 113.499s74.166 73 113.499 107s79 63.833 119 89.5s80.167 46 120.5 61s79.833 22.5 118.5 22.5c37.333 0 74 -8.66699 110 -26s70.833 -45.833 104.5 -85.5s65.5 -91.5 95.5 -155.5s58 -142.667 84 -236h141zM2068 398.005
c-13.333 48 -28.499 88.667 -45.499 122s-35.5 60.333 -55.5 81s-41.333 35.667 -64 45s-46.334 14 -71.001 14c-32 0 -65.833 -8.66699 -101.5 -26s-71.667 -40 -108 -68s-72.333 -59.833 -108 -95.5s-69.5 -71.5 -101.5 -107.5h629zM1326 1258l152 -152l-40.5 -41
l-36.5 -37.5l-36 -37l-39 -39.5l-155 155z" />
    <glyph glyph-name="dadinitial" unicode="&#x636;" horiz-adv-x="1533" arabic-form="initial" 
d="M-48 363l222.001 0.000976562c-13.333 28.667 -25 61.167 -35 97.5s-17.667 74.5 -23 114.5l79.5 36.5l76.5 34.5c7.33301 -50 18 -98.833 32 -146.5s28.667 -93.167 44 -136.5h99l92 109.5c33.333 38.333 68.166 76.166 104.499 113.499s74 73 113 107
s78.5 63.833 118.5 89.5s80.167 46 120.5 61s79.833 22.5 118.5 22.5c37.333 0 73.833 -8.16699 109.5 -24.5s70 -43.333 103 -81s64.167 -87 93.5 -148s56.333 -135.833 81 -224.5l-13.5 -120c-4.33301 -39.333 -8.5 -79.333 -12.5 -120h-1523v215zM1320 398.001
c-13.333 48 -28.666 88.667 -45.999 122s-36 60.333 -56 81s-41.333 35.667 -64 45s-46.334 14 -71.001 14c-32 0 -65.833 -8.66699 -101.5 -26s-71.667 -40 -108 -68s-72.5 -59.833 -108.5 -95.5s-70 -71.5 -102 -107.5h630zM595.001 1258l152 -152l-40.5 -41l-36.5 -37.5
l-36 -37l-39 -39.5l-155 155z" />
    <glyph glyph-name="dadmedial" unicode="&#x636;" horiz-adv-x="1592" arabic-form="medial" 
d="M1633 363l-0.000976562 -214.999h-1676v215h200c-14 28.667 -26 61.167 -36 97.5s-18 74.5 -24 114.5l80 36.5l77 34.5c7.33301 -50 17.833 -98.667 31.5 -146s28.834 -93 45.501 -137h97l91.5 109.5c33 38.333 67.833 76.166 104.5 113.499s74.5 73 113.5 107
s78.5 63.833 118.5 89.5s80.167 46 120.5 61s79.833 22.5 118.5 22.5c38 0 75 -8.66699 111 -26s70.833 -45.833 104.5 -85.5s65.5 -91.5 95.5 -155.5s57.667 -142.667 83 -236h144zM1300 398.001c-13.333 48 -28.332 88.667 -44.999 122s-35 60.333 -55 81
s-41.333 35.667 -64 45s-46.334 14 -71.001 14c-32 0 -65.833 -8.66699 -101.5 -26s-71.667 -40 -108 -68s-72.333 -59.833 -108 -95.5s-69.5 -71.5 -101.5 -107.5h628zM592 1258l153 -152l-41 -41l-37 -37.5l-36 -37l-39 -39.5l-154 155z" />
    <glyph glyph-name="tahisolated" unicode="&#x637;" horiz-adv-x="1583" arabic-form="isolated" 
d="M26 230c0 21.333 2.99902 49.999 8.99902 85.999s14.167 72.833 24.5 110.5s22.333 73.334 36 107.001s28.167 58.834 43.5 75.501c6 7.33301 14.333 12.833 25 16.5l33 11.5c-12.667 -44 -19 -84.667 -19 -122c0 -36.667 7.16699 -68.167 21.5 -94.5
s37.5 -45.5 69.5 -57.5h231c-3.33301 146.667 -7 297.167 -11 451.5s-7.66699 305.5 -11 453.5l104 43l100 41l-15 -844c34 49.333 71.167 95.833 111.5 139.5s81.666 81.667 123.999 114s85 58 128 77s84.5 28.5 124.5 28.5c39.333 0 77.833 -8.33301 115.5 -25
s73.334 -43.834 107.001 -81.501s64.5 -86.667 92.5 -147s51.667 -134.5 71 -222.5l-18 -121.5c-6 -39 -11.667 -79.5 -17 -121.5h-1438c-9.33301 5.33301 -18.666 15 -27.999 29s-14 31.667 -14 53zM1358 397.999c-13.333 48 -28.5 88.667 -45.5 122s-35.5 60.333 -55.5 81
s-41.5 35.667 -64.5 45s-46.833 14 -71.5 14c-32 0 -65.833 -8.66699 -101.5 -26s-71.667 -40 -108 -68s-72.5 -59.833 -108.5 -95.5s-70 -71.5 -102 -107.5h630z" />
    <glyph glyph-name="tahfinal" unicode="&#x637;" horiz-adv-x="1666" arabic-form="final" 
d="M34 230c0 14 1.33008 31.333 3.99707 52s6.5 43 11.5 67s11 48.667 18 74s14.833 49.666 23.5 72.999s17.834 44.833 27.501 64.5s19.5 35.5 29.5 47.5c7.33301 7.33301 15.833 13 25.5 17s19.834 8 30.501 12c-11.333 -43.333 -17 -83.666 -17 -120.999
s7.16699 -69.333 21.5 -96s37.166 -45.667 68.499 -57h234c-4 146.667 -8.33301 297.167 -13 451.5s-9 305.5 -13 453.5l105 42.5l102 41.5l-15 -845c34 50 70.833 96.833 110.5 140.5s80.834 81.667 123.501 114s85.5 58 128.5 77s84.5 28.5 124.5 28.5
c39.333 0 78 -8.83301 116 -26.5s74 -46.5 108 -86.5s65.333 -92 94 -156s53.334 -142.333 74.001 -235h153v-215h-1632c-9.33301 5.33301 -18.833 15 -28.5 29s-14.5 31.667 -14.5 53zM1367 398c-13.333 48 -28.666 88.667 -45.999 122s-36 60.333 -56 81
s-41.333 35.667 -64 45s-46.334 14 -71.001 14c-32 0 -65.833 -8.66699 -101.5 -26s-71.5 -40 -107.5 -68s-71.833 -59.833 -107.5 -95.5s-69.5 -71.5 -101.5 -107.5h629z" />
    <glyph glyph-name="tahinitial" unicode="&#x637;" horiz-adv-x="1233" arabic-form="initial" 
d="M-52 363l200.999 0.00195312l-12.5 451.5c-4.33301 154.333 -8.16602 305.5 -11.499 453.5l103.5 43l101.5 41l-15 -844c34 49.333 71 95.833 111 139.5s81.333 81.667 124 114s85.5 58 128.5 77s84.167 28.5 123.5 28.5s78 -8.33301 116 -25s73.667 -43.834 107 -81.501
s64 -86.834 92 -147.501s51.667 -135 71 -223l-14 -121l-14 -121h-1212v215zM1005 398.002c-12.667 48 -27.4961 88.667 -44.4961 122s-35.667 60.333 -56 81s-41.833 35.667 -64.5 45s-46.334 14 -71.001 14c-32 0 -65.833 -8.66699 -101.5 -26s-71.834 -40 -108.501 -68
s-72.834 -59.833 -108.501 -95.5s-69.834 -71.5 -102.501 -107.5h631z" />
    <glyph glyph-name="tahmedial" unicode="&#x637;" horiz-adv-x="1300" arabic-form="medial" 
d="M1336 363l-0.000976562 -215h-1377v215h202l-12 451.5l-12 453.5l105 43l100 41l-14 -844c34 49.333 71 95.833 111 139.5s81.333 81.667 124 114s85.334 58 128.001 77s84 28.5 124 28.5c39.333 0 78 -8.83301 116 -26.5s74 -46.5 108 -86.5s65.167 -92 93.5 -156
s52.833 -142.333 73.5 -235h130zM1017 398c-13.333 48 -28.666 88.667 -45.999 122s-36 60.333 -56 81s-41.333 35.667 -64 45s-46.334 14 -71.001 14c-32 0 -65.833 -8.66699 -101.5 -26s-71.667 -40 -108 -68s-72.333 -59.833 -108 -95.5s-69.5 -71.5 -101.5 -107.5h630z
" />
    <glyph glyph-name="zahisolated" unicode="&#x638;" horiz-adv-x="1583" arabic-form="isolated" 
d="M26 230c0 21.333 2.99902 49.999 8.99902 85.999s14.167 72.833 24.5 110.5s22.333 73.334 36 107.001s28.167 58.834 43.5 75.501c6 7.33301 14.333 12.833 25 16.5l33 11.5c-12.667 -44 -19 -84.667 -19 -122c0 -36.667 7.16699 -68.167 21.5 -94.5
s37.5 -45.5 69.5 -57.5h231c-3.33301 146.667 -7 297.167 -11 451.5s-7.66699 305.5 -11 453.5l104 43l100 41l-15 -844c34 49.333 71.167 95.833 111.5 139.5s81.666 81.667 123.999 114s85 58 128 77s84.5 28.5 124.5 28.5c39.333 0 77.833 -8.33301 115.5 -25
s73.334 -43.834 107.001 -81.501s64.5 -86.667 92.5 -147s51.667 -134.5 71 -222.5l-18 -121.5c-6 -39 -11.667 -79.5 -17 -121.5h-1438c-9.33301 5.33301 -18.666 15 -27.999 29s-14 31.667 -14 53zM1358 397.999c-13.333 48 -28.5 88.667 -45.5 122s-35.5 60.333 -55.5 81
s-41.5 35.667 -64.5 45s-46.833 14 -71.5 14c-32 0 -65.833 -8.66699 -101.5 -26s-71.667 -40 -108 -68s-72.5 -59.833 -108.5 -95.5s-70 -71.5 -102 -107.5h630zM1018 1344l153 -153l-153 -153l-153 153z" />
    <glyph glyph-name="zahfinal" unicode="&#x638;" horiz-adv-x="1666" arabic-form="final" 
d="M34 230c0 14 1.33008 31.333 3.99707 52s6.5 43 11.5 67s11 48.667 18 74s14.833 49.666 23.5 72.999s17.834 44.833 27.501 64.5s19.5 35.5 29.5 47.5c7.33301 7.33301 15.833 13 25.5 17s19.834 8 30.501 12c-11.333 -43.333 -17 -83.666 -17 -120.999
s7.16699 -69.333 21.5 -96s37.166 -45.667 68.499 -57h234c-4 146.667 -8.33301 297.167 -13 451.5s-9 305.5 -13 453.5l105 42.5l102 41.5l-15 -845c34 50 70.833 96.833 110.5 140.5s80.834 81.667 123.501 114s85.5 58 128.5 77s84.5 28.5 124.5 28.5
c39.333 0 78 -8.83301 116 -26.5s74 -46.5 108 -86.5s65.333 -92 94 -156s53.334 -142.333 74.001 -235h153v-215h-1632c-9.33301 5.33301 -18.833 15 -28.5 29s-14.5 31.667 -14.5 53zM1367 398c-13.333 48 -28.666 88.667 -45.999 122s-36 60.333 -56 81
s-41.333 35.667 -64 45s-46.334 14 -71.001 14c-32 0 -65.833 -8.66699 -101.5 -26s-71.5 -40 -107.5 -68s-71.833 -59.833 -107.5 -95.5s-69.5 -71.5 -101.5 -107.5h629zM1033 1344l152 -153l-41 -41l-37 -37l-36 -36l-38 -39l-41 41l-37.5 37l-37 36l-39.5 39z" />
    <glyph glyph-name="zahinitial" unicode="&#x638;" horiz-adv-x="1233" arabic-form="initial" 
d="M-52 363l200.999 0.00195312l-12.5 451.5c-4.33301 154.333 -8.16602 305.5 -11.499 453.5l103.5 43l101.5 41l-15 -844c34 49.333 71 95.833 111 139.5s81.333 81.667 124 114s85.5 58 128.5 77s84.167 28.5 123.5 28.5s78 -8.33301 116 -25s73.667 -43.834 107 -81.501
s64 -86.834 92 -147.501s51.667 -135 71 -223l-14 -121l-14 -121h-1212v215zM1005 398.002c-12.667 48 -27.4961 88.667 -44.4961 122s-35.667 60.333 -56 81s-41.833 35.667 -64.5 45s-46.334 14 -71.001 14c-32 0 -65.833 -8.66699 -101.5 -26s-71.834 -40 -108.501 -68
s-72.834 -59.833 -108.501 -95.5s-69.834 -71.5 -102.501 -107.5h631zM663.003 1336l152 -153l-41 -41l-37 -37l-36 -36l-38 -39l-154 153z" />
    <glyph glyph-name="zahmedial" unicode="&#x638;" horiz-adv-x="1300" arabic-form="medial" 
d="M1336 363l-0.000976562 -215h-1377v215h202l-12 451.5l-12 453.5l105 43l100 41l-14 -844c34 49.333 71 95.833 111 139.5s81.333 81.667 124 114s85.334 58 128.001 77s84 28.5 124 28.5c39.333 0 78 -8.83301 116 -26.5s74 -46.5 108 -86.5s65.167 -92 93.5 -156
s52.833 -142.333 73.5 -235h130zM1017 398c-13.333 48 -28.666 88.667 -45.999 122s-36 60.333 -56 81s-41.333 35.667 -64 45s-46.334 14 -71.001 14c-32 0 -65.833 -8.66699 -101.5 -26s-71.667 -40 -108 -68s-72.333 -59.833 -108 -95.5s-69.5 -71.5 -101.5 -107.5h630z
M692.999 1327l154 -152l-154 -153l-41 40.5l-37 36.5l-36.5 36.5l-39.5 39.5z" />
    <glyph glyph-name="ainisolated" unicode="&#x639;" horiz-adv-x="967" arabic-form="isolated" 
d="M210 583c0 51.333 8.83203 102.668 26.499 154.001s42 97.666 73 138.999s67.5 75 109.5 101s87.667 39 137 39c36 0 69 -4.83301 99 -14.5s57 -23.167 81 -40.5s45.167 -38 63.5 -62s34.166 -50.667 47.499 -80c-4 -2.66699 -9 -7 -15 -13s-12 -12.5 -18 -19.5
l-17.5 -19.5c-5.66699 -6 -10.5 -10.333 -14.5 -13c-26.667 16 -58.834 30 -96.501 42s-76.834 18.333 -117.501 19c2 -0.666992 -1.16699 -1.66699 -9.5 -3s-19.166 -3.5 -32.499 -6.5s-28.166 -7.16699 -44.499 -12.5s-31.5 -12.166 -45.5 -20.499
s-25.667 -18.333 -35 -30s-14 -25.167 -14 -40.5c0 -17.333 1.66699 -32.666 5 -45.999s7.66602 -25.666 12.999 -36.999s11.833 -22.5 19.5 -33.5l25.5 -35.5c34 2 68.5 5 103.5 9s70.167 7.5 105.5 10.5s71 4.83301 107 5.5s72.667 -1.33301 110 -6
c-2 -18.667 -4.16699 -36 -6.5 -52s-4.5 -31.833 -6.5 -47.5l-6 -47c-2 -15.667 -4.33301 -32.5 -7 -50.5c-16 -2 -30.167 -2.83301 -42.5 -2.5s-29.5 0.5 -51.5 0.5c-38.667 0 -78.167 -1.16699 -118.5 -3.5s-79.833 -7.33301 -118.5 -15s-75.167 -18.834 -109.5 -33.501
s-64.333 -34.167 -90 -58.5s-46 -54.5 -61 -90.5s-22.5 -79 -22.5 -129c0 -43.333 7.5 -84.333 22.5 -123s36 -73.167 63 -103.5s58.833 -55.666 95.5 -75.999s76.667 -33.5 120 -39.5h-1c67.333 -11.333 132.333 -18.166 195 -20.499s125.334 -2.83301 188.001 -1.5
c4 -7.33301 7.66699 -13.5 11 -18.5l10 -15.5c-25.333 -26 -53.166 -48.833 -83.499 -68.5s-62 -36.334 -95 -50.001s-67.167 -23.834 -102.5 -30.501s-70.333 -10 -105 -10c-68.667 0 -134.667 13 -198 39s-117.666 65 -162.999 117c-46 58.667 -81.333 120.5 -106 185.5
s-37 127.833 -37 188.5c0 79.333 16.167 156.666 48.5 231.999s75.5 144.666 129.5 207.999z" />
    <glyph glyph-name="ainfinal" unicode="&#x639;" horiz-adv-x="867" arabic-form="final" 
d="M104 588c-0.666992 -0.666992 0.34375 4.49121 3.01074 15.4912l10.5 43l13.5 57.5l13.5 59.5c4.33301 19 7.66602 35.667 9.99902 50s3.16602 23.5 2.49902 27.5c31.333 16 67.666 31.5 108.999 46.5s83.666 26.833 126.999 35.5s85.833 12.834 127.5 12.501
s79 -7.66602 112 -21.999s59.5 -37.166 79.5 -68.499s30 -73.333 30 -126c0 -31.333 -4.16699 -61.166 -12.5 -89.499s-19.666 -55.166 -33.999 -80.499s-31.5 -48.833 -51.5 -70.5s-42 -41.5 -66 -59.5c12 -15.333 25.167 -28.166 39.5 -38.499
s28.166 -16.166 41.499 -17.499h248v-215h-338c-18 8.66699 -32.833 20.167 -44.5 34.5s-22.667 30.333 -33 48l-31.5 54.5c-10.667 18.667 -23.334 36.334 -38.001 53.001c-32.667 -18.667 -60.667 -39.334 -84 -62.001s-42.333 -46.5 -57 -71.5s-25.5 -50.833 -32.5 -77.5
s-10.5 -53.334 -10.5 -80.001c0 -63.333 10.667 -116.5 32 -159.5s49.666 -78.5 84.999 -106.5s76.333 -49.167 123 -63.5s95.167 -24.833 145.5 -31.5s101.166 -10.167 152.499 -10.5s99.666 -0.166016 144.999 0.500977c8 -14 14.667 -25 20 -33
c-60.667 -56 -124.667 -96.667 -192 -122s-134.333 -38 -201 -38c-65.333 0 -127.833 11.833 -187.5 35.5s-112.334 57.5 -158.001 101.5s-82.334 97.5 -110.001 160.5s-41.834 133.833 -42.501 212.5c-1.33301 38.667 3.16699 79.167 13.5 121.5s26.333 83.833 48 124.5
s49.334 79.167 83.001 115.5s73.167 67.833 118.5 94.5c-22.667 25.333 -43 45.833 -61 61.5s-35.167 28.334 -51.5 38.001s-32.333 17.334 -48 23.001s-31.834 11.167 -48.501 16.5zM444.011 542.991c-2 -2.66699 -0.499023 -2.33301 4.50098 1s12 8.33301 21 15
s19.167 15 30.5 25s22 20.333 32 31s18.5 21.667 25.5 33s10.833 21.666 11.5 30.999c0.666992 12.667 -4.83301 23.167 -16.5 31.5s-26.167 14.5 -43.5 18.5s-36.333 5.83301 -57 5.5s-39.834 -2.83301 -57.501 -7.5s-32.5 -11.667 -44.5 -21s-18.333 -20.666 -19 -33.999z
" />
    <glyph glyph-name="aininitial" unicode="&#x639;" horiz-adv-x="883" arabic-form="initial" 
d="M-33 367l192.004 -4.99512c-12 50 -18 90.667 -18 122c0 51.333 8.66699 102.666 26 153.999s41.5 97.666 72.5 138.999s67.667 74.833 110 100.5s88.166 38.5 137.499 38.5c36 0 69 -4.66699 99 -14s57 -22.666 81 -39.999s45.167 -38 63.5 -62
s34.166 -50.667 47.499 -80l-83 -97c-15.333 18.667 -36.333 35.167 -63 49.5s-55 25.166 -85 32.499s-60.167 10.166 -90.5 8.49902s-57 -8.83398 -80 -21.501s-40.667 -31.834 -53 -57.501s-15.833 -59.167 -10.5 -100.5v1c8 -32 19.667 -58.5 35 -79.5
s33.166 -37.667 53.499 -50s42.833 -21.166 67.5 -26.499s50.334 -8 77.001 -8c43.333 0 87.166 5 131.499 15s86.166 20 125.499 30c3.33301 1.33301 5.83301 2.16602 7.5 2.49902s4.16699 1.16602 7.5 2.49902l-7 -52.5l-6 -46c-2 -15 -4.16699 -30.167 -6.5 -45.5
s-4.5 -32 -6.5 -50c-57.333 -29.333 -122.5 -50.166 -195.5 -62.499s-148.5 -17.833 -226.5 -16.5h-403v219z" />
    <glyph glyph-name="ainmedial" unicode="&#x639;" horiz-adv-x="833" arabic-form="medial" 
d="M70 363c26 2 49.165 3.99707 69.498 5.99707s40.5 5.66699 60.5 11s41.167 13 63.5 23s48.5 23.667 78.5 41c-4 3.33301 -9.83301 7.83301 -17.5 13.5l-23.5 17.5l-22.5 17c-7 5.33301 -12.167 9.66602 -15.5 12.999c-27.333 22 -53.166 41 -77.499 57
s-52.833 25 -85.5 27c0.666992 2 2.33398 8.66699 5.00098 20s5.66699 25.333 9 42l11.5 55l12.5 59l11.5 54c3.66699 16.667 6.5 30 8.5 40l89.5 34.5c29.667 11.667 59.667 22 90 31s61.333 16 93 21s64.5 6.5 98.5 4.5c37.333 -1.33301 69.166 -8.66602 95.499 -21.999
s47.833 -30.666 64.5 -51.999s28.834 -45.666 36.501 -72.999s11.5 -55.333 11.5 -84c0 -65.333 -14 -122.833 -42 -172.5s-67.333 -94.167 -118 -133.5c12.667 -16 25.5 -28 38.5 -36s26.167 -12.667 39.5 -14h212v-215h-304c-9.33301 2.66699 -19 9.5 -29 20.5
s-20 24.333 -30 40s-20 33 -30 52l-30 58.5c-18.667 -25.333 -43.5 -48.666 -74.5 -69.999s-62.5 -39.5 -94.5 -54.5s-61.833 -26.5 -89.5 -34.5s-47.5 -12 -59.5 -12h-160v215h104zM487.998 534.997c-4 -6.66699 -1.00195 -5.5 8.99805 3.5s22.167 22 36.5 39
s28 35.833 41 56.5s20.5 39 22.5 55c-0.666992 15.333 -8 27.833 -22 37.5s-31 16.834 -51 21.501s-41.667 6.66699 -65 6s-44.666 -4 -63.999 -10s-35.166 -14.833 -47.499 -26.5s-17.833 -25.834 -16.5 -42.501z" />
    <glyph glyph-name="ghainisolated" unicode="&#x63a;" horiz-adv-x="967" arabic-form="isolated" 
d="M210 583c0 51.333 8.83203 102.668 26.499 154.001s42 97.666 73 138.999s67.5 75 109.5 101s87.667 39 137 39c36 0 69 -4.83301 99 -14.5s57 -23.167 81 -40.5s45.167 -38 63.5 -62s34.166 -50.667 47.499 -80c-4 -2.66699 -9 -7 -15 -13s-12 -12.5 -18 -19.5
l-17.5 -19.5c-5.66699 -6 -10.5 -10.333 -14.5 -13c-26.667 16 -58.834 30 -96.501 42s-76.834 18.333 -117.501 19c2 -0.666992 -1.16699 -1.66699 -9.5 -3s-19.166 -3.5 -32.499 -6.5s-28.166 -7.16699 -44.499 -12.5s-31.5 -12.166 -45.5 -20.499
s-25.667 -18.333 -35 -30s-14 -25.167 -14 -40.5c0 -17.333 1.66699 -32.666 5 -45.999s7.66602 -25.666 12.999 -36.999s11.833 -22.5 19.5 -33.5l25.5 -35.5c34 2 68.5 5 103.5 9s70.167 7.5 105.5 10.5s71 4.83301 107 5.5s72.667 -1.33301 110 -6
c-2 -18.667 -4.16699 -36 -6.5 -52s-4.5 -31.833 -6.5 -47.5l-6 -47c-2 -15.667 -4.33301 -32.5 -7 -50.5c-16 -2 -30.167 -2.83301 -42.5 -2.5s-29.5 0.5 -51.5 0.5c-38.667 0 -78.167 -1.16699 -118.5 -3.5s-79.833 -7.33301 -118.5 -15s-75.167 -18.834 -109.5 -33.501
s-64.333 -34.167 -90 -58.5s-46 -54.5 -61 -90.5s-22.5 -79 -22.5 -129c0 -43.333 7.5 -84.333 22.5 -123s36 -73.167 63 -103.5s58.833 -55.666 95.5 -75.999s76.667 -33.5 120 -39.5h-1c67.333 -11.333 132.333 -18.166 195 -20.499s125.334 -2.83301 188.001 -1.5
c4 -7.33301 7.66699 -13.5 11 -18.5l10 -15.5c-25.333 -26 -53.166 -48.833 -83.499 -68.5s-62 -36.334 -95 -50.001s-67.167 -23.834 -102.5 -30.501s-70.333 -10 -105 -10c-68.667 0 -134.667 13 -198 39s-117.666 65 -162.999 117c-46 58.667 -81.333 120.5 -106 185.5
s-37 127.833 -37 188.5c0 79.333 16.167 156.666 48.5 231.999s75.5 144.666 129.5 207.999zM447.999 1485l152 -153l-40.5 -41l-36.5 -37.5l-36 -37l-39 -39.5l-41 41.5l-37 37.5l-36.5 36.5l-39.5 39.5z" />
    <glyph glyph-name="ghainfinal" unicode="&#x63a;" horiz-adv-x="867" arabic-form="final" 
d="M104 588c-0.666992 -0.666992 0.34375 4.49121 3.01074 15.4912l10.5 43l13.5 57.5l13.5 59.5c4.33301 19 7.66602 35.667 9.99902 50s3.16602 23.5 2.49902 27.5c31.333 16 67.666 31.5 108.999 46.5s83.666 26.833 126.999 35.5s85.833 12.834 127.5 12.501
s79 -7.66602 112 -21.999s59.5 -37.166 79.5 -68.499s30 -73.333 30 -126c0 -31.333 -4.16699 -61.166 -12.5 -89.499s-19.666 -55.166 -33.999 -80.499s-31.5 -48.833 -51.5 -70.5s-42 -41.5 -66 -59.5c12 -15.333 25.167 -28.166 39.5 -38.499
s28.166 -16.166 41.499 -17.499h248v-215h-338c-18 8.66699 -32.833 20.167 -44.5 34.5s-22.667 30.333 -33 48l-31.5 54.5c-10.667 18.667 -23.334 36.334 -38.001 53.001c-32.667 -18.667 -60.667 -39.334 -84 -62.001s-42.333 -46.5 -57 -71.5s-25.5 -50.833 -32.5 -77.5
s-10.5 -53.334 -10.5 -80.001c0 -63.333 10.667 -116.5 32 -159.5s49.666 -78.5 84.999 -106.5s76.333 -49.167 123 -63.5s95.167 -24.833 145.5 -31.5s101.166 -10.167 152.499 -10.5s99.666 -0.166016 144.999 0.500977c8 -14 14.667 -25 20 -33
c-60.667 -56 -124.667 -96.667 -192 -122s-134.333 -38 -201 -38c-65.333 0 -127.833 11.833 -187.5 35.5s-112.334 57.5 -158.001 101.5s-82.334 97.5 -110.001 160.5s-41.834 133.833 -42.501 212.5c-1.33301 38.667 3.16699 79.167 13.5 121.5s26.333 83.833 48 124.5
s49.334 79.167 83.001 115.5s73.167 67.833 118.5 94.5c-22.667 25.333 -43 45.833 -61 61.5s-35.167 28.334 -51.5 38.001s-32.333 17.334 -48 23.001s-31.834 11.167 -48.501 16.5zM378.011 1430.99l154 -153l-154 -153l-77.5 77.5l-76.5 75.5zM444.011 542.991
c-2 -2.66699 -0.499023 -2.33301 4.50098 1s12 8.33301 21 15s19.167 15 30.5 25s22 20.333 32 31s18.5 21.667 25.5 33s10.833 21.666 11.5 30.999c0.666992 12.667 -4.83301 23.167 -16.5 31.5s-26.167 14.5 -43.5 18.5s-36.333 5.83301 -57 5.5
s-39.834 -2.83301 -57.501 -7.5s-32.5 -11.667 -44.5 -21s-18.333 -20.666 -19 -33.999z" />
    <glyph glyph-name="ghaininitial" unicode="&#x63a;" horiz-adv-x="883" arabic-form="initial" 
d="M-33 367l192.004 -4.99512c-12 50 -18 90.667 -18 122c0 51.333 8.66699 102.666 26 153.999s41.5 97.666 72.5 138.999s67.667 74.833 110 100.5s88.166 38.5 137.499 38.5c36 0 69 -4.66699 99 -14s57 -22.666 81 -39.999s45.167 -38 63.5 -62
s34.166 -50.667 47.499 -80l-83 -97c-15.333 18.667 -36.333 35.167 -63 49.5s-55 25.166 -85 32.499s-60.167 10.166 -90.5 8.49902s-57 -8.83398 -80 -21.501s-40.667 -31.834 -53 -57.501s-15.833 -59.167 -10.5 -100.5v1c8 -32 19.667 -58.5 35 -79.5
s33.166 -37.667 53.499 -50s42.833 -21.166 67.5 -26.499s50.334 -8 77.001 -8c43.333 0 87.166 5 131.499 15s86.166 20 125.499 30c3.33301 1.33301 5.83301 2.16602 7.5 2.49902s4.16699 1.16602 7.5 2.49902l-7 -52.5l-6 -46c-2 -15 -4.16699 -30.167 -6.5 -45.5
s-4.5 -32 -6.5 -50c-57.333 -29.333 -122.5 -50.166 -195.5 -62.499s-148.5 -17.833 -226.5 -16.5h-403v219zM444.004 1405l153 -152l-41 -41l-37 -37.5l-36 -37l-39 -39.5l-41 41l-37 37.5l-36 37l-39 39.5z" />
    <glyph glyph-name="ghainmedial" unicode="&#x63a;" horiz-adv-x="833" arabic-form="medial" 
d="M70 363c26 2 49.165 3.99707 69.498 5.99707s40.5 5.66699 60.5 11s41.167 13 63.5 23s48.5 23.667 78.5 41c-4 3.33301 -9.83301 7.83301 -17.5 13.5l-23.5 17.5l-22.5 17c-7 5.33301 -12.167 9.66602 -15.5 12.999c-27.333 22 -53.166 41 -77.499 57
s-52.833 25 -85.5 27c0.666992 2 2.33398 8.66699 5.00098 20s5.66699 25.333 9 42l11.5 55l12.5 59l11.5 54c3.66699 16.667 6.5 30 8.5 40l89.5 34.5c29.667 11.667 59.667 22 90 31s61.333 16 93 21s64.5 6.5 98.5 4.5c37.333 -1.33301 69.166 -8.66602 95.499 -21.999
s47.833 -30.666 64.5 -51.999s28.834 -45.666 36.501 -72.999s11.5 -55.333 11.5 -84c0 -65.333 -14 -122.833 -42 -172.5s-67.333 -94.167 -118 -133.5c12.667 -16 25.5 -28 38.5 -36s26.167 -12.667 39.5 -14h212v-215h-304c-9.33301 2.66699 -19 9.5 -29 20.5
s-20 24.333 -30 40s-20 33 -30 52l-30 58.5c-18.667 -25.333 -43.5 -48.666 -74.5 -69.999s-62.5 -39.5 -94.5 -54.5s-61.833 -26.5 -89.5 -34.5s-47.5 -12 -59.5 -12h-160v215h104zM433.998 1431l152 -153l-41 -41l-37 -37l-36 -36l-38 -39l-41 41l-37.5 37l-37 36
l-39.5 39zM487.998 534.997c-4 -6.66699 -1.00195 -5.5 8.99805 3.5s22.167 22 36.5 39s28 35.833 41 56.5s20.5 39 22.5 55c-0.666992 15.333 -8 27.833 -22 37.5s-31 16.834 -51 21.501s-41.667 6.66699 -65 6s-44.666 -4 -63.999 -10s-35.166 -14.833 -47.499 -26.5
s-17.833 -25.834 -16.5 -42.501z" />
    <glyph glyph-name="fehisolated" unicode="&#x641;" horiz-adv-x="1349" arabic-form="isolated" 
d="M93 148c-8.66699 5.33301 -18 15.001 -28 29.001s-15 31.667 -15 53s3 50 9 86s14.333 72.833 25 110.5s22.834 73.334 36.501 107.001s28.167 58.834 43.5 75.501v-1c7.33301 7.33301 16 13 26 17s20.667 8 32 12c-4.66699 -19.333 -8.83398 -40 -12.501 -62
s-5.5 -42 -5.5 -60c0 -36.667 7.33301 -68.167 22 -94.5s38 -45.5 70 -57.5h503c-21.333 40.667 -36.833 78.167 -46.5 112.5s-14.5 65.166 -14.5 92.499c0 37.333 5.83301 73.5 17.5 108.5s28.667 66 51 93s49.833 48.5 82.5 64.5s70 24 112 24c64 0 116 -13.333 156 -40
s71.167 -61.834 93.5 -105.501s37.5 -93.167 45.5 -148.5s12 -111 12 -167c0 -44 -1.5 -87.333 -4.5 -130s-6.16699 -82.334 -9.5 -119.001h-1201zM1141 369.001c9.33301 8 16.667 20.8311 22 38.498s8 37.5 8 59.5s-2.83301 45.333 -8.5 70s-14.5 47.334 -26.5 68.001
s-27.333 37.834 -46 51.501s-41.334 20.5 -68.001 20.5c-17.333 0 -34 -2.83301 -50 -8.5s-30.167 -13.5 -42.5 -23.5s-22.166 -21.833 -29.499 -35.5s-11 -28.5 -11 -44.5c0 -22.667 6 -46.167 18 -70.5s27.833 -46.5 47.5 -66.5s41.667 -36.5 66 -49.5
s48.833 -19.5 73.5 -19.5zM919.001 1344l152 -153l-41 -41l-37 -37l-36 -36l-38 -39l-41 41l-37.5 37l-37 36l-39.5 39z" />
    <glyph glyph-name="fehfinal" unicode="&#x641;" horiz-adv-x="1355" arabic-form="final" 
d="M32 230c0 21.333 2.99805 49.9941 8.99805 85.9941s14.333 72.833 25 110.5s23 73.334 37 107.001s28.667 58.834 44 75.501v-1c6.66699 7.33301 15 13 25 17s20.667 8 32 12c-4 -17.333 -8 -37.666 -12 -60.999s-6 -43.666 -6 -60.999
c0 -37.333 7.33301 -69.166 22 -95.499s38 -45.166 70 -56.499h461c-40.667 81.333 -61 149.666 -61 204.999c0 37.333 5.83301 73.5 17.5 108.5s28.834 66 51.501 93s50.334 48.5 83.001 64.5s70 24 112 24c40 0 75.333 -6.16699 106 -18.5s57.5 -29.666 80.5 -51.999
s42.333 -49 58 -80s28.5 -64.833 38.5 -101.5s17.333 -75.667 22 -117s7.66699 -83.333 9 -126h139v-215h-1320c-9.33301 5.33301 -18.833 15 -28.5 29s-14.5 31.667 -14.5 53zM1083 368.994c9.33301 8 16.5029 20.8311 21.5029 38.498s7.5 37.5 7.5 59.5
s-2.83301 45.333 -8.5 70s-14.5 47.334 -26.5 68.001s-27.333 37.834 -46 51.501s-41.334 20.5 -68.001 20.5c-17.333 0 -34 -2.83301 -50 -8.5s-30 -13.5 -42 -23.5s-21.667 -22 -29 -36s-11 -29 -11 -45c0 -22 6 -45.167 18 -69.5s27.667 -46.5 47 -66.5
s41.166 -36.5 65.499 -49.5s49.166 -19.5 74.499 -19.5zM917.001 1343.99l152 -153l-41 -41l-37 -37l-36 -36l-38 -39l-41 41l-37.5 37l-37 36l-39.5 39z" />
    <glyph glyph-name="fehinitial" unicode="&#x641;" horiz-adv-x="742" arabic-form="initial" 
d="M-35 148v215.003h212c-21.333 40.667 -36.833 78.167 -46.5 112.5s-14.5 65.166 -14.5 92.499c0 37.333 5.83301 73.5 17.5 108.5s28.667 66 51 93s49.833 48.5 82.5 64.5s70 24 112 24c64 0 116 -13.333 156 -40s71.167 -61.834 93.5 -105.501s37.5 -93.167 45.5 -148.5
s12 -111 12 -167c0 -44 -1.5 -87.333 -4.5 -130s-6.16699 -82.334 -9.5 -119.001h-707zM519 369.003c9.33301 8 16.667 20.8311 22 38.498s8 37.5 8 59.5s-2.83301 45.333 -8.5 70s-14.5 47.334 -26.5 68.001s-27.333 37.834 -46 51.501s-41.334 20.5 -68.001 20.5
c-17.333 0 -34 -2.83301 -50 -8.5s-30.167 -13.5 -42.5 -23.5s-22.166 -21.833 -29.499 -35.5s-11 -28.5 -11 -44.5c0 -22.667 6 -46.167 18 -70.5s27.833 -46.5 47.5 -66.5s41.667 -36.5 66 -49.5s48.833 -19.5 73.5 -19.5zM334.001 1379l153 -152l-41 -41l-37 -37
l-36 -36.5l-39 -39.5l-40 41l-37.5 37l-37 36.5l-39.5 39.5z" />
    <glyph glyph-name="fehmedial" unicode="&#x641;" horiz-adv-x="788" arabic-form="medial" 
d="M826 148l-867.002 -0.000976562v215h212c-20.667 40 -36.167 77.333 -46.5 112s-15.5 65.667 -15.5 93c0 37.333 5.83301 73.5 17.5 108.5s28.834 66 51.501 93s50.334 48.5 83.001 64.5s70 24 112 24c40 0 75.333 -6.16699 106 -18.5s57.5 -29.666 80.5 -51.999
s42.333 -49 58 -80s28.5 -64.833 38.5 -101.5s17.333 -75.667 22 -117s7.66699 -83.333 9 -126h139v-215zM513.998 368.999c9.33301 8 16.502 20.8311 21.502 38.498s7.5 37.5 7.5 59.5c0 26.667 -4.33301 54.834 -13 84.501s-21.667 55.334 -39 77.001s-38.833 37 -64.5 46
s-55.167 6.5 -88.5 -7.5c-25.333 -9.33301 -44.333 -23.333 -57 -42s-19 -39 -19 -61s6 -45.167 18 -69.5s27.667 -46.5 47 -66.5s41.166 -36.5 65.499 -49.5s49.166 -19.5 74.499 -19.5zM331 1379l153 -152l-41 -41l-37 -37l-36 -36.5l-39 -39.5l-41 41l-37 37l-36.5 36.5
l-39.5 39.5z" />
    <glyph glyph-name="qafisolated" unicode="&#x642;" horiz-adv-x="1186" arabic-form="isolated" 
d="M579 -299c-70 0 -136.672 13.668 -200.005 41.001s-119 64.833 -167 112.5s-86 103.334 -114 167.001s-42 131.834 -42 204.501c0 14 1.33301 31.667 4 53s6.5 44 11.5 68s10.833 48.833 17.5 74.5s14.167 50.167 22.5 73.5s17.333 44.666 27 63.999s19.5 35 29.5 47
l34.5 16c8.33301 4 14.833 7 19.5 9s7.66699 3.16699 9 3.5s2.33301 0.5 3 0.5c-10 -44 -18.333 -85 -25 -123s-10 -75 -10 -111c0 -64 9.66699 -125.333 29 -184s46.333 -110.5 81 -155.5s76 -80.833 124 -107.5s101 -40 159 -40c30.667 0 61.334 4.83301 92.001 14.5
s60 24.167 88 43.5s54.167 43.5 78.5 72.5s46.166 62.5 65.499 100.5h-261c-14.667 1.33301 -26.834 3.16602 -36.501 5.49902s-17.167 4.83301 -22.5 7.5l3 -1c-48 29.333 -82.667 67.166 -104 113.499s-32 96.5 -32 150.5c0 51.333 8.66699 102.833 26 154.5
s41.5 98.167 72.5 139.5s67.5 74.833 109.5 100.5s87.667 38.5 137 38.5c42 0 79.333 -6.66699 112 -20s61.334 -31.833 86.001 -55.5s45.334 -51.5 62.001 -83.5s30.334 -66.333 41.001 -103s18.334 -75.167 23.001 -115.5s7 -80.166 7 -119.499
c0 -55.333 -3.83301 -108 -11.5 -158s-17.5 -93 -29.5 -129v1c-21.333 -52.667 -48 -101.5 -80 -146.5s-69.667 -84 -113 -117s-92.166 -58.833 -146.499 -77.5s-114.166 -28.334 -179.499 -29.001zM933.995 1303l77.5 -78.5l75.5 -75.5l-153 -152l-141 140l-141 -140
l-154 152l154 154l39 -39l32.5 -33l32 -32l37.5 -37zM772.995 683.001c-22 0 -42.166 -5.50293 -60.499 -16.5029s-34 -25.5 -47 -43.5s-23 -38.167 -30 -60.5s-10.5 -44.5 -10.5 -66.5c0 -30 7 -57.5 21 -82.5s37 -42.833 69 -53.5h238c5.33301 26.667 8 48.334 8 65.001
c0 22 -2.33301 47.667 -7 77s-13.834 57.333 -27.501 84s-32.667 49.334 -57 68.001s-56.5 28.334 -96.5 29.001z" />
    <glyph glyph-name="qaffinal" unicode="&#x642;" horiz-adv-x="1261" arabic-form="final" 
d="M570 -295c-70 0 -136.828 13.6689 -200.495 41.002s-119.5 64.833 -167.5 112.5s-86.167 103.5 -114.5 167.5s-42.5 132 -42.5 204c0 14 1.33301 31.667 4 53s6.5 44.166 11.5 68.499s11 49.166 18 74.499s14.667 49.666 23 72.999s17.333 44.5 27 63.5
s19.834 34.167 30.501 45.5l34.5 17.5c8.33301 4.33301 14.666 7.5 18.999 9.5s7.16602 3.33301 8.49902 4s2.33301 1 3 1c-8.66699 -36.667 -16.334 -76.167 -23.001 -118.5s-10 -81.5 -10 -117.5c0 -64 9.66699 -125.333 29 -184s46.166 -110.167 80.499 -154.5
s75.666 -79.833 123.999 -106.5s101.5 -40 159.5 -40c30.667 0 61.167 4.83301 91.5 14.5s59.5 24 87.5 43s54.333 42.833 79 71.5s46.334 62 65.001 100h-265c-12.667 1.33301 -24.167 3.5 -34.5 6.5s-18.166 5.5 -23.499 7.5l4 -2c-48 30 -82.667 68.333 -104 115
s-32 96.334 -32 149.001c0 51.333 8.83301 102.833 26.5 154.5s42 98.167 73 139.5s67.667 75 110 101s88.166 39 137.499 39c60.667 0 111.667 -14.5 153 -43.5s75 -66.833 101 -113.5s45 -99.5 57 -158.5s18.667 -118.833 20 -179.5h171v-215h-193
c-16.667 -62 -40.834 -120 -72.501 -174s-70.334 -100.833 -116.001 -140.5s-97.667 -71 -156 -94s-122.833 -34.5 -193.5 -34.5zM916.005 1290l77.5 -78.5l75.5 -75.5l-153 -153l-141 141l-141 -141l-154 153l154 154l141 -141zM763.005 688.002
c-22 0 -42.168 -5.66895 -60.501 -17.002s-33.833 -26 -46.5 -44s-22.5 -38 -29.5 -60s-10.5 -44 -10.5 -66c0 -30 7 -57.667 21 -83s37 -43.666 69 -54.999h237c5.33301 26.667 8 48.667 8 66c0 22 -2.5 47.833 -7.5 77.5s-14.333 57.834 -28 84.501s-32.667 49.5 -57 68.5
s-56.166 28.5 -95.499 28.5z" />
    <glyph glyph-name="qafinitial" unicode="&#x642;" horiz-adv-x="742" arabic-form="initial" 
d="M-35 148v215.003h212c-21.333 40.667 -36.833 78.167 -46.5 112.5s-14.5 65.166 -14.5 92.499c0 37.333 5.83301 73.5 17.5 108.5s28.667 66 51 93s49.833 48.5 82.5 64.5s70 24 112 24c64 0 116 -13.333 156 -40s71.167 -61.834 93.5 -105.501s37.5 -93.167 45.5 -148.5
s12 -111 12 -167c0 -44 -1.5 -87.333 -4.5 -130s-6.16699 -82.334 -9.5 -119.001h-707zM520 1329l41 -41l37 -37l36.5 -36.5l38.5 -39.5l-153 -152l-141 140l-141 -140l-154 152l154 154l39.5 -39l33 -32.5l32 -32l36.5 -37.5zM519 369.003
c9.33301 8 16.667 20.8311 22 38.498s8 37.5 8 59.5s-2.83301 45.333 -8.5 70s-14.5 47.334 -26.5 68.001s-27.333 37.834 -46 51.501s-41.334 20.5 -68.001 20.5c-17.333 0 -34 -2.83301 -50 -8.5s-30.167 -13.5 -42.5 -23.5s-22.166 -21.833 -29.499 -35.5
s-11 -28.5 -11 -44.5c0 -22.667 6 -46.167 18 -70.5s27.833 -46.5 47.5 -66.5s41.667 -36.5 66 -49.5s48.833 -19.5 73.5 -19.5z" />
    <glyph glyph-name="qafmedial" unicode="&#x642;" horiz-adv-x="788" arabic-form="medial" 
d="M826 148l-867.002 -0.000976562v215h212c-20.667 40 -36.167 77.333 -46.5 112s-15.5 65.667 -15.5 93c0 37.333 5.83301 73.5 17.5 108.5s28.834 66 51.501 93s50.334 48.5 83.001 64.5s70 24 112 24c40 0 75.333 -6.16699 106 -18.5s57.5 -29.666 80.5 -51.999
s42.333 -49 58 -80s28.5 -64.833 38.5 -101.5s17.333 -75.667 22 -117s7.66699 -83.333 9 -126h139v-215zM519.998 1329l41 -41l37 -37l36.5 -36.5l38.5 -39.5l-153 -152l-141 140l-141 -140l-154 152l154 154l39.5 -39l33 -32.5l32 -32l36.5 -37.5zM513.998 368.999
c9.33301 8 16.5029 20.8311 21.5029 38.498s7.5 37.5 7.5 59.5s-2.83301 45.333 -8.5 70s-14.5 47.334 -26.5 68.001s-27.333 37.834 -46 51.501s-41.334 20.5 -68.001 20.5c-17.333 0 -34 -2.83301 -50 -8.5s-30 -13.5 -42 -23.5s-21.667 -22 -29 -36s-11 -29 -11 -45
c0 -22 6 -45.167 18 -69.5s27.667 -46.5 47 -66.5s41.166 -36.5 65.499 -49.5s49.166 -19.5 74.499 -19.5z" />
    <glyph glyph-name="kafisolated" unicode="&#x643;" horiz-adv-x="1362" arabic-form="isolated" 
d="M30 230c0 21.333 3 49.998 9 85.998s14.333 72.833 25 110.5s22.834 73.334 36.501 107.001s28.167 58.834 43.5 75.501v-1l33 17l18 9c4 2 6.5 3.16699 7.5 3.5l1.5 0.5c-13.333 -45.333 -20 -86.333 -20 -123c0 -37.333 7.16699 -69 21.5 -95s37.5 -45 69.5 -57h850
c-3.33301 146.667 -7.33301 297.167 -12 451.5s-8.66699 305.5 -12 453.5l104.5 42l102.5 42l-18 -962v-242h-1218c-8.66699 5.33301 -17.834 15 -27.501 29s-14.5 31.667 -14.5 53zM508 722.998c0.666992 4 1.83301 7.16406 3.5 9.49707s5.5 5.33301 11.5 9
s15.333 8.33398 28 14.001l54 24.5c-29.333 4 -50.833 14.333 -64.5 31s-20.5 33.667 -20.5 51c0 20 3.33301 42.833 10 68.5s16 50.834 28 75.501s26.167 47.5 42.5 68.5s34.5 37.167 54.5 48.5s41.333 16.166 64 14.499s46 -12.834 70 -33.501l-16.5 -45.5
c-5.66699 -16.333 -11.167 -30.5 -16.5 -42.5c-10.667 4 -23 6.66699 -37 8s-27.667 0.333008 -41 -3s-25.666 -9.83301 -36.999 -19.5s-19.333 -22.834 -24 -39.501c-4 -15.333 -2.16699 -27.666 5.5 -36.999s18.834 -16.666 33.501 -21.999s31.667 -9 51 -11
s38.333 -3.16699 57 -3.5s35.667 -0.166016 51 0.500977s26.666 1.33398 33.999 2.00098c-4 -14 -7.83301 -26.167 -11.5 -36.5l-10.5 -30l-10 -29.5l-11 -34c-23.333 -5.33301 -49 -12 -77 -20s-56.333 -17 -85 -27s-56.334 -21.167 -83.001 -33.5s-50 -25.5 -70 -39.5z
" />
    <glyph glyph-name="arabickaffinal" unicode="&#x643;" horiz-adv-x="1421" arabic-form="final" 
d="M37 230c0 14 1.33301 31.6689 4 53.002s6.5 44.166 11.5 68.499s11 49.333 18 75s14.833 50.167 23.5 73.5s17.834 44.5 27.501 63.5s19.5 34.167 29.5 45.5c6 6.66699 14 12 24 16s21 8 33 12c-4.66699 -18.667 -8.66699 -39.334 -12 -62.001s-5 -42.667 -5 -60
c0 -37.333 7 -69 21 -95s37 -45 69 -57h850c-3.33301 146.667 -7.33301 297.167 -12 451.5s-8.66699 305.5 -12 453.5l104 42.5l101 41.5l-17 -989h168v-215h-1384c-8.66699 5.33301 -17.834 15 -27.501 29s-14.5 31.667 -14.5 53zM508 723.002
c0.666992 4 1.83301 7.16406 3.5 9.49707s5.5 5.33301 11.5 9s15.333 8.33398 28 14.001l54 24.5c-29.333 4 -50.833 14.333 -64.5 31s-20.5 33.667 -20.5 51c0 20 3.33301 42.833 10 68.5s16 50.834 28 75.501s26.167 47.5 42.5 68.5s34.5 37.167 54.5 48.5
s41.333 16.166 64 14.499s46 -12.834 70 -33.501l-16.5 -45.5c-5.66699 -16.333 -11.167 -30.5 -16.5 -42.5c-10.667 4 -23 6.66699 -37 8s-27.667 0.333008 -41 -3s-25.666 -9.83301 -36.999 -19.5s-19.333 -22.834 -24 -39.501c-4 -15.333 -2.16699 -27.666 5.5 -36.999
s18.834 -16.666 33.501 -21.999s31.667 -9 51 -11s38.333 -3.16699 57 -3.5s35.667 -0.166016 51 0.500977s26.666 1.33398 33.999 2.00098c-4 -14 -7.83301 -26.167 -11.5 -36.5l-10.5 -30l-10 -29.5l-11 -34c-23.333 -5.33301 -49 -12 -77 -20s-56.333 -17 -85 -27
s-56.334 -21.167 -83.001 -33.5s-50 -25.5 -70 -39.5z" />
    <glyph glyph-name="kafinitial" unicode="&#x643;" horiz-adv-x="955" arabic-form="initial" 
d="M813 148l-840.001 -0.000976562v215h646c-62.667 68.667 -138.667 141.5 -228 218.5s-196 157.5 -320 241.5l19.5 61.5l18.5 57l18 57.5l20 62l370.5 156l369.5 156l-29.5 -61l-23.5 -47.5l-23 -47.5l-29 -60l-538 -228c76.667 -50.667 145 -100 205 -148
s113.667 -94.833 161 -140.5s89.833 -90.167 127.5 -133.5s72.834 -85.666 105.501 -126.999z" />
    <glyph glyph-name="kafmedial" unicode="&#x643;" horiz-adv-x="971" arabic-form="medial" 
d="M-35 148v215h647c-63.333 69.333 -139.5 142.166 -228.5 218.499s-195.5 156.833 -319.5 241.5l19 61.5l18 57l18 57.5l20 62l371 156l370 156l-30 -61l-23.5 -47.5l-23.5 -47.5l-29 -60l-536 -228c76.667 -51.333 145.167 -101.5 205.5 -150.5s114.833 -97 163.5 -144
s92.5 -93.167 131.5 -138.5s75.167 -89.666 108.5 -132.999h160v-215h-1042z" />
    <glyph glyph-name="lamisolated" unicode="&#x644;" horiz-adv-x="1071" arabic-form="isolated" 
d="M779 1268l103.998 42.502l101 41.5l-16 -962c0.666992 -114 -13.166 -213.167 -41.499 -297.5s-65.833 -154.5 -112.5 -210.5s-99.334 -97.833 -158.001 -125.5s-118 -41.5 -178 -41.5c-53.333 0 -105 10.833 -155 32.5s-94.333 54.167 -133 97.5s-69.5 97 -92.5 161
s-34.5 138.667 -34.5 224c0 14 1.33301 31.333 4 52s6.5 43 11.5 67s11 48.667 18 74s14.833 49.666 23.5 72.999s17.834 44.833 27.501 64.5s19.5 35.5 29.5 47.5c8 7.33301 18.167 13.666 30.5 18.999s24.5 10 36.5 14c-5.33301 -36.667 -11 -72.667 -17 -108
s-10.833 -70.5 -14.5 -105.5s-5.33398 -70.167 -5.00098 -105.5s4.5 -71.333 12.5 -108c10.667 -47.333 25.334 -88 44.001 -122s39.834 -62 63.501 -84s49.5 -38.333 77.5 -49s57.333 -16 88 -16c52 0 105.167 15.833 159.5 47.5s103.5 77.5 147.5 137.5z" />
    <glyph glyph-name="lamfinal" unicode="&#x644;" horiz-adv-x="1148" arabic-form="final" 
d="M775 1268l104.498 43.001l100.5 41l-17 -989h228v-215h-253c-20 -72.667 -46.5 -136 -79.5 -190s-70.333 -99 -112 -135s-86 -63 -133 -81s-93.833 -27 -140.5 -27c-53.333 0 -105 10.833 -155 32.5s-94.333 54.167 -133 97.5s-69.5 97 -92.5 161
s-34.5 138.667 -34.5 224c0 14 1.33301 31.667 4 53s6.5 44.166 11.5 68.499s11 49.333 18 75s14.833 50.167 23.5 73.5s17.834 44.5 27.501 63.5s19.5 34.167 29.5 45.5v-1c15.333 8 27.333 14 36 18l20 9l9.5 4c1.66699 0.666992 3.16699 1.33398 4.5 2.00098l-26 -152.5
c-8.66699 -51.667 -13 -101.167 -13 -148.5c0 -50.667 7.16699 -99.834 21.5 -147.501s34.333 -90 60 -127s55.834 -66.667 90.501 -89s72.667 -33.5 114 -33.5c52.667 0 106 15.833 160 47.5s103.667 77.5 149 137.5z" />
    <glyph glyph-name="laminitial" unicode="&#x644;" horiz-adv-x="543" arabic-form="initial" 
d="M-28 363h290l-12 451.5c-4 154.333 -7.66699 305.5 -11 453.5l103.5 43l100.5 41l-15 -962v-242h-456v215z" />
    <glyph glyph-name="lammedial" unicode="&#x644;" horiz-adv-x="552" arabic-form="medial" 
d="M-23 363h228.999c-3.33301 146.667 -7.16602 297.167 -11.499 451.5l-12.5 453.5l105.5 42l101.5 42l-18 -989h212v-215h-606v215z" />
    <glyph glyph-name="meemisolated" unicode="&#x645;" horiz-adv-x="1034" arabic-form="isolated" 
d="M318 458c8.66699 40.667 24.1689 82.6689 46.502 126.002s49.5 82.166 81.5 116.499s67.5 62 106.5 83s79.5 29.833 121.5 26.5c60.667 -4 110.834 -18.5 150.501 -43.5s71.167 -56.5 94.5 -94.5s39.666 -81 48.999 -129s14 -97.333 14 -148
c0 -47.333 -2.83301 -93.5 -8.5 -138.5s-12.5 -87.5 -20.5 -127.5l-29.5 -36.5l-30.5 -36.5l-654 186l16.5 -169l17 -177l17 -177.5l16.5 -170.5l-52.5 -26.5l-48 -24.5l-47.5 -24l-51 -26l-14 240.5l-14 232l-14 232.5l-14 240c13.333 33.333 29.166 60.166 47.499 80.499
s42.166 30.5 71.499 30.5zM813.002 300.002c2 15.333 3.99902 32.833 5.99902 52.5s3 37.167 3 52.5c0 22.667 -2 46.167 -6 70.5s-11.667 46.666 -23 66.999s-27.5 37.166 -48.5 50.499s-48.5 20 -82.5 20c-19.333 0 -39.333 -6.83301 -60 -20.5s-39.5 -31.167 -56.5 -52.5
s-31.167 -45.166 -42.5 -71.499s-17.666 -52.166 -18.999 -77.499z" />
    <glyph glyph-name="meemfinal" unicode="&#x645;" horiz-adv-x="1117" arabic-form="final" 
d="M1156 148l-205.998 0.00195312l-34.5 -45.5l-35.5 -47.5l-656 187c4.66699 -54 9.83398 -110.333 15.501 -169l17 -177l17.5 -177.5l17 -170.5l-100.5 -51l-97.5 -50l-14 240.5l-14 232l-14 232.5l-14 240c13.333 33.333 29 60.166 47 80.499s42 30.5 72 30.5
c27.333 0 74.666 -15 141.999 -45c12.667 44 31.5 87.667 56.5 131s53.667 81.833 86 115.5s67.166 60.334 104.499 80.001s75.333 28.167 114 25.5c61.333 -4.66699 111.833 -20.334 151.5 -47.001s71.167 -60.5 94.5 -101.5s39.666 -87.333 48.999 -139
s14 -104.834 14 -159.501h188v-215zM801.002 300.002c0 4 0.332031 10.3311 0.999023 18.998s1.33398 18 2.00098 28s1.16699 19.833 1.5 29.5s0.5 17.834 0.5 24.501c0 22.667 -1.83301 46.5 -5.5 71.5s-11.167 47.667 -22.5 68s-27.5 37.333 -48.5 51
s-48.5 20.834 -82.5 21.501c-20 0 -40.167 -6.83301 -60.5 -20.5s-39 -31.167 -56 -52.5s-31.167 -45 -42.5 -71s-18 -51.667 -20 -77z" />
    <glyph glyph-name="meeminitial" unicode="&#x645;" horiz-adv-x="900" arabic-form="initial" 
d="M224 148l-254.998 0.00390625v215h176l42 151c8.66699 44 24.167 87 46.5 129s49.166 79.167 80.499 111.5s66.166 57.666 104.499 75.999s78.5 26.166 120.5 23.499c59.333 -4.66699 108.5 -18.334 147.5 -41.001s69.833 -51.334 92.5 -86.001s38.5 -74 47.5 -118
s13.5 -89.667 13.5 -137c0 -46 -3 -92.333 -9 -139s-13.667 -91 -23 -133l-28.5 -36.5l-28.5 -36.5l-470 132zM672.002 370.004c0 3.33301 0.333984 8.66699 1.00098 16s1.33398 15.333 2.00098 24s1.16699 17 1.5 25s0.5 14.333 0.5 19c0 22 -2 45.167 -6 69.5
s-12 46.833 -24 67.5s-29 38 -51 52s-51 21.333 -87 22c-20.667 0 -40.834 -5.66699 -60.501 -17s-37.334 -26.5 -53.001 -45.5s-28.667 -40.833 -39 -65.5s-16.5 -50 -18.5 -76z" />
    <glyph glyph-name="meemmedial" unicode="&#x645;" horiz-adv-x="992" arabic-form="medial" 
d="M223 148l-256.998 0.00195312v215h178l40 151c9.33301 44 25.166 87 47.499 129s49.333 79.167 81 111.5s66.667 57.666 105 75.999s78.5 26.166 120.5 23.499c60 -4.66699 109.333 -18.5 148 -41.5s69.5 -52 92.5 -87s39 -74.833 48 -119.5s13.5 -90.667 13.5 -138
c0 -6.66699 -0.166992 -14.667 -0.5 -24s-0.833008 -19 -1.5 -29l-2 -29c-0.666992 -9.33301 -1.33398 -17 -2.00098 -23h186v-215h-283l-457 128zM671.002 388.002c0 3.33301 0.333984 8.5 1.00098 15.5s1.16699 14.667 1.5 23l1 24c0.333008 7.66699 0.5 13.5 0.5 17.5
c0 20.667 -2 42.5 -6 65.5s-11.833 44 -23.5 63s-28.5 35 -50.5 48s-51 19.833 -87 20.5c-20 0 -39.833 -4.66699 -59.5 -14s-37.334 -22.333 -53.001 -39s-28.667 -36.167 -39 -58.5s-16.5 -46.833 -18.5 -73.5z" />
    <glyph glyph-name="noonisolated" unicode="&#x646;" horiz-adv-x="1208" arabic-form="isolated" 
d="M581 -295c-70 0 -136.668 13.6621 -200.001 40.9951s-118.833 64.833 -166.5 112.5s-85.667 103.5 -114 167.5s-42.5 132 -42.5 204c0 21.333 3 50 9 86s14.167 72.833 24.5 110.5s22.333 73.334 36 107.001s28.167 58.834 43.5 75.501v-1l34.5 17.5
c8.33301 4.33301 14.833 7.5 19.5 9.5s7.66699 3.33301 9 4s2.33301 1 3 1c-10 -40 -18 -76.833 -24 -110.5s-9.5 -66.667 -10.5 -99s0.5 -65.166 4.5 -98.499s11.333 -70 22 -110c13.333 -50.667 32.666 -95 57.999 -133s54.333 -69.5 87 -94.5
s67.834 -43.833 105.501 -56.5s75.834 -19 114.501 -19c45.333 0 89.666 8.66699 132.999 26s81.833 43.333 115.5 78s60.667 77.834 81 129.501s30.5 111.834 30.5 180.501c0 30 -1.16699 59 -3.5 87s-6.66602 56.833 -12.999 86.5s-14.666 61.334 -24.999 95.001
s-23.5 71.5 -39.5 113.5l88.5 61.5l86.5 59.5c38 -68 66.167 -139.5 84.5 -214.5s27.5 -150.833 27.5 -227.5c0 -58.667 -5.5 -116.334 -16.5 -173.001s-27.333 -110.5 -49 -161.5s-48.667 -98 -81 -141s-69.833 -80.333 -112.5 -112s-90.834 -56.5 -144.501 -74.5
s-112.167 -27 -175.5 -27zM580.999 1196l152 -153l-40.5 -41l-36.5 -37l-36 -36.5l-39 -39.5l-155 154z" />
    <glyph glyph-name="noonfinal" unicode="&#x646;" horiz-adv-x="1331" arabic-form="final" 
d="M1370 363l-0.00390625 -215.005h-261c-19.333 -62 -45.166 -120 -77.499 -174s-71.333 -100.833 -117 -140.5s-97.667 -71 -156 -94s-122.833 -34.5 -193.5 -34.5c-70 0 -136.667 13.667 -200 41s-119 64.833 -167 112.5s-86.167 103.5 -114.5 167.5s-42.5 132 -42.5 204
c0 21.333 3 50 9 86s14.333 72.833 25 110.5s23 73.334 37 107.001s28.667 58.834 44 75.501v-1l34.5 17.5c8.33301 4.33301 14.666 7.5 18.999 9.5s7.33301 3.33301 9 4s2.83398 1 3.50098 1c-6.66699 -41.333 -13 -78.666 -19 -111.999s-10.167 -66 -12.5 -98
s-2 -64.5 1 -97.5s9.83301 -69.833 20.5 -110.5c14 -50.667 33.833 -95 59.5 -133s54.834 -69.5 87.501 -94.5s67.834 -43.833 105.501 -56.5s75.834 -19 114.501 -19c45.333 0 89.5 8.66699 132.5 26s81.333 43.333 115 78s60.667 77.834 81 129.501
s30.5 111.834 30.5 180.501c0 29.333 -1.33301 58 -4 86s-7 57 -13 87s-14.167 62 -24.5 96s-23.5 71.667 -39.5 113l89.5 61.5l87.5 59.5c36.667 -68 64 -142.167 82 -222.5s27 -163.833 27 -250.5h227zM562.996 1196l152 -153l-39.5 -41l-36.5 -37l-36.5 -36.5
l-39.5 -39.5l-154 154z" />
    <glyph glyph-name="nooninitial" unicode="&#x646;" horiz-adv-x="646" arabic-form="initial" 
d="M-29 363l406 0.00195312c4 19.333 7.5 38.166 10.5 56.499s4.5 35.166 4.5 50.499c0 36 -4.66699 75.5 -14 118.5s-24.666 85.5 -45.999 127.5l87 60.5l84 57.5c28 -63.333 47.167 -129 57.5 -197s15.5 -137.333 15.5 -208c0 -48 -2.33301 -95.5 -7 -142.5
s-10.334 -93.167 -17.001 -138.5h-581v215zM301 1324l153 -153l-40.5 -41l-36.5 -37l-36.5 -36.5l-39.5 -39.5l-154 154z" />
    <glyph glyph-name="noonmedial" unicode="&#x646;" horiz-adv-x="588" arabic-form="medial" 
d="M-23 363l259.998 0.00195312c4.66699 19.333 8.33398 38.166 11.001 56.499s4 35.166 4 50.499c0 36 -4.66699 75.5 -14 118.5s-24.666 85.5 -45.999 127.5l86.5 60.5l83.5 57.5c28 -65.333 47.167 -132.833 57.5 -202.5s15.5 -140.167 15.5 -211.5v-57h182v-215h-640
v215zM216.998 1344l152 -153l-41 -41l-37 -37l-36 -36l-38 -39l-153 153z" />
    <glyph glyph-name="hehisolated" unicode="&#x647;" horiz-adv-x="804" arabic-form="isolated" 
d="M400 858c51.333 1.33301 98.501 -10.4961 141.501 -35.4961s80 -57.833 111 -98.5s55 -86.334 72 -137.001s25.5 -101 25.5 -151c0 -36 -5.33301 -70.5 -16 -103.5s-27 -62.667 -49 -89s-49.667 -48 -83 -65s-73 -27.167 -119 -30.5h-239
c-11.333 1.33301 -21.833 3 -31.5 5s-17.5 4.33301 -23.5 7c-46.667 30 -81 68.167 -103 114.5s-33 95.166 -33 146.499s8.83301 102.666 26.5 153.999s42 97.833 73 139.5s67.667 75.667 110 102s88.166 40.166 137.499 41.499zM364.001 688.004
c-22 0 -42.167 -5.66406 -60.5 -16.9971s-33.833 -26 -46.5 -44s-22.5 -38 -29.5 -60s-10.5 -44 -10.5 -66c0 -29.333 6.83301 -56.833 20.5 -82.5s36.167 -44.167 67.5 -55.5h239c5.33301 25.333 8 47 8 65c0 14.667 -1 31.167 -3 49.5s-5.5 37.166 -10.5 56.499
s-12 38.166 -21 56.499s-20.5 34.666 -34.5 48.999s-30.833 26 -50.5 35s-42.5 13.5 -68.5 13.5z" />
    <glyph glyph-name="hehfinal" unicode="&#x647;" horiz-adv-x="907" arabic-form="final" 
d="M440 869c0 4.66699 4.49902 10.502 13.499 17.502s20 14.5 33 22.5s27.333 15.833 43 23.5l43 20.5c13 6 24 10.833 33 14.5s13.5 5.16699 13.5 4.5c2 -22.667 4.66699 -50 8 -82l10 -99l9.5 -99.5l7.5 -83.5c4 -34.667 10.333 -64.834 19 -90.501
s19.334 -47.5 32.001 -65.5s27 -33 43 -45s33 -21.667 51 -29c26 -11.333 60.667 -17 104 -17h17v-213h-76c-41.333 -1.33301 -78.333 1.66699 -111 9s-61.667 20.333 -87 39s-47.666 43.167 -66.999 73.5s-36.333 67.5 -51 111.5
c-14.667 -54 -32.334 -96.833 -53.001 -128.5s-43.5 -54.167 -68.5 -67.5s-51.833 -19 -80.5 -17s-58.167 9.33301 -88.5 22s-61.333 29.5 -93 50.5s-63.167 43.833 -94.5 68.5l8.5 63.5l9 68l9 68l8.5 63.5c2.66699 9.33301 14.5 22.166 35.5 38.499s47.667 33.5 80 51.5
s69.333 36 111 54s85.167 33.667 130.5 47v24c0 9.33301 -0.166992 19 -0.5 29l-1 29c-0.333008 9.33301 -0.5 17.333 -0.5 24zM180.999 495.002l43.499 -24.5l52.5 -29.5l52.5 -29l44.5 -24c15.333 -8 29.833 -9.33301 43.5 -4s25.834 14.833 36.501 28.5
s19.667 30.5 27 50.5s12.5 40.667 15.5 62s3.66699 42.333 2 63s-6.5 38.667 -14.5 54z" />
    <glyph glyph-name="hehinitial" unicode="&#x647;" horiz-adv-x="1076" arabic-form="initial" 
d="M104 468c0 32.667 6.16699 66.333 18.5 101s28.333 67.834 48 99.501s42 60.334 67 86.001s50.167 46.167 75.5 61.5c1.33301 14.667 4.83301 32.167 10.5 52.5s13.334 39.666 23.001 57.999s21 34.166 34 47.499s27.167 21 42.5 23c7.33301 1.33301 13.666 2 18.999 2
h19c49.333 0 97.333 -9.33301 144 -28s90.834 -43.667 132.501 -75s80 -67.5 115 -108.5s65.667 -84.167 92 -129.5s47.666 -91 63.999 -137s26.5 -89.333 30.5 -130l-18 -121.5l-18 -121.5h-1031v215h118zM462 362.999c21.333 23.333 37.832 50.666 49.499 81.999
s17.5 61.333 17.5 90c0 20 -2.66699 39.167 -8 57.5s-13.666 34.5 -24.999 48.5s-25.833 25.167 -43.5 33.5s-38.834 12.5 -63.501 12.5c-27.333 0 -50.666 -4 -69.999 -12s-35 -18.667 -47 -32s-20.667 -28.666 -26 -45.999s-8 -35.666 -8 -54.999
c0 -29.333 6.83301 -60.333 20.5 -93s30.5 -61.334 50.5 -86.001h153zM865.999 391.999c-1.33301 16.667 -6 37.833 -14 63.5s-22 53.167 -42 82.5s-47.5 59.666 -82.5 90.999s-80.167 61.666 -135.5 90.999c22 -51.333 38.667 -93.666 50 -126.999s17 -58.666 17 -75.999
c0 -22 -3 -46 -9 -72s-14.333 -53.333 -25 -82h214z" />
    <glyph glyph-name="hehmedial" unicode="&#x647;" horiz-adv-x="1114" arabic-form="medial" 
d="M90 469c0 32 6.16504 65.3359 18.498 100.003s28.5 67.667 48.5 99s42.333 60 67 86s49.667 46.667 75 62c0.666992 14.667 3.83398 32.167 9.50098 52.5s13.334 39.666 23.001 57.999s21 34.166 34 47.499s27.5 21 43.5 23c7.33301 1.33301 13.666 2 18.999 2h19
c49.333 0 97.333 -9.83301 144 -29.5s90.834 -45.834 132.501 -78.501s80.167 -70.667 115.5 -114s66.333 -88.5 93 -135.5s48.167 -94.5 64.5 -142.5s26.5 -93.333 30.5 -136h123v-215h-1193v215h120zM446.998 363.003c21.333 23.333 37.999 50.665 49.999 81.998
s18 61.333 18 90c0 20 -2.66699 39.167 -8 57.5s-13.666 34.5 -24.999 48.5s-26 25.167 -44 33.5s-39.333 12.5 -64 12.5c-27.333 0 -50.5 -4 -69.5 -12s-34.5 -18.667 -46.5 -32s-20.667 -28.666 -26 -45.999s-8 -35.666 -8 -54.999c0 -30 6.66699 -61.167 20 -93.5
s30 -60.833 50 -85.5h153zM850.997 391.002c-0.666992 16.667 -4.99902 37.8301 -12.999 63.4971s-22.167 53.334 -42.5 83.001s-48 60.334 -83 92.001s-79.833 61.834 -134.5 90.501c22 -52 38.5 -94.5 49.5 -127.5s16.5 -58.167 16.5 -75.5
c0 -22.667 -2.83301 -46.5 -8.5 -71.5s-14.834 -52.5 -27.501 -82.5h216z" />
    <glyph glyph-name="wawisolated" unicode="&#x648;" horiz-adv-x="797" arabic-form="isolated" 
d="M394 858c62.667 0 116.002 -13.8359 160.002 -41.5029s80 -64.5 108 -110.5s48.5 -98.667 61.5 -158s19.5 -120.666 19.5 -183.999c0 -47.333 -3.33301 -94.333 -10 -141s-16.334 -91.5 -29.001 -134.5s-27.834 -83.167 -45.501 -120.5s-37.5 -70 -59.5 -98
c-52 -65.333 -102.333 -112.5 -151 -141.5s-96.667 -43.5 -144 -43.5c-42 0 -84.167 9.5 -126.5 28.5s-86.5 45.5 -132.5 79.5c0.666992 0.666992 1.16699 5 1.5 13s0.833008 12.333 1.5 13c60.667 -0.666992 116.667 6.33301 168 21s97.666 36.334 138.999 65.001
s77.333 63.5 108 104.5s56 87.167 76 138.5h-302c-12.667 1.33301 -24.167 3.5 -34.5 6.5s-18.166 5.5 -23.499 7.5l5 -2c-48 30 -82.667 68.333 -104 115s-32 96.334 -32 149.001c0 51.333 8.83301 102.833 26.5 154.5s42 98.167 73 139.5s67.5 75 109.5 101
s87.667 39 137 39zM358.002 687.997c-22 0 -41.998 -5.66797 -59.998 -17.001s-33.5 -26 -46.5 -44s-23 -38 -30 -60s-10.5 -44 -10.5 -66c0 -29.333 7 -56.833 21 -82.5s36.667 -44.167 68 -55.5h239c2.66699 12.667 4.5 24.5 5.5 35.5s1.5 21.167 1.5 30.5
c0 22 -2.33301 47.833 -7 77.5s-13.834 57.834 -27.501 84.501s-32.834 49.5 -57.501 68.5s-56.667 28.5 -96 28.5z" />
    <glyph glyph-name="wawfinal" unicode="&#x648;" horiz-adv-x="869" arabic-form="final" 
d="M400 858c60 0 111.665 -13.665 154.998 -40.998s79.166 -63.833 107.499 -109.5s49.5 -98.334 63.5 -158.001s21.667 -121.834 23 -186.501h143v-215h-166c-13.333 -58 -30.166 -110.833 -50.499 -158.5s-44.166 -87.5 -71.499 -119.5
c-52 -65.333 -102.167 -112.5 -150.5 -141.5s-96.5 -43.5 -144.5 -43.5c-42 0 -84.167 9.5 -126.5 28.5s-85.833 45.167 -130.5 78.5v36c58.667 -0.666992 113.667 6.16602 165 20.499s98 35.333 140 63s78.833 61.5 110.5 101.5s56.834 85 75.501 135h-299
c-12.667 1.33301 -24.167 3.5 -34.5 6.5s-18.5 5.5 -24.5 7.5l5 -2c-48 30 -82.5 68.333 -103.5 115s-31.5 96.334 -31.5 149.001c0 51.333 8.66699 102.833 26 154.5s41.5 98.167 72.5 139.5s67.5 75 109.5 101s87.667 39 137 39zM364.998 688.002
c-22 0 -42.167 -5.66895 -60.5 -17.002s-34 -26 -47 -44s-23 -38 -30 -60s-10.5 -44 -10.5 -66c0 -30 7 -57.667 21 -83s36.667 -43.666 68 -54.999h238c3.33301 12.667 5.5 24.5 6.5 35.5s1.5 21.167 1.5 30.5c0 22 -2.33301 47.833 -7 77.5s-13.834 57.834 -27.501 84.501
s-32.667 49.5 -57 68.5s-56.166 28.5 -95.499 28.5z" />
    <glyph glyph-name="alefmaksuraisolated" unicode="&#x649;" horiz-adv-x="1190" arabic-form="isolated" 
d="M59 232c-0.666992 14 0.333984 31.665 3.00098 52.998s6.5 44 11.5 68s11.167 48.667 18.5 74s15.333 49.666 24 72.999s18 44.5 28 63.5s20 34.167 30 45.5v-1c7.33301 7.33301 16 13 26 17l31 12l7 2c-9.33301 -42 -17.333 -85.667 -24 -131s-10 -90 -10 -134
c0 -48 4.5 -94.833 13.5 -140.5s24.333 -87.834 46 -126.501s50.667 -72.834 87 -102.501s81.833 -52.834 136.5 -69.501c14.667 -4 29.5 -6.66699 44.5 -8s30.5 -2 46.5 -2c40 0 80.5 6.33301 121.5 19s79.5 30.667 115.5 54s67.333 51.166 94 83.499
s45.334 68.5 56.001 108.5c-4 0.666992 -9.83301 1.83398 -17.5 3.50098s-15.834 3.33398 -24.501 5.00098l-25.5 5c-8.33301 1.66699 -15.5 3.16699 -21.5 4.5c-26 4.66699 -54 10.334 -84 17.001s-57.833 15.5 -83.5 26.5s-47 24.667 -64 41s-25.5 36.5 -25.5 60.5
c0 32 5.5 67.833 16.5 107.5s26 79.834 45 120.501s41.5 80.334 67.5 119.001s54 73.167 84 103.5s61.667 54.666 95 72.999s66.666 27.5 99.999 27.5c18.667 0 34.167 -2.16699 46.5 -6.5s22 -10.333 29 -18s12 -16.5 15 -26.5s4.5 -21 4.5 -33
c0 -18.667 -1.83301 -38 -5.5 -58s-7.5 -39.667 -11.5 -59c-1.33301 -4 -2.33301 -7.66699 -3 -11s-1.33398 -7.33301 -2.00098 -12c-22.667 9.33301 -44.5 14.666 -65.5 15.999s-38.167 1.66602 -51.5 0.999023h-11c-12 0 -25.167 -4.5 -39.5 -13.5
s-28.666 -20.5 -42.999 -34.5s-28.166 -29.167 -41.499 -45.5s-25.166 -32.166 -35.499 -47.499s-18.666 -28.666 -24.999 -39.999s-9.5 -18.666 -9.5 -21.999c0 -12 6.5 -23 19.5 -33s29.333 -19 49 -27s41.5 -15.167 65.5 -21.5l69 -17.5l55.5 -13.5
c17 -4.33301 28.5 -8.16602 34.5 -11.499c10.667 -5.33301 19.5 -13.666 26.5 -24.999s12.167 -24 15.5 -38s5.66602 -29 6.99902 -45s2 -31.333 2 -46v-26c-2.66699 -50.667 -12 -97.667 -28 -141s-36.667 -83 -62 -119s-55 -68 -89 -96s-70.5 -51.5 -109.5 -70.5
s-79.833 -33.5 -122.5 -43.5s-85.334 -15 -128.001 -15c-63.333 0 -125.333 10.5 -186 31.5s-115.334 53 -164.001 96s-88.667 97.667 -120 164s-49.333 144.833 -54 235.5z" />
    <glyph glyph-name="alefmaksurafinal" unicode="&#x649;" horiz-adv-x="1258" arabic-form="final" 
d="M1303 363l0.00195312 -214.996h-181c0.666992 -59.333 -5.83301 -113.833 -19.5 -163.5s-32.834 -94.667 -57.501 -135s-53.834 -75.833 -87.501 -106.5s-70.334 -56.334 -110.001 -77.001s-81.334 -36.334 -125.001 -47.001s-87.834 -16 -132.501 -16
c-63.333 0 -125.333 11 -186 33s-115.5 54.833 -164.5 98.5s-89.667 98.167 -122 163.5s-51.5 141.333 -57.5 228c0 23.333 3.16699 53 9.5 89s14.833 72.667 25.5 110s22.834 72.333 36.501 105s27.834 57 42.501 73c6.66699 7.33301 15.834 13.333 27.501 18
s23.834 9 36.501 13c-9.33301 -42 -17.166 -85.333 -23.499 -130s-9.5 -89.334 -9.5 -134.001c0 -48 4.5 -94.833 13.5 -140.5s24.333 -88 46 -127s50.667 -73.333 87 -103s82.166 -52.834 137.499 -69.501c45.333 -11.333 93.166 -13.5 143.499 -6.5
s97.833 21.333 142.5 43s83.834 50 117.501 85s56.834 74.833 69.501 119.5c-14.667 20 -32.667 35.5 -54 46.5s-44.333 18.833 -69 23.5s-49.834 7.16699 -75.501 7.5s-49.834 0.5 -72.501 0.5l57 214h555z" />
    <glyph glyph-name="yehisolated" unicode="&#x64a;" horiz-adv-x="1190" arabic-form="isolated" 
d="M59 232c-0.666992 14 0.333984 31.665 3.00098 52.998s6.5 44 11.5 68s11.167 48.667 18.5 74s15.333 49.666 24 72.999s18 44.5 28 63.5s20 34.167 30 45.5v-1c7.33301 7.33301 16 13 26 17l31 12l7 2c-9.33301 -42 -17.333 -85.667 -24 -131s-10 -90 -10 -134
c0 -48 4.5 -94.833 13.5 -140.5s24.333 -87.834 46 -126.501s50.667 -72.834 87 -102.501s81.833 -52.834 136.5 -69.501c14.667 -4 29.5 -6.66699 44.5 -8s30.5 -2 46.5 -2c40 0 80.5 6.33301 121.5 19s79.5 30.667 115.5 54s67.333 51.166 94 83.499
s45.334 68.5 56.001 108.5c-4 0.666992 -9.83301 1.83398 -17.5 3.50098s-15.834 3.33398 -24.501 5.00098l-25.5 5c-8.33301 1.66699 -15.5 3.16699 -21.5 4.5c-26 4.66699 -54 10.334 -84 17.001s-57.833 15.5 -83.5 26.5s-47 24.667 -64 41s-25.5 36.5 -25.5 60.5
c0 32 5.5 67.833 16.5 107.5s26 79.834 45 120.501s41.5 80.334 67.5 119.001s54 73.167 84 103.5s61.667 54.666 95 72.999s66.666 27.5 99.999 27.5c18.667 0 34.167 -2.16699 46.5 -6.5s22 -10.333 29 -18s12 -16.5 15 -26.5s4.5 -21 4.5 -33
c0 -18.667 -1.83301 -38 -5.5 -58s-7.5 -39.667 -11.5 -59c-1.33301 -4 -2.33301 -7.66699 -3 -11s-1.33398 -7.33301 -2.00098 -12c-22.667 9.33301 -44.5 14.666 -65.5 15.999s-38.167 1.66602 -51.5 0.999023h-11c-12 0 -25.167 -4.5 -39.5 -13.5
s-28.666 -20.5 -42.999 -34.5s-28.166 -29.167 -41.499 -45.5s-25.166 -32.166 -35.499 -47.499s-18.666 -28.666 -24.999 -39.999s-9.5 -18.666 -9.5 -21.999c0 -12 6.5 -23 19.5 -33s29.333 -19 49 -27s41.5 -15.167 65.5 -21.5l69 -17.5l55.5 -13.5
c17 -4.33301 28.5 -8.16602 34.5 -11.499c10.667 -5.33301 19.5 -13.666 26.5 -24.999s12.167 -24 15.5 -38s5.66602 -29 6.99902 -45s2 -31.333 2 -46v-26c-2.66699 -50.667 -12 -97.667 -28 -141s-36.667 -83 -62 -119s-55 -68 -89 -96s-70.5 -51.5 -109.5 -70.5
s-79.833 -33.5 -122.5 -43.5s-85.334 -15 -128.001 -15c-63.333 0 -125.333 10.5 -186 31.5s-115.334 53 -164.001 96s-88.667 97.667 -120 164s-49.333 144.833 -54 235.5zM716.001 -444.002l77.5 -78.5l75.5 -75.5l-153 -152l-141 140l-141 -140l-154 152l154 154l39 -39
l32.5 -32.5l32 -32l37.5 -37.5z" />
    <glyph glyph-name="yehfinal" unicode="&#x64a;" horiz-adv-x="1258" arabic-form="final" 
d="M1303 363l0.00195312 -214.996h-181c0.666992 -59.333 -5.83301 -113.833 -19.5 -163.5s-32.834 -94.667 -57.501 -135s-53.834 -75.833 -87.501 -106.5s-70.334 -56.334 -110.001 -77.001s-81.334 -36.334 -125.001 -47.001s-87.834 -16 -132.501 -16
c-63.333 0 -125.333 11 -186 33s-115.5 54.833 -164.5 98.5s-89.667 98.167 -122 163.5s-51.5 141.333 -57.5 228c0 23.333 3.16699 53 9.5 89s14.833 72.667 25.5 110s22.834 72.333 36.501 105s27.834 57 42.501 73c6.66699 7.33301 15.834 13.333 27.501 18
s23.834 9 36.501 13c-9.33301 -42 -17.166 -85.333 -23.499 -130s-9.5 -89.334 -9.5 -134.001c0 -48 4.5 -94.833 13.5 -140.5s24.333 -88 46 -127s50.667 -73.333 87 -103s82.166 -52.834 137.499 -69.501c45.333 -11.333 93.166 -13.5 143.499 -6.5
s97.833 21.333 142.5 43s83.834 50 117.501 85s56.834 74.833 69.501 119.5c-14.667 20 -32.667 35.5 -54 46.5s-44.333 18.833 -69 23.5s-49.834 7.16699 -75.501 7.5s-49.834 0.5 -72.501 0.5l57 214h555zM712.002 -526.996l41 -41l37 -37l36 -36.5l39 -39.5l-153 -152
l-141 140l-141 -140l-154 152l154 154l39 -39l32.5 -32.5l32 -32l37.5 -37.5z" />
    <glyph glyph-name="yehinitial" unicode="&#x64a;" horiz-adv-x="646" arabic-form="initial" 
d="M-30 363l405.998 0.00195312c4.66699 19.333 8.33398 38.166 11.001 56.499s4 35.166 4 50.499c0 36 -4.66699 75.5 -14 118.5s-24.666 85.5 -45.999 127.5l87.5 60.5l83.5 57.5c28 -63.333 47.167 -129 57.5 -197s15.5 -137.333 15.5 -208
c0 -48 -2.16699 -95.5 -6.5 -142.5s-9.83301 -93.167 -16.5 -138.5h-582v215zM462.998 -96.998l41 -41l37 -37l36 -36.5l39 -39.5l-153 -152l-141 140l-141 -140l-154 152l154 154l39 -39l32.5 -32.5l32 -32l37.5 -37.5z" />
    <glyph glyph-name="yehmedial" unicode="&#x64a;" horiz-adv-x="619" arabic-form="medial" 
d="M-23 363l258.998 0.00195312c4.66699 19.333 8.33398 38.166 11.001 56.499s4 35.166 4 50.499c0 36 -4.66699 75.5 -14 118.5s-24.666 85.5 -45.999 127.5l87 60.5l83 57.5c28 -65.333 47.167 -132.833 57.5 -202.5s15.5 -140.167 15.5 -211.5v-57h212v-215h-669v215z
M462.998 -96.998l41 -41l37 -37l36 -36.5l39 -39.5l-153 -152l-141 140l-141 -140l-154 152l154 154l39 -39l32.5 -32.5l32 -32l37.5 -37.5z" />
    <glyph glyph-name="space" unicode=" " horiz-adv-x="435" 
 />
    <glyph glyph-name="exclam" unicode="!" horiz-adv-x="481" 
d="M210 628c4 16 6.5 31.667 7.5 47s1.5 31.666 1.5 48.999c0 61.333 -8.83301 126.333 -26.5 195s-37.5 139.334 -59.5 212.001l-21.5 69c-7 22.667 -13.833 46 -20.5 70l103 42l100 42c0.666992 -15.333 1.5 -28.666 2.5 -39.999l3 -33l3 -32.5l3.5 -38.5
c4.66699 -54.667 8.83398 -107.5 12.501 -158.5s5.5 -99.5 5.5 -145.5c0 -64 -4.83301 -122.833 -14.5 -176.5s-26.834 -100.834 -51.501 -141.501zM245 442l153 -153l-41 -40l-37 -37l-36 -36.5l-39 -39.5l-41 41l-37 37l-36 36l-38 39z" />
    <glyph glyph-name="quotedbl" unicode="&#x22;" horiz-adv-x="603" 
d="M131 1365h133v-451h-133v451zM349 1365h133v-451h-133v451z" />
    <glyph glyph-name="numbersign" unicode="#" horiz-adv-x="1370" 
d="M843 896h-226l-81 -229h227zM804 1418l-141 -395h223l142 395h143l-139 -395h262l-45 -127h-263l-81 -227h280l-44 -128h-281l-141 -394h-143l140 394h-224l-141 -394h-144l138 394h-268l46 128h269l80 227h-287l45 127h289l140 395h145z" />
    <glyph glyph-name="dollar" unicode="$" horiz-adv-x="1020" 
d="M559 263c77.333 7.33301 136.833 31.168 178.5 71.501s62.5 94.166 62.5 161.499c0 60 -18.833 108.167 -56.5 144.5s-99.167 64.5 -184.5 84.5v-462zM464 913.002l0.00195312 412c-66.667 0 -119.834 -18.5 -159.501 -55.5s-59.5 -86.833 -59.5 -149.5
c0 -58 17.667 -104 53 -138s90.666 -57 165.999 -69zM464.002 -43.998l0.000976562 169c-136 10 -238.167 49.5 -306.5 118.5s-102.5 166.833 -102.5 293.5v21h162v-15c0 -82 21.5 -146.833 64.5 -194.5s103.833 -73.834 182.5 -78.501v479
c-127.333 21.333 -222.833 61.833 -286.5 121.5s-95.5 138.5 -95.5 236.5c0 105.333 34.167 190.666 102.5 255.999s161.5 101 279.5 107v129h95v-129c122 -10 215.333 -45 280 -105s97.667 -141.667 99 -245h-164c-7.33301 64.667 -28.833 113.834 -64.5 147.501
s-85.834 52.5 -150.501 56.5v-426c153.333 -33.333 260.5 -78.666 321.5 -135.999s91.5 -139.333 91.5 -246c0 -110.667 -35.5 -199.667 -106.5 -267s-173.167 -108 -306.5 -122v-171h-95z" />
    <glyph glyph-name="percent" unicode="%" horiz-adv-x="1066" 
d="M445 177l-167 -138l314 1318l183 155zM215 1308l153 -153l-41 -40l-37 -37l-36 -36.5l-39 -39.5l-41 41l-37 37l-36 36l-38 39zM841 671l153 -153l-41 -40l-37 -37l-36 -36.5l-39 -39.5l-41 41l-37 37l-36 36l-38 39z" />
    <glyph glyph-name="ampersand" unicode="&#x26;" horiz-adv-x="1294" 
d="M575 1006c65.333 40.667 113.502 82.166 144.502 124.499s46.5 87.833 46.5 136.5s-15 88 -45 118s-69.667 45 -119 45c-54.667 0 -97.334 -14.667 -128.001 -44s-46 -69.666 -46 -120.999c0 -37.333 11.667 -76.833 35 -118.5s60.666 -88.5 111.999 -140.5z
M510.002 831.999c-84.667 -48.667 -145.499 -96.5 -182.499 -143.5s-55.5 -100.167 -55.5 -159.5c0 -72 24.167 -131.5 72.5 -178.5s109.833 -70.5 184.5 -70.5c55.333 0 108.666 13.5 159.999 40.5s100 66.833 146 119.5zM418.003 944.999
c-52.667 56.667 -91.333 110.335 -116 161.002s-37 101.667 -37 153c0 90 30.667 163.833 92 221.5s140.333 86.5 237 86.5c101.333 0 181.5 -26.333 240.5 -79s88.5 -123.667 88.5 -213c0 -73.333 -20.667 -139.333 -62 -198s-106.333 -114.334 -195 -167.001l257 -314
c16 29.333 28.5 62.666 37.5 99.999s15.5 80.333 19.5 129h161c0 -68 -8.83301 -131.833 -26.5 -191.5s-43.834 -116.5 -78.501 -170.5l258 -310h-230l-135 166c-55.333 -66 -118.5 -115.667 -189.5 -149s-148.833 -50 -233.5 -50c-121.333 0 -220.166 37.333 -296.499 112
s-114.5 170 -114.5 286c0 87.333 25 164.333 75 231s132.667 132 248 196z" />
    <glyph glyph-name="quotesingle" unicode="'" horiz-adv-x="384" 
d="M131 1365h133v-451h-133v451z" />
    <glyph glyph-name="parenleft" unicode="(" horiz-adv-x="533" 
d="M467 1589c-38 -80.667 -69.8359 -164.833 -95.5029 -252.5s-45 -177.167 -58 -268.5s-19.5 -183.666 -19.5 -276.999c0 -92.667 6.33301 -184.667 19 -276s31.834 -180.833 57.501 -268.5s57.834 -171.834 96.501 -252.501h-100
c-94 139.333 -163.833 274.833 -209.5 406.5s-68 262.5 -67 392.5s24.833 260.667 71.5 392s115.334 266 206.001 404h99z" />
    <glyph glyph-name="parenright" unicode=")" horiz-adv-x="533" 
d="M179 1589c90.667 -138 159.331 -272.668 205.998 -404.001s70.5 -262 71.5 -392s-21.333 -260.833 -67 -392.5s-115.5 -267.167 -209.5 -406.5h-100c38.667 80.667 70.834 164.834 96.501 252.501s44.834 177.167 57.501 268.5s19 183.333 19 276
c0 93.333 -6.5 185.666 -19.5 276.999s-32.333 180.833 -58 268.5s-57.5 171.834 -95.5 252.501h99z" />
    <glyph glyph-name="asterisk" unicode="*" horiz-adv-x="891" 
d="M444 976l-152 -219l-121 81l171 213l-247 68l44 138l239 -82v257h134v-257l236 82l48 -138l-251 -68l173 -211l-119 -88z" />
    <glyph glyph-name="plus" unicode="+" horiz-adv-x="1484" 
d="M804 1212v-470h459v-121h-459v-471h-124v471h-459v121h459v470h124z" />
    <glyph glyph-name="comma" unicode="," horiz-adv-x="488" 
d="M155 150v192h178v-208c0 -65.333 -15.5 -119.5 -46.5 -162.5s-74.833 -71.5 -131.5 -85.5v89c28 6 49.667 21.833 65 47.5s23 59.167 23 100.5v27h-88z" />
    <glyph glyph-name="hyphenminus" unicode="-" horiz-adv-x="884" 
d="M119 477l57 197l590 -2l-57 -195h-590z" />
    <glyph glyph-name="period" unicode="." horiz-adv-x="505" 
d="M245 442l153 -153l-41 -40l-37 -37l-36 -36.5l-39 -39.5l-41 41l-37 37l-36 36l-38 39z" />
    <glyph glyph-name="slash" unicode="/" horiz-adv-x="654" 
d="M264 177l-167 -138l314 1318l183 155z" />
    <glyph glyph-name="zero" unicode="0" horiz-adv-x="1019" 
d="M66 717c0 102.667 10.001 194 30.001 274s51 149.333 93 208c39.333 58.667 85.666 102.167 138.999 130.5s113.666 42.5 180.999 42.5c135.333 0 242 -57 320 -171c82 -117.333 123 -278.666 123 -483.999c0 -101.333 -10.5 -192.833 -31.5 -274.5
s-51.5 -151.834 -91.5 -210.501c-39.333 -54.667 -86.166 -96.834 -140.499 -126.501s-114.166 -44.5 -179.499 -44.5c-134.667 0 -241.334 57.667 -320.001 173c-42 58.667 -73 128.334 -93 209.001s-30 172 -30 274zM314.001 717c0 -161.333 16.167 -280 48.5 -356
s81.166 -114 146.499 -114s114.333 38.5 147 115.5s49 195.167 49 354.5c0 158.667 -16.333 277 -49 355s-81.667 117 -147 117s-114.166 -38.333 -146.499 -115s-48.5 -195.667 -48.5 -357z" />
    <glyph glyph-name="one" unicode="1" horiz-adv-x="1019" 
d="M478 85v1031l-240 -166l-68 162l286 239h257v-1266h-235z" />
    <glyph glyph-name="two" unicode="2" horiz-adv-x="1019" 
d="M927 85l-827.002 0.00195312l10 189c28 30.667 60.333 63.334 97 98.001l112 108l112.5 115c37 39.333 70.167 78.833 99.5 118.5s53.166 79.334 71.499 119.001s28.166 78.834 29.499 117.501c1.33301 42 -4.83398 77.667 -18.501 107s-32.5 53 -56.5 71
s-52 30.167 -84 36.5s-65.333 7.66602 -100 3.99902s-69.667 -12.334 -105 -26.001s-68.666 -31.834 -99.999 -54.501l-75 169c62.667 40.667 125.334 70.334 188.001 89.001s128.334 28 197.001 28c50 0 96.333 -7 139 -21s80.834 -33.333 114.501 -58
s62.334 -53.834 86.001 -87.501s41.334 -69.834 53.001 -108.501s17 -79.334 16 -122.001s-9.16699 -85 -24.5 -127c-20 -54 -49.167 -107 -87.5 -159s-80.833 -101.833 -127.5 -149.5s-94.334 -92.5 -143.001 -134.5l-134 -114h557v-208z" />
    <glyph glyph-name="three" unicode="3" horiz-adv-x="1019" 
d="M435 61c-71.333 0 -133.833 5.99902 -187.5 17.999s-101.834 30.667 -144.501 56l48 150c37.333 -18 73.333 -31 108 -39s70 -12 106 -12c66 -1.33301 120.667 7.83398 164 27.501s74.666 44.834 93.999 75.501s27 63.834 23 99.501s-20.333 69.167 -49 100.5
s-69.5 57.666 -122.5 78.999s-118.5 32.666 -196.5 33.999l-8 154c32 4 67.5 11.5 106.5 22.5s75.833 25.833 110.5 44.5s63.834 41.5 87.501 68.5s36.167 58.5 37.5 94.5c0.666992 31.333 -5.33301 58.166 -18 80.499s-29.667 40.5 -51 54.5s-46 24 -74 30
s-57.167 8.66699 -87.5 8s-60.5 -4.5 -90.5 -11.5s-57.667 -16.833 -83 -29.5l-60 151c23.333 12 51.166 22.167 83.499 30.5s66.833 14.666 103.5 18.999s74.5 6.33301 113.5 6s76.5 -3.66602 112.5 -9.99902s69.5 -15.666 100.5 -27.999s56.833 -28.5 77.5 -48.5
c44 -43.333 73.667 -89.5 89 -138.5s16.833 -97.333 4.5 -145s-38.166 -92.5 -77.499 -134.5s-91.666 -77.333 -156.999 -106c186 -73.333 279 -188 279 -344c0 -54 -9.5 -102.5 -28.5 -145.5s-48.5 -80.5 -88.5 -112.5c-78 -66 -186.333 -99 -325 -99z" />
    <glyph glyph-name="four" unicode="4" horiz-adv-x="1019" 
d="M587 85v296h-547v214l310 386l310 386h148v-771h126v-215h-126v-296h-221zM588 596l4 439l-361 -439h357z" />
    <glyph glyph-name="five" unicode="5" horiz-adv-x="1019" 
d="M197 260c27.333 -9.33301 54.501 -15.999 81.501 -19.999s54.5 -6 82.5 -6c59.333 0 109.666 6.66699 150.999 20s74.666 31.166 99.999 53.499s43.666 47.833 54.999 76.5s17 58 17 88c0 37.333 -6.16699 68.833 -18.5 94.5s-29.5 46.667 -51.5 63s-48.167 29 -78.5 38
s-63.666 15.667 -99.999 20s-75 6.66602 -116 6.99902s-83.5 0.5 -127.5 0.5l-2 656h652v-198h-453v-249c84 0 158.833 -9.5 224.5 -28.5s121.334 -46.833 167.001 -83.5s80.167 -81.834 103.5 -135.501s34.666 -115.167 33.999 -184.5
c-1.33301 -67.333 -15.666 -126.666 -42.999 -177.999s-63.833 -94.166 -109.5 -128.499s-98 -60.333 -157 -78s-120.5 -26.5 -184.5 -26.5c-54 0 -103.5 3.33301 -148.5 10s-86.5 17 -124.5 31z" />
    <glyph glyph-name="six" unicode="6" horiz-adv-x="1019" 
d="M539 265c32 0 60.5 6.83398 85.5 20.501s45.667 30.834 62 51.501s28.5 43 36.5 67s11 46.333 9 67c-3.33301 30.667 -12 58.667 -26 84s-32 47.166 -54 65.499s-46.667 33.166 -74 44.499s-55.5 18.333 -84.5 21s-58 0.5 -87 -6.5s-55.833 -19.5 -80.5 -37.5
c-12 -45.333 -16 -90.5 -12 -135.5s15.333 -85.333 34 -121s44 -64.667 76 -87s70.333 -33.5 115 -33.5zM95 520.001c0 76 12.3271 153.337 36.9941 232.004s59.667 155 105 229s99.833 143.833 163.5 209.5s134.834 123.5 213.501 173.5
c4.66699 -5.33301 8.33398 -9.83301 11.001 -13.5l8 -10.5l8 -10.5c2.66699 -3.66699 6 -7.83398 10 -12.501v1l35 -45.5l36 -45.5c-160 -104.667 -269.333 -226 -328 -364c36.667 15.333 75.334 24.166 116.001 26.499s81 -1.33398 121 -11.001
s78.167 -25.334 114.5 -47.001s68.333 -49.167 96 -82.5s49.667 -72.333 66 -117s24.5 -94.334 24.5 -149.001c0 -61.333 -10.333 -117.833 -31 -169.5s-49.5 -96 -86.5 -133s-81 -65.833 -132 -86.5s-107.167 -31 -168.5 -31c-67.333 0 -127.166 11.167 -179.499 33.5
s-96.166 53.833 -131.499 94.5s-62.166 88.834 -80.499 144.501s-27.5 117.167 -27.5 184.5z" />
    <glyph glyph-name="seven" unicode="7" horiz-adv-x="1019" 
d="M255 131l388 1027h-552v193h795l-8 -193l-421 -1104z" />
    <glyph glyph-name="eight" unicode="8" horiz-adv-x="1019" 
d="M509 1372c60 0 114.168 -11.666 162.501 -34.999s88.666 -53.666 120.999 -90.999s56 -79 71 -125s19.333 -91.667 13 -137s-24.333 -88.333 -54 -129s-72.834 -73.667 -129.501 -99c83.333 -36.667 145.833 -82.834 187.5 -138.501s62.5 -118.834 62.5 -189.501
c0 -55.333 -10.167 -105.333 -30.5 -150s-49.166 -84 -86.499 -118v1c-39.333 -32 -85.333 -56.667 -138 -74s-112.334 -26 -179.001 -26c-67.333 0 -127.5 8.66699 -180.5 26s-99.167 42 -138.5 74v-1c-36.667 34 -65 73.667 -85 119s-30 95 -30 149
c0 35.333 5.33301 68.833 16 100.5s25.834 61 45.501 88s42.834 51.167 69.501 72.5s56 39 88 53c-50.667 30 -89.834 66.5 -117.501 109.5s-45 87.833 -52 134.5s-3.83301 93.167 9.5 139.5s36.5 87.833 69.5 124.5s75 66.167 126 88.5s110.833 33.5 179.5 33.5z
M502.001 628.001c-42.667 0 -78.333 -9.49609 -107 -28.4961s-50.5 -42.667 -65.5 -71s-23 -59 -24 -92s4.83301 -63.833 17.5 -92.5s32.334 -52.834 59.001 -72.501s60.334 -30.167 101.001 -31.5c33.333 -1.33301 63.666 1.16699 90.999 7.5s50.666 17.166 69.999 32.499
s34.333 36.166 45 62.499s16 59.5 16 99.5c0 5.33301 -0.833008 13.666 -2.5 24.999s-5 24 -10 38s-12.167 28.167 -21.5 42.5s-21.5 27.5 -36.5 39.5s-33.333 21.833 -55 29.5s-47.5 11.5 -77.5 11.5zM328.002 1020c0 -24 7.49805 -47.832 22.498 -71.499
s32.833 -44.5 53.5 -62.5s41.834 -31.667 63.501 -41s39.5 -11.666 53.5 -6.99902c20.667 7.33301 42 18.333 64 33s40.667 32.667 56 54s25 46.166 29 74.499s-2 59.833 -18 94.5c-13.333 21.333 -30.666 38.833 -51.999 52.5s-44 23 -68 28s-48 5.66699 -72 2
s-45.833 -11.834 -65.5 -24.501s-35.667 -30 -48 -52s-18.5 -48.667 -18.5 -80z" />
    <glyph glyph-name="nine" unicode="9" horiz-adv-x="1019" 
d="M487 1163c-32 0 -60.501 -6.83301 -85.501 -20.5s-45.667 -30.834 -62 -51.501s-28.333 -43.167 -36 -67.5s-10.5 -46.833 -8.5 -67.5c2.66699 -30.667 11.167 -58.5 25.5 -83.5s32.333 -46.833 54 -65.5s46.167 -33.667 73.5 -45s55.666 -18.166 84.999 -20.499
s58.333 0 87 7s55.334 19.5 80.001 37.5c12 44.667 16 89.5 12 134.5s-15.167 85.5 -33.5 121.5s-43.666 65.167 -75.999 87.5s-70.833 33.5 -115.5 33.5zM931.999 908c0 -76 -12.3301 -153.334 -36.9971 -232.001s-59.667 -155.167 -105 -229.5s-100 -144.333 -164 -210
s-135.333 -123.167 -214 -172.5c-8.66699 10.667 -14.834 18.667 -18.501 24s-9.5 13 -17.5 23v-1c-12.667 15.333 -24.5 30.333 -35.5 45s-23.167 29.667 -36.5 45c80.667 52.667 148.167 109.334 202.5 170.001s96.166 125.334 125.499 194.001
c-36.667 -15.333 -75.334 -24.166 -116.001 -26.499s-80.834 1.5 -120.501 11.5s-77.667 25.833 -114 47.5s-68.333 49.167 -96 82.5s-49.667 72.166 -66 116.499s-24.5 93.833 -24.5 148.5c0 62 10.333 118.667 31 170s49.334 95.666 86.001 132.999s80.5 66.333 131.5 87
s107.167 31 168.5 31c68 0 128 -11.167 180 -33.5s95.833 -53.833 131.5 -94.5s62.667 -89 81 -145s27.5 -117.333 27.5 -184z" />
    <glyph glyph-name="colon" unicode=":" horiz-adv-x="505" 
d="M245 956l153 -153l-40.5 -41l-36.5 -37l-36.5 -36.5l-39.5 -39.5l-40.5 41.5l-36.5 37.5l-36 36.5l-39 38.5zM245 442l153 -153l-41 -40l-37 -37l-36 -36.5l-39 -39.5l-41 41l-37 37l-36 36l-38 39z" />
    <glyph glyph-name="semicolon" unicode=";" horiz-adv-x="529" 
d="M175 889v193h180v-193h-180zM175 150l-0.000976562 192h180v-208c0 -64.667 -15.667 -118.5 -47 -161.5s-75.666 -71.833 -132.999 -86.5v89c28 6 49.833 22 65.5 48s23.5 59.333 23.5 100v27h-89z" />
    <glyph glyph-name="less" unicode="&#x3c;" horiz-adv-x="1484" 
d="M1255 1025l-843 -344l843 -342v-134l-1025 421v112l1025 420v-133z" />
    <glyph glyph-name="equal" unicode="=" horiz-adv-x="1484" 
d="M1263 568v-120h-1042v120h1042zM1263 915v-122h-1042v122h1042z" />
    <glyph glyph-name="greater" unicode="&#x3e;" horiz-adv-x="1484" 
d="M1255 738v-112l-1025 -421v134l844 342l-844 344v133z" />
    <glyph glyph-name="question" unicode="?" horiz-adv-x="959" 
d="M382 519c0 4.66699 -0.331055 11.499 -0.998047 20.499s-1 15.5 -1 19.5c0 68.667 11.5 129.667 34.5 183s61.167 106 114.5 158l72 73c38.667 37.333 66 73.833 82 109.5s24 75.5 24 119.5c0 62.667 -20.333 113.167 -61 151.5s-94.334 57.5 -161.001 57.5
c-82.667 0 -144.834 -25.167 -186.501 -75.5s-64.5 -126.166 -68.5 -227.499h-166v25c0 136 37.5 241.333 112.5 316s180.167 112 315.5 112c120 0 215.833 -32.833 287.5 -98.5s107.5 -152.5 107.5 -260.5c0 -59.333 -11.5 -114.333 -34.5 -165s-58.167 -98 -105.5 -142
l-78 -75c-48.667 -46.667 -81 -87.667 -97 -123s-24 -78.666 -24 -129.999c0 -12.667 0.166992 -22.334 0.5 -29.001s0.833008 -12.667 1.5 -18zM377.002 149.999v204h186v-204h-186z" />
    <glyph glyph-name="at" unicode="@" horiz-adv-x="1782" 
d="M1117 893l49.999 100.001h115l-128 -501c-2 -9.33301 -3.5 -18.333 -4.5 -27s-1.5 -16.667 -1.5 -24c0 -26.667 7.33301 -47 22 -61s36.334 -21 65.001 -21c27.333 0 56.833 7.66699 88.5 23s62.5 37.333 92.5 66c46.667 44 83 98 109 162s39 131.667 39 203
c0 150 -55.167 271.667 -165.5 365s-255.166 140 -434.499 140c-77.333 0 -148.666 -8 -213.999 -24s-126.666 -41 -183.999 -75c-110.667 -66 -196.5 -152.833 -257.5 -260.5s-91.5 -226.5 -91.5 -356.5c0 -102.667 18 -192 54 -268s91.667 -142.667 167 -200
c58 -44.667 126.667 -79 206 -103s162.666 -36 249.999 -36c98 0 193.333 14.167 286 42.5s177.667 69.166 255 122.499l47 -71c-85.333 -64 -176.333 -112.333 -273 -145s-198 -49 -304 -49c-110.667 0 -211.667 13.667 -303 41s-172.666 68 -243.999 122
c-89.333 68 -156 147.333 -200 238s-66 193.334 -66 308.001c0 96 15.167 186.833 45.5 272.5s74.166 163.5 131.499 233.5c84.667 103.333 186.5 181.666 305.5 234.999s251.167 80 396.5 80c94.667 0 184.667 -13 270 -39s158.666 -62.667 219.999 -110
c75.333 -58 132.5 -125 171.5 -201s58.5 -158 58.5 -246c0 -102 -18.333 -193.5 -55 -274.5s-90 -149.5 -160 -205.5c-40 -31.333 -83.5 -55.333 -130.5 -72s-95.167 -25 -144.5 -25c-58 0 -101.5 11.5 -130.5 34.5s-43.5 56.833 -43.5 101.5v17
c-32 -52 -69.5 -90.167 -112.5 -114.5s-92.833 -36.5 -149.5 -36.5c-88.667 0 -156.334 24.5 -203.001 73.5s-70 120.5 -70 214.5c0 136.667 40 251 120 343s178.333 138 295 138c48.667 0 90.667 -10.833 126 -32.5s63.333 -54.167 84 -97.5zM1035 563.001l52 206.001
c-10 50.667 -30 90 -60 118s-67.667 42 -113 42c-80 0 -147.167 -37.833 -201.5 -113.5s-81.5 -168.167 -81.5 -277.5c0 -60.667 14 -107.667 42 -141s68 -50 120 -50c56 0 106.5 20.167 151.5 60.5s75.167 92.166 90.5 155.499z" />
    <glyph glyph-name="A" unicode="A" horiz-adv-x="1188" 
d="M517 1449h190l467 -1297h-196l-130 386h-499l-140 -386h-192zM606 1255l-200 -569h388z" />
    <glyph glyph-name="B" unicode="B" horiz-adv-x="1188" 
d="M304 899l313.001 -0.000976562c87.333 0 152.666 15 195.999 45c47.333 34 71 89 71 165c0 62.667 -20.833 109.834 -62.5 141.501s-109.167 47.5 -202.5 47.5h-315v-399zM132.001 1448l562.998 0.00195312c114.667 0 205 -32 271 -96c60 -60 90 -137 90 -231
c0 -52 -10.333 -99 -31 -141c-29.333 -56.667 -75.666 -100.334 -138.999 -131.001c66.667 -26.667 115.334 -55.334 146.001 -86.001c56.667 -56.667 85 -133 85 -229c0 -110 -36.667 -200 -110 -270c-80 -76 -188.333 -114 -325 -114h-550v1298zM303.999 301.001h369
c89.333 0 156.833 20.667 202.5 62s68.5 99.333 68.5 174c0 82 -32 141.333 -96 178c-50 27.333 -117.667 41 -203 41h-341v-455z" />
    <glyph glyph-name="C" unicode="C" horiz-adv-x="1286" 
d="M1212 1044h-184.003c-10.667 46.667 -22 81.667 -34 105s-31 47.333 -57 72c-64 60 -152 90 -264 90c-131.333 0 -233.833 -45 -307.5 -135s-110.5 -216.667 -110.5 -380c0 -156 35.667 -279.167 107 -369.5s170 -135.5 296 -135.5c100.667 0 183.334 29.667 248.001 89
s105.334 143.666 122.001 252.999h184c-16.667 -115.333 -53.667 -212.333 -111 -291c-104.667 -143.333 -250.667 -215 -438 -215c-184.667 0 -330.334 58.833 -437.001 176.5s-160 278.5 -160 482.5c0 242.667 68.333 424 205 544c60.667 52 121.334 89.333 182.001 112
s132.334 34 215.001 34c154.667 0 281 -38.667 379 -116s153 -182.666 165 -315.999z" />
    <glyph glyph-name="D" unicode="D" horiz-adv-x="1286" 
d="M157 1449h438c110 0 192.5 -6 247.5 -18s106.833 -36.333 155.5 -73c150.667 -114 226 -295 226 -543c0 -146.667 -28 -275.5 -84 -386.5s-132.333 -188.5 -229 -232.5c-36 -15.333 -77 -26.5 -123 -33.5s-105 -10.5 -177 -10.5h-454v1297zM337 1287v-971.998h262
c120.667 0 209 19.333 265 58c115.333 79.333 173 227.666 173 444.999c0 108 -18.333 199.667 -55 275s-89 128.666 -157 159.999c-46.667 22.667 -124 34 -232 34h-256z" />
    <glyph glyph-name="E" unicode="E" horiz-adv-x="1188" 
d="M157 1449h935v-162h-755v-382h698v-163h-698v-427h764v-163h-944v1297z" />
    <glyph glyph-name="F" unicode="F" horiz-adv-x="1188" 
d="M157 1449h935v-162h-755v-382h698v-163h-698v-427l-1 -163h-179v1297z" />
    <glyph glyph-name="G" unicode="G" horiz-adv-x="1386" 
d="M1219 1048l-184.003 0.000976562c-13.333 45.333 -26.166 79.833 -38.499 103.5s-30.5 47.5 -54.5 71.5c-60 58.667 -147.333 88 -262 88c-134.667 0 -239.5 -45 -314.5 -135s-112.5 -216.667 -112.5 -380c0 -157.333 37.667 -280.833 113 -370.5
s179.666 -134.5 312.999 -134.5c138 0 243 50 315 150c27.333 36 47 72.5 59 109.5s18 87.5 18 151.5h-405v148h567v-690h-114l-43 158c-59.333 -68 -120.833 -116.833 -184.5 -146.5s-139.167 -44.5 -226.5 -44.5c-182 0 -327.333 60.167 -436 180.5s-163 281.5 -163 483.5
c0 209.333 55.833 375.833 167.5 499.5s261.834 185.5 450.501 185.5c180.667 0 317.334 -52.667 410.001 -158c34.667 -38.667 60.834 -77.334 78.501 -116.001s33.167 -90 46.5 -154z" />
    <glyph glyph-name="H" unicode="H" horiz-adv-x="1286" 
d="M157 1449h180v-531h615v531h182v-1297h-182v602h-615v-602h-180v1297z" />
    <glyph glyph-name="I" unicode="I" horiz-adv-x="483" 
d="M157 1449h180v-1297h-180v1297z" />
    <glyph glyph-name="J" unicode="J" horiz-adv-x="891" 
d="M27 585h178.001c0 -69.333 2.33301 -118.5 7 -147.5s15.334 -54.5 32.001 -76.5c32 -46.667 81.333 -70 148 -70c59.333 0 106 22 140 66c16 20 26.833 44.667 32.5 74s8.5 73 8.5 131v889h182v-889c0 -134 -21 -231.667 -63 -293
c-32.667 -45.333 -75.334 -80.333 -128.001 -105s-111.334 -37 -176.001 -37c-64 0 -121.833 11.833 -173.5 35.5s-93.167 56.167 -124.5 97.5c-26 36.667 -43 76.5 -51 119.5s-12 111.5 -12 205.5z" />
    <glyph glyph-name="K" unicode="K" horiz-adv-x="1188" 
d="M157 1451h180v-631l613 631h240l-524 -529l522 -770h-215l-429 650l-207 -198v-452h-180v1299z" />
    <glyph glyph-name="L" unicode="L" 
d="M157 1449h180v-1134h656v-163h-836v1297z" />
    <glyph glyph-name="M" unicode="M" horiz-adv-x="1466" 
d="M116 152v1296h219l406 -1077l394 1077h219v-1296h-159v1039l-379 -1039h-146l-396 1039v-1039h-158z" />
    <glyph glyph-name="N" unicode="N" horiz-adv-x="1286" 
d="M157 1449h201l594 -1019v1019h182v-1297h-204l-593 1028v-1028h-180v1297z" />
    <glyph glyph-name="O" unicode="O" horiz-adv-x="1386" 
d="M66 788c0 211.333 56.499 378.833 169.499 502.5s267.5 185.5 463.5 185.5c191.333 0 343.333 -59.5 456 -178.5s169 -279.833 169 -482.5c0 -224.667 -70 -403.667 -210 -537c-109.333 -100.667 -250.666 -151 -423.999 -151c-190 0 -341.5 59.667 -454.5 179
s-169.5 280 -169.5 482zM254.999 793c0 -155.333 39.5 -277.833 118.5 -367.5s187.5 -134.5 325.5 -134.5c137.333 0 244.666 45.667 321.999 137s116 219.666 116 384.999c0 156.667 -38.667 278.834 -116 366.501s-184.666 131.5 -321.999 131.5
c-142 0 -251.5 -45 -328.5 -135s-115.5 -217.667 -115.5 -383z" />
    <glyph glyph-name="P" unicode="P" horiz-adv-x="1122" 
d="M311 854l293.001 -0.000976562c101.333 0 172.166 16.5 212.499 49.5s60.5 89.5 60.5 169.5c0 76.667 -20 131.834 -60 165.501s-106.667 50.5 -200 50.5h-306v-435zM137.001 149.999l-0.000976562 1298h472c76.667 0 135 -3.83301 175 -11.5s75.667 -20.5 107 -38.5
c52 -28 92 -70.333 120 -127s42 -122.667 42 -198c0 -72.667 -14 -136.667 -42 -192s-68.667 -99.333 -122 -132c-30.667 -18.667 -66.667 -32 -108 -40s-109.666 -12 -204.999 -12h-265v-547h-174z" />
    <glyph glyph-name="Q" unicode="Q" horiz-adv-x="1356" 
d="M887 324l-146 116l89 107l177 -138c42 42.667 73.833 97.5 95.5 164.5s32.5 142.5 32.5 226.5c0 162 -39 288.333 -117 379s-186.333 136 -325 136c-139.333 0 -248.333 -45.333 -327 -136s-118 -217 -118 -379s39.333 -288.5 118 -379.5s187.667 -136.5 327 -136.5
c36.667 0 71 3.16699 103 9.5s62.333 16.5 91 30.5zM1033 208c-52 -27.333 -106 -47.668 -162 -61.001s-115.333 -20 -178 -20c-197.333 0 -352 59 -464 177s-168 282 -168 492s56 374 168 492s266.667 177 464 177c196 0 349.833 -59.167 461.5 -177.5
s167.5 -282.166 167.5 -491.499c0 -102.667 -14.167 -195 -42.5 -277s-71.833 -156 -130.5 -222l160 -128l-88 -108z" />
    <glyph glyph-name="R" unicode="R" horiz-adv-x="1286" 
d="M157 1449h540.001c80.667 0 142 -2.83301 184 -8.5s79.667 -17.5 113 -35.5c112.667 -60 169 -164.333 169 -313c0 -76 -14.5 -136.667 -43.5 -182s-75.5 -83.333 -139.5 -114c64 -22 107 -53 129 -93s33 -107.333 33 -202v-150c0 -70.667 16.667 -133 50 -187l9 -12
h-214c-10.667 34 -18.334 66.5 -23.001 97.5s-7 60.167 -7 87.5v162c0 73.333 -17.333 126.333 -52 159c-18.667 18.667 -42.667 31 -72 37s-78.333 9 -147 9h-349v-552h-180v1297zM337.001 1287l-0.000976562 -419h340c64 0 109.167 2.16699 135.5 6.5
s50.833 12.833 73.5 25.5c60 32.667 90 91.667 90 177c0 44 -8.83301 82.167 -26.5 114.5s-43.667 56.333 -78 72s-94.166 23.5 -179.499 23.5h-355z" />
    <glyph glyph-name="S" unicode="S" horiz-adv-x="1188" 
d="M80 585l186.998 -0.00195312v-37c0 -46.667 4.83301 -82.167 14.5 -106.5s27.5 -47.166 53.5 -68.499c62 -54.667 153.333 -82 274 -82c96 0 173 18.667 231 56s87 87.333 87 150c0 36 -10.5 71.667 -31.5 107s-60.5 63.333 -118.5 84l-400 100
c-164.667 60 -247 159.667 -247 299c-2.66699 58.667 6.16602 110.5 26.499 155.5s49.5 85.5 87.5 121.5c82 74.667 198.333 112 349 112c169.333 0 296.333 -44.667 381 -134c32.667 -34 55.834 -68 69.501 -102s20.5 -80.667 20.5 -140l3 -43h-188
c0 40 -2.5 70.167 -7.5 90.5s-13.167 39.833 -24.5 58.5c-22 32.667 -56.167 58.334 -102.5 77.001s-97.833 28 -154.5 28c-80.667 0 -146.667 -18.333 -198 -55s-75.666 -87.667 -72.999 -153c0 -36.667 9.83301 -65.834 29.5 -87.501s56.167 -41.834 109.5 -60.501
l415 -106c165.333 -58.667 245 -170 239 -334c0 -53.333 -10.833 -103.166 -32.5 -149.499s-54 -88.166 -97 -125.499s-95.333 -65.5 -157 -84.5s-136.167 -28.5 -223.5 -28.5c-171.333 0 -301.166 35.333 -389.499 106s-132.5 175 -132.5 313v39z" />
    <glyph glyph-name="T" unicode="T" horiz-adv-x="1088" 
d="M29 1449h1038v-162h-431v-1135h-180v1135h-427v162z" />
    <glyph glyph-name="U" unicode="U" horiz-adv-x="1286" 
d="M139 1451l181.997 0.00195312v-809c0 -57.333 4 -103.5 12 -138.5s23 -66.167 45 -93.5c26.667 -36.667 64.167 -65.667 112.5 -87s100.833 -32 157.5 -32c114.667 0 201.334 39.667 260.001 119c21.333 29.333 36.833 61 46.5 95s14.5 77.667 14.5 131v815h182v-816
c0 -71.333 -6.5 -130.833 -19.5 -178.5s-36.5 -94.834 -70.5 -141.501c-93.333 -125.333 -232.666 -188 -417.999 -188c-192 0 -333.333 62.333 -424 187c-20 30 -35.667 59.833 -47 89.5s-19.666 65.167 -24.999 106.5s-8 78.666 -8 111.999v829z" />
    <glyph glyph-name="V" unicode="V" horiz-adv-x="1088" 
d="M456 150l-456 1298h180l369 -1087l358 1087h181l-450 -1298h-182z" />
    <glyph glyph-name="W" unicode="W" horiz-adv-x="1682" 
d="M14 1449l192.999 -0.000976562l196 -775l48 -260c20 94.667 33.167 155.334 39.5 182.001s13.5 52.667 21.5 78l231 775h185l230 -775c10.667 -30.667 22 -74 34 -130l30 -130l22.5 133c7.66699 44 16.834 86.333 27.501 127l204 775h194l-355 -1297h-181l-301 1052
l-295 -1052h-189z" />
    <glyph glyph-name="X" unicode="X" horiz-adv-x="1078" 
d="M0 150l440 665l-417 633h214l305 -480l310 480h202l-416 -630l440 -668h-214l-330 525l-322 -525h-212z" />
    <glyph glyph-name="Y" unicode="Y" horiz-adv-x="1188" 
d="M2 1449h226l376 -615l370 615h216l-498 -786v-511h-184v511z" />
    <glyph glyph-name="Z" unicode="Z" horiz-adv-x="1088" 
d="M43 310l783 977h-726v162h951v-157l-787 -977h787v-163h-1008v158z" />
    <glyph glyph-name="bracketleft" unicode="[" horiz-adv-x="631" 
d="M216 -207v1639h347v-122h-191v-1395h191v-122h-347z" />
    <glyph glyph-name="backslash" unicode="\" horiz-adv-x="536" 
d="M428 -15l-430 1480h107l433 -1480h-110z" />
    <glyph glyph-name="bracketright" unicode="]" horiz-adv-x="631" 
d="M415 1432v-1639h-347v122h190v1395h-190v122h347z" />
    <glyph glyph-name="asciicircum" unicode="^" horiz-adv-x="1782" 
d="M971 1418l444 -484h-157l-367 365l-369 -365h-157l444 484h162z" />
    <glyph glyph-name="underscore" unicode="_" horiz-adv-x="891" 
d="M891 -146v-124h-891v124h891z" />
    <glyph glyph-name="grave" unicode="`" horiz-adv-x="891" 
d="M570 1209h-105l-248 303h175z" />
    <glyph glyph-name="a" unicode="a" 
d="M119 806c0 46.667 4.00098 82.334 12.001 107.001s22 51.334 42 80.001c64 88.667 172.667 133 326 133c154.667 0 260.334 -38 317.001 -114c30.667 -38.667 46 -100.334 46 -185.001v-453c0 -65.333 19.333 -98 58 -98l47 4v-125
c-24.667 -8 -43.834 -13.167 -57.501 -15.5s-28.167 -3.5 -43.5 -3.5c-88.667 0 -139.334 48 -152.001 144c-92 -102 -200.667 -153 -326 -153c-93.333 0 -168 25.5 -224 76.5s-84 119.833 -84 206.5c0 120 52.667 204.333 158 253c70.667 33.333 194.334 60 371.001 80
l95 13v46c0 30 -1.83301 53.167 -5.5 69.5s-10.834 31.166 -21.501 44.499c-34 42.667 -93.333 64 -178 64c-88 0 -148.333 -24.333 -181 -73c-11.333 -14 -19 -28.167 -23 -42.5s-6 -33.833 -6 -58.5h-170zM702.001 628c-42 -6 -80.833 -11.834 -116.5 -17.501
s-79.5 -14.167 -131.5 -25.5c-73.333 -16.667 -124.833 -37.167 -154.5 -61.5s-44.5 -59.166 -44.5 -104.499s15 -80.833 45 -106.5s71.667 -38.5 125 -38.5c76.667 0 142 21.833 196 65.5s81 95.5 81 155.5v133z" />
    <glyph glyph-name="b" unicode="b" horiz-adv-x="1059" 
d="M272 628c0 -116.667 24.167 -206.833 72.5 -270.5s117.166 -95.5 206.499 -95.5c86.667 0 155.334 31 206.001 93s76 146.333 76 253c0 120 -24.5 212.333 -73.5 277s-118.167 97 -207.5 97c-93.333 0 -163.333 -29.5 -210 -88.5s-70 -147.5 -70 -265.5zM123 150.001
l-0.000976562 1298h155v-485c36 53.333 79.667 93.5 131 120.5s109.666 40.5 174.999 40.5c125.333 0 225.833 -45.833 301.5 -137.5s113.5 -214.167 113.5 -367.5c0 -151.333 -37.5 -272.166 -112.5 -362.499s-175.167 -135.5 -300.5 -135.5
c-67.333 0 -125.666 12 -174.999 36s-93.666 61.333 -132.999 112v-119h-155z" />
    <glyph glyph-name="c" unicode="c" horiz-adv-x="891" 
d="M729 490h166.999c-11.333 -88.667 -35.666 -160 -72.999 -214c-38 -50 -83.667 -87.667 -137 -113s-113.333 -38 -180 -38c-140 0 -248.333 42.5 -325 127.5s-115 204.5 -115 358.5c0 164 38 290.833 114 380.5s183.667 134.5 323 134.5
c111.333 0 201.5 -31.167 270.5 -93.5s109.833 -149.166 122.5 -260.499h-167c-30 137.333 -105.333 206 -226 206c-83.333 0 -148 -30 -194 -90s-69 -144 -69 -252c0 -116.667 22.667 -206.334 68 -269.001s111 -94 197 -94c112 0 186.667 72.333 224 217z" />
    <glyph glyph-name="d" unicode="d" 
d="M713 1005l0.000976562 446.001h164v-1298h-156v121c-46.667 -56.667 -90 -95.334 -130 -116.001s-89 -31 -147 -31c-114.667 0 -206.334 43.833 -275.001 131.5s-103 205.834 -103 354.501c0 153.333 35.667 277.5 107 372.5s165 142.5 281 142.5
c52 0 96.833 -8.83301 134.5 -26.5s79.167 -49.834 124.5 -96.501zM483.001 274.001c77.333 0 136.666 30.333 177.999 91s62 148.334 62 263.001c0 112 -20.667 198.333 -62 259s-100.666 91 -177.999 91c-78.667 0 -138.834 -30 -180.501 -90s-62.5 -146.667 -62.5 -260
c0 -114.667 20.833 -202.334 62.5 -263.001s101.834 -91 180.501 -91z" />
    <glyph glyph-name="e" unicode="e" 
d="M927 574l-689.001 -0.000976562c0 -97.333 23.333 -171.666 70 -222.999s112.334 -77 197.001 -77c130 0 209.333 63.667 238 191h171c-24.667 -106.667 -73 -189.667 -145 -249s-162 -89 -270 -89c-134 0 -239.667 44.5 -317 133.5s-116 211.5 -116 367.5
c0 172 50 301.667 150 389c81.333 71.333 180 107 296 107c143.333 0 254.333 -51.333 333 -154c29.333 -42 50.5 -88 63.5 -138s19.5 -111 19.5 -183zM762.999 721.999c0 80 -23.5 142.667 -70.5 188s-108.5 68 -184.5 68c-152 0 -240 -85.333 -264 -256h519z" />
    <glyph glyph-name="f" unicode="f" horiz-adv-x="471" 
d="M153 150l0.000976562 807h-153v125h153v137c0 77.333 17.5 135.333 52.5 174s87.833 58 158.5 58c10.667 0 24.5 -1 41.5 -3s41.5 -5.33301 73.5 -10v-140c-16.667 2.66699 -30.667 4.66699 -42 6s-20.333 2 -27 2c-36.667 0 -62.334 -10.167 -77.001 -30.5
s-22 -58.833 -22 -115.5v-78h168v-125h-168v-807h-158z" />
    <glyph glyph-name="g" unicode="g" 
d="M713 975v126.998h162v-806c0 -80.667 -3 -144.5 -9 -191.5s-16 -88.833 -30 -125.5c-60 -144.667 -183.667 -217 -371 -217c-112.667 0 -198.5 23.333 -257.5 70s-94.167 120.334 -105.5 221.001h163c13.333 -52 34.5 -88.833 63.5 -110.5s73.167 -32.5 132.5 -32.5
c115.333 0 186.666 43.333 213.999 130c10 30.667 17.333 62.834 22 96.501s7 76.167 7 127.5c-40.667 -48.667 -81.667 -83.667 -123 -105s-90 -32 -146 -32c-115.333 0 -205.666 42.667 -270.999 128s-98 203.333 -98 354c0 160 33.167 286.167 99.5 378.5
s157.833 138.5 274.5 138.5c115.333 0 206.333 -50.333 273 -151zM240 627.998c0 -106.667 21.5 -192.334 64.5 -257.001s100.833 -97 173.5 -97c71.333 0 128 31.833 170 95.5s63 149.834 63 258.501c0 106.667 -21 191.667 -63 255s-98.667 95 -170 95
c-72.667 0 -130.5 -31.5 -173.5 -94.5s-64.5 -148.167 -64.5 -255.5z" />
    <glyph glyph-name="h" unicode="h" horiz-adv-x="992" 
d="M116 1449l164.001 -0.000976562v-449c43.333 44 87.333 76 132 96s96 30 154 30c121.333 0 207.666 -38.667 258.999 -116c18 -26 30.833 -57.667 38.5 -95s11.5 -83.666 11.5 -138.999v-624h-164v586c0 64 -6 112.333 -18 145c-26 63.333 -80 95 -162 95
c-85.333 0 -152 -33.667 -200 -101c-20 -26 -33.5 -54.5 -40.5 -85.5s-10.5 -76.167 -10.5 -135.5v-504h-164v1297z" />
    <glyph glyph-name="i" unicode="i" horiz-adv-x="395" 
d="M116 1449h164v-185h-164v185zM116 1102h164v-950h-164v950z" />
    <glyph glyph-name="j" unicode="j" horiz-adv-x="395" 
d="M-36 -78c30 -8 52.001 -12 66.001 -12c34.667 0 57.667 10.333 69 31s17 62.334 17 125.001v1036h164v-1061c0 -74.667 -9.66699 -133 -29 -175c-36 -69.333 -99.333 -104 -190 -104h-56c-18.667 3.33301 -32.334 5.66602 -41.001 6.99902v153zM116.001 1449h164v-185
h-164v185z" />
    <glyph glyph-name="k" unicode="k" horiz-adv-x="891" 
d="M117 1449h165v-734l388 387h217l-365 -352l371 -598h-198l-283 484l-130 -122v-362h-165v1297z" />
    <glyph glyph-name="l" unicode="l" horiz-adv-x="395" 
d="M116 1458h164v-1306h-164v1306z" />
    <glyph glyph-name="m" unicode="m" horiz-adv-x="1529" 
d="M1283 150v588c0 96.667 -13 162.667 -39 198s-71.333 53 -136 53c-77.333 0 -137.5 -24 -180.5 -72s-64.5 -115.333 -64.5 -202v-565h-163v588c0 96.667 -13.167 162.667 -39.5 198s-71.5 53 -135.5 53c-76.667 0 -136.667 -24.333 -180 -73s-65 -115.667 -65 -201v-565
h-161v955h153v-135c36 54 78.333 94.167 127 120.5s106 39.5 172 39.5c59.333 0 110 -12.167 152 -36.5s78.333 -62.166 109 -113.499c41.333 51.333 86.666 89.166 135.999 113.499s106.333 36.5 171 36.5c62 0 115.833 -11.167 161.5 -33.5s80.834 -54.833 105.501 -97.5
c13.333 -24 23 -53 29 -87s9 -87.667 9 -161v-28v-573h-161z" />
    <glyph glyph-name="n" unicode="n" 
d="M116 1102l164 -0.00195312v-124c50 56.667 96 95.5 138 116.5s93.667 31.5 155 31.5c60 0 111.833 -11.333 155.5 -34s79.5 -55.667 107.5 -99c11.333 -21.333 20.333 -43 27 -65s10 -48 10 -78l2 -93v-605h-164v574c0 88.667 -10.667 148.334 -32 179.001
c-32 48.667 -83.667 73 -155 73c-96.667 0 -167 -40.333 -211 -121c-9.33301 -15.333 -16.833 -32.666 -22.5 -51.999s-8.5 -41 -8.5 -65l-2 -90v-498h-164v950z" />
    <glyph glyph-name="o" unicode="o" 
d="M66 628c0 156.667 38 278.833 114 366.5s181.667 131.5 317 131.5s241 -43.833 317 -131.5s114 -209.834 114 -366.501c0 -156 -38 -278.5 -114 -367.5s-181.667 -133.5 -317 -133.5c-134 0 -239.333 44.333 -316 133s-115 211.334 -115 368.001zM240 627.999
c0 -111.333 22.667 -198.168 68 -260.501s108.333 -93.5 189 -93.5c82 0 145.167 31.167 189.5 93.5s66.5 150.833 66.5 265.5c0 108.667 -22.333 193.334 -67 254.001s-107.667 91 -189 91c-82 0 -145.333 -30.5 -190 -91.5s-67 -147.167 -67 -258.5z" />
    <glyph glyph-name="p" unicode="p" horiz-adv-x="1059" 
d="M772 629c0 106.667 -25.167 190.333 -75.5 251s-118.5 91 -204.5 91c-86.667 0 -154.167 -31 -202.5 -93s-72.5 -149 -72.5 -261c0 -114.667 23.5 -203 70.5 -265s113.167 -93 198.5 -93c91.333 0 161.833 32 211.5 96s74.5 155.333 74.5 274zM223 -222.001
l-152 0.000976562v1304h152v-126c36.667 53.333 79.667 92.666 129 117.999s107 38 173 38c124.667 0 224 -44.667 298 -134s111 -209 111 -359c0 -152 -37 -273 -111 -363s-173.333 -135 -298 -135c-68.667 0 -128.667 13 -180 39s-92 63.667 -122 113v-495z" />
    <glyph glyph-name="q" unicode="q" horiz-adv-x="1059" 
d="M233 629c0 -118.667 24.833 -209.999 74.5 -273.999s120.167 -96 211.5 -96c85.333 0 151.333 31 198 93s70 150.333 70 265c0 112 -24 199 -72 261s-115.333 93 -202 93c-86 0 -154.167 -30.333 -204.5 -91s-75.5 -144.334 -75.5 -251.001zM782 273.001
c-30 -49.333 -70.668 -87.001 -122.001 -113.001s-111.666 -39 -180.999 -39c-124 0 -223 45 -297 135s-111 211 -111 363c0 150 37 269.667 111 359s173 134 297 134c66.667 0 124.5 -12.667 173.5 -38s92.167 -64.666 129.5 -117.999v126h152v-1304h-152v495z" />
    <glyph glyph-name="r" unicode="r" horiz-adv-x="592" 
d="M117 1102h164.999v-158c61.333 121.333 138.333 182 231 182h27.5c7.66699 0 21.834 -2.33301 42.501 -7v-175l-52 5c-90 0 -157 -32.333 -201 -97c-17.333 -24.667 -29.333 -53.667 -36 -87s-10 -80.333 -10 -141v-472h-167v950z" />
    <glyph glyph-name="s" unicode="s" horiz-adv-x="891" 
d="M65 463h172.998c0 -36.667 2.33301 -63.834 7 -81.501s14.667 -34.167 30 -49.5c38 -38.667 95.667 -58 173 -58c62 0 111.667 12.5 149 37.5s56 58.5 56 100.5c0 20 -6.5 38 -19.5 54s-37.5 32 -73.5 48l-299 93c-110 50 -165 131 -165 243c0 82 32.5 148.5 97.5 199.5
s150.5 76.5 256.5 76.5c141.333 0 243.333 -45 306 -135c16.667 -26 28.167 -49.667 34.5 -71s9.5 -53 9.5 -95h-167c0 44 -10 76.333 -30 97c-38.667 38.667 -92 58 -160 58c-51.333 0 -94.166 -11.167 -128.499 -33.5s-51.5 -49.833 -51.5 -82.5
c0 -51.333 27.333 -87.666 82 -108.999l278 -86l66 -29c8 -3.33301 16.667 -8 26 -14c74.667 -45.333 112 -109.333 112 -192s-30.667 -153 -92 -211c-68 -64 -164.333 -96 -289 -96c-123.333 0 -217.666 28.5 -282.999 85.5s-98 140.5 -98 250.5z" />
    <glyph glyph-name="t" unicode="t" horiz-adv-x="525" 
d="M26 1102l125 -0.000976562v233h163v-233h158v-138h-158v-576c0 -45.333 7 -76.166 21 -92.499s41.667 -24.5 83 -24.5l54 2v-139l-27 -1l-95 -6c-98.667 0 -159.667 35.667 -183 107c-10.667 28 -16 83.333 -16 166v564h-125v138z" />
    <glyph glyph-name="u" unicode="u" 
d="M116 1102l164 -0.000976562v-603c0 -43.333 2.33301 -76.666 7 -99.999s12.667 -44 24 -62c29.333 -42 80 -63 152 -63c81.333 0 146.666 34 195.999 102c20.667 28.667 34.5 60 41.5 94s10.5 83.667 10.5 149v483h164v-947h-152v146c-58 -116 -158.333 -174 -301 -174
c-111.333 0 -193.666 35.667 -246.999 107c-20.667 28 -35.667 62 -45 102s-14 90.667 -14 152v614z" />
    <glyph glyph-name="v" unicode="v" horiz-adv-x="857" 
d="M355 150l-353 955h172l267 -765l261 765h172l-349 -955h-170z" />
    <glyph glyph-name="w" unicode="w" horiz-adv-x="1286" 
d="M14 1102h180.001l139 -554l39 -186c7.33301 40 13.666 72.5 18.999 97.5l19 88.5l144 554h182l141 -547c4.66699 -18 9.66699 -39.333 15 -64s13.333 -64.667 24 -120c4.66699 28.667 10 57 16 85c2 13.333 10.333 46.333 25 99l146 547h172l-281 -950h-168l-183 731
l-185 -731h-167z" />
    <glyph glyph-name="x" unicode="x" horiz-adv-x="869" 
d="M0 150l333 492l-317 463h188l235 -343l230 343h185l-321 -462l342 -493h-194l-250 369l-243 -369h-188z" />
    </font>
</defs>
</svg>
